<?xml version="1.0" standalone="no"?>
<!DOCTYPE svg PUBLIC "-//W3C//DTD SVG 1.1//EN" "http://www.w3.org/Graphics/SVG/1.1/DTD/svg11.dtd" >
<svg xmlns="http://www.w3.org/2000/svg">
<metadata></metadata>
<defs>
<font id="aleoregular" horiz-adv-x="1582" >
<font-face units-per-em="2048" ascent="1649" descent="-399" />
<missing-glyph horiz-adv-x="440" />
<glyph unicode="&#xfb01;" horiz-adv-x="1222" d="M58 942v75h164v57q0 197 119 311q121 117 354 121q191 0 315 -95q57 -40 57 -107q0 -52 -40 -91q-37 -38 -78 -38q-42 0 -63 10q-24 11 -41 28q-38 38 -38 91q0 22 6 41q-92 34 -188 15q-93 -18 -143 -65q-83 -77 -83 -226v-52h627v-867l117 -24q31 -6 31 -38v-88h-330 v885h-438v-735q118 -20 136 -24q30 -6 30 -38v-88h-166h-184h-159v88q0 32 32 38q3 0 17.5 3t45.5 9t64 12v732l-114 13q-50 12 -50 47zM695 0v88q0 32 32 38l117 24v-150h-149z" />
<glyph unicode="&#xfb02;" horiz-adv-x="1340" d="M58 935v82h164v55q0 183 107 298q116 125 319 125l316 -12h102v-1204q2 -82 34 -119q33 -37 113 -37h41q16 0 23 -3q7 -4 9 -17l8 -98q-53 -20 -125 -20q-142 0 -217 86q-68 75 -68 210v1078h-208q-133 0 -205 -76q-72 -77 -72 -212v-54h271v-132h-264v-734 q118 -20 136 -24q30 -6 30 -38v-88h-166h-184h-159v88q0 32 32 38q5 2 127 24v717l-114 16q-50 12 -50 51z" />
<glyph horiz-adv-x="0" />
<glyph unicode="&#xd;" horiz-adv-x="269" />
<glyph horiz-adv-x="269" />
<glyph horiz-adv-x="269" />
<glyph unicode=" "  horiz-adv-x="440" />
<glyph unicode="&#x09;" horiz-adv-x="440" />
<glyph unicode="&#xa0;" horiz-adv-x="440" />
<glyph unicode="!" horiz-adv-x="397" d="M71 113q0 26 9 50q7 20 27 41q15 16 40 27t51 11q25 0 50 -11t41 -27q19 -19 27 -41q10 -27 10 -50q0 -26 -10 -51q-9 -22 -27 -40q-20 -20 -41 -28q-24 -9 -50 -9q-27 0 -51 9q-22 8 -40 28q-20 21 -27 40q-9 22 -9 51zM115 882v585h173v-585q0 -32 -2 -90 q-2 -60 -4 -89q-2 -27 -8 -91q-2 -24 -11 -100h-124q-2 18 -10 100q-6 64 -8 91q-4 60 -5 89t-1 90z" />
<glyph unicode="&#x22;" horiz-adv-x="676" d="M89 1170v297h159v-297l-17 -158q-3 -34 -17 -51q-15 -18 -46 -18q-27 0 -42 18t-21 51zM430 1170v297h159v-297l-17 -158q-3 -34 -17 -51q-15 -18 -46 -18q-27 0 -42 18t-21 51z" />
<glyph unicode="#" horiz-adv-x="1165" d="M48 485q0 1 0.5 5.5t0.5 6.5q0 8 1 12l8 58h209l67 334h-238l14 76q4 28 23 44q17 14 58 14h162l74 367q6 30 28 48q21 17 53 17h82l-86 -432h253l86 432h81q26 0 42 -15q17 -15 17 -40q0 -10 -1 -13l-75 -364h217l-13 -77q-4 -29 -24 -43t-58 -14h-141l-67 -334h184 q25 0 37 -11q14 -12 14 -42q0 -1 -0.5 -5t-0.5 -6q0 -7 -1 -11l-10 -59h-242l-86 -433h-83q-24 0 -40 17t-16 45v8q0 3 2 9l72 354h-253l-72 -363q-7 -36 -32 -54q-22 -16 -52 -16h-81l87 433h-150q-23 0 -37 12q-13 12 -13 40zM418 567h253l66 334h-253z" />
<glyph unicode="$" horiz-adv-x="1055" d="M34 175l54 84q7 11 21 19q13 7 27 7q19 0 44 -20q8 -6 61 -44q35 -25 85 -49q51 -25 119 -32l38 544q-58 17 -140 49q-69 27 -124 70q-54 43 -88 110q-34 68 -34 165q0 74 29 146q29 71 85 127q53 53 138 90q81 35 189 40l10 147q2 20 15 35t36 15h68l-15 -202 q107 -13 186 -56t139 -101l-44 -68q-21 -30 -47 -30q-17 0 -36 12q-27 17 -50 30q-38 21 -69 34q-39 16 -89 24l-34 -496q83 -26 146 -49q75 -28 129 -68q55 -41 92 -105q36 -63 36 -158q0 -89 -31 -173q-29 -78 -90 -142q-58 -61 -144 -100q-83 -38 -195 -44l-12 -181 q-1 -18 -16 -34q-14 -15 -36 -15h-67l15 232q-125 12 -226 61t-175 126zM269 1097q0 -50 18 -86q19 -38 48 -64q28 -25 72 -48q37 -19 89 -37l30 462q-67 -6 -115 -27q-49 -21 -80 -51q-31 -29 -46 -69q-16 -42 -16 -80zM561 140q66 6 118 29q50 22 87 59q36 36 54 84 t18 105q0 51 -19 88q-19 36 -52 63q-31 25 -77 46q-41 18 -94 36z" />
<glyph unicode="%" horiz-adv-x="1567" d="M55 1113q0 85 25 157q23 67 68 115t103 72q61 25 129 25q66 0 128 -25q59 -23 104 -72q42 -45 68 -115t26 -157t-27 -154q-28 -71 -71 -115q-46 -48 -104 -71q-60 -24 -124 -24q-70 0 -129 24t-103 71t-68 115q-25 70 -25 154zM152 0l1067 1431q14 19 28 27q13 9 39 9 h131l-1072 -1437q-13 -16 -24 -22q-16 -8 -34 -8h-135zM199 1113q0 -68 13 -113t39 -76q23 -28 58 -42q32 -13 71 -13t71 13t58 42q24 27 40 76q14 43 14 113q0 72 -14 115q-16 48 -40 77q-26 31 -58 44t-71 13t-71 -13q-34 -14 -58 -44q-26 -33 -39 -77q-13 -45 -13 -115z M867 346q0 85 25 157q24 69 69 117q44 47 102 71q61 25 129 25q66 0 128 -25q58 -23 103 -71t69 -117q25 -72 25 -157q0 -86 -27 -153q-28 -71 -71 -115q-45 -47 -104 -71t-123 -24q-70 0 -129 24q-58 24 -102 71q-45 48 -69 115q-25 70 -25 153zM1011 346q0 -65 14 -113 q13 -46 38 -75q23 -28 58 -42q32 -13 71 -13t71 13t58 42q25 28 40 75q14 43 14 113t-14 115q-15 49 -40 78q-25 30 -58 43q-32 13 -71 13t-71 -13q-35 -14 -58 -43q-25 -31 -38 -78q-14 -50 -14 -115z" />
<glyph unicode="&#x26;" horiz-adv-x="1434" d="M52 391q0 71 24 136q23 61 67 118q40 52 101 97q59 44 128 74q-61 77 -92 154q-30 75 -30 154q0 75 27 141t78 114q52 49 125 77q72 28 164 28q81 0 148 -26q68 -26 115 -69q49 -45 77 -100q27 -55 32 -119l-114 -22q-3 -1 -9 -1q-14 0 -25 7q-12 8 -17 26q-8 29 -23 55 q-17 29 -41 52q-27 25 -60 39q-36 15 -83 15q-53 0 -92 -16q-40 -17 -70 -46q-28 -28 -45 -68q-16 -38 -16 -86q0 -35 9 -68q10 -37 26 -66q18 -33 45 -69q24 -32 66 -74l422 -429q40 71 62 144q24 80 31 151q1 17 13 30q11 12 28 12h113q-1 -116 -38 -232 q-36 -115 -103 -213l307 -311h-176q-31 0 -48 7q-19 8 -41 30l-148 148q-96 -93 -222 -147t-275 -54q-82 0 -161 27q-77 26 -141 81t-100 128q-38 78 -38 171zM238 405q0 -66 24 -117q23 -49 65 -85t91 -53q51 -18 104 -18q114 0 206 42q91 42 161 112l-433 437 q-108 -59 -164 -140q-54 -79 -54 -178z" />
<glyph unicode="'" horiz-adv-x="335" d="M89 1170v297h159v-297l-17 -158q-3 -34 -17 -51q-15 -18 -46 -18q-27 0 -42 18t-21 51z" />
<glyph unicode="(" horiz-adv-x="491" d="M65 644q0 124 15 243q14 114 49 235q34 118 87 232q55 118 130 234l81 -50q10 -6 18 -16t8 -24q0 -15 -11 -35q-107 -184 -163 -393t-56 -426q0 -218 57 -425q58 -211 162 -394q8 -17 9 -20q2 -10 2 -16q0 -13 -8 -23q-10 -12 -18 -17l-81 -49q-76 118 -130 233t-87 233 q-35 124 -49 235q-15 119 -15 243z" />
<glyph unicode=")" horiz-adv-x="492" d="M42 -211q0 6 2 16q1 7 8 20q106 186 163 394q56 203 56 425q0 221 -55 426t-164 393q-10 19 -10 35t7 24q7 9 19 16l80 50q78 -121 131 -234q53 -114 87 -232q35 -121 49 -235q15 -119 15 -243t-15 -243q-14 -111 -49 -235q-33 -118 -87 -233q-51 -109 -131 -233l-80 49 q-10 6 -19 17q-7 8 -7 23z" />
<glyph unicode="*" horiz-adv-x="753" d="M67 1341l45 77l177 -102q36 -21 58 -53q-11 21 -13 37q-3 20 -3 39v203h90v-202q0 -44 -14 -73q14 17 25 26q16 14 31 23l176 101l45 -77l-176 -102q-15 -10 -34 -17q-21 -8 -36 -9q22 -2 36 -7q19 -7 34 -17l177 -104l-45 -76l-177 102q-25 17 -33 23q-15 12 -26 27 q17 -36 17 -74v-202h-90v201q0 25 2 37q3 19 10 34q-22 -26 -54 -46l-176 -101l-45 76l176 103q38 21 74 24q-18 1 -38 8q-18 6 -36 18z" />
<glyph unicode="+" horiz-adv-x="1094" d="M56 618v139h415v437h150v-437h416v-139h-416v-440h-150v440h-415z" />
<glyph unicode="," horiz-adv-x="427" d="M94 126q0 23 9 44q10 23 24 37q16 16 39 25q25 10 49 10q31 0 55 -12t40 -31t24 -46t8 -57q0 -47 -13 -95q-14 -51 -38 -99q-23 -46 -61 -95q-34 -44 -83 -85l-30 30q-14 12 -14 29q0 13 15 28q19 21 26 30q13 15 32 43q15 22 30 55t20 63h-13q-27 0 -48 9t-38 26 q-13 13 -24 40q-9 23 -9 51z" />
<glyph unicode="-" horiz-adv-x="699" d="M97 537v154h506v-154h-506z" />
<glyph unicode="." horiz-adv-x="432" d="M91 113q0 23 10 50q8 21 26 41q14 15 41 27q25 11 50 11t50 -11t41 -27q19 -19 27 -41q10 -27 10 -50q0 -26 -10 -51q-9 -22 -27 -40q-20 -20 -41 -28q-24 -9 -50 -9t-50 9q-23 9 -41 28t-26 40q-10 25 -10 51z" />
<glyph unicode="/" horiz-adv-x="861" d="M34 -92l615 1533q13 31 38 50q23 17 58 17h77l-611 -1530q-15 -35 -43 -53q-27 -17 -57 -17h-77z" />
<glyph unicode="0" horiz-adv-x="1207" d="M72 733q0 191 41 334q41 142 112 234q72 93 169 138t209 45q113 0 210 -45t169 -138q70 -91 113 -234q42 -141 42 -334q0 -192 -42 -333q-43 -144 -113 -233q-73 -93 -169 -137q-97 -45 -210 -45q-111 0 -209 45q-96 44 -169 137q-71 90 -112 233t-41 333zM260 733 q0 -169 28 -281q28 -113 76 -184t109 -100q63 -30 130 -30t130 30q60 29 110 100q47 67 76 184q28 112 28 281q0 170 -28 282q-29 117 -76 184q-50 71 -110 100q-63 30 -130 30t-130 -30q-61 -29 -109 -100t-76 -184q-28 -112 -28 -282z" />
<glyph unicode="1" horiz-adv-x="953" d="M39 1093l436 377h149v-1331q241 -18 260 -21q28 -6 28 -36v-82h-786v60v22q0 30 29 36l286 21v1001q0 44 3 91l-262 -224q-21 -16 -37 -16q-34 0 -49 23z" />
<glyph unicode="2" horiz-adv-x="1088" d="M50 0v63q0 18 8 40q7 20 25 38l470 472q66 67 106 114q52 60 83 110q36 58 53 112q18 57 18 122q0 67 -20 113q-21 49 -57 80q-36 32 -84 48q-47 16 -103 16q-55 0 -103 -17q-47 -17 -83 -45q-35 -28 -61 -69q-25 -40 -36 -89q-7 -29 -24 -43q-16 -13 -43 -13 q-1 0 -5 0.5t-6 0.5q-8 0 -13 1l-95 17q15 100 55 177q40 76 104 130q62 52 144 79q81 27 176 27q93 0 174 -27q79 -26 140 -81q59 -53 93 -128q33 -73 33 -172q0 -83 -24 -152q-22 -65 -67 -133q-42 -65 -97 -124q-74 -80 -116 -123l-386 -395q40 12 83 18q49 7 81 7h402 q10 114 11 118q3 15 15 25t27 10h99v-168v-33v-126h-977z" />
<glyph unicode="3" horiz-adv-x="1085" d="M41 367l78 32q23 10 43 10t36 -9t24 -27q0 -1 2 -4t2 -5q1 -1 2.5 -4.5t1.5 -5.5q21 -42 35 -67q20 -35 56 -70q33 -32 86 -55q52 -23 129 -23t134 25q58 25 96 65q39 40 58 89q20 51 20 98q0 60 -16 108q-17 51 -57 85q-42 36 -115 57q-70 20 -188 20v132q93 2 159 21 q68 20 108 53q41 34 61 81q19 45 19 104q0 63 -20 111q-20 47 -55 78q-37 32 -82 46q-48 15 -103 15q-57 0 -102 -16q-47 -17 -84 -46q-38 -30 -61 -69q-25 -43 -37 -88q-7 -29 -24 -43q-16 -13 -42 -13h-11q-3 0 -13 2l-95 16q15 101 55 178q39 75 104 129q63 53 145 80 q81 27 175 27q93 0 172 -27q80 -27 136 -76q58 -51 89 -118q31 -68 31 -155q0 -68 -18 -124q-18 -55 -51 -97q-32 -40 -80 -70q-44 -27 -106 -46q143 -37 216 -127q72 -88 72 -223q0 -103 -38 -182q-39 -81 -105 -138t-155 -87q-88 -30 -190 -30q-116 0 -200 29 q-82 28 -140 80q-57 51 -95 122q-36 67 -62 152z" />
<glyph unicode="4" horiz-adv-x="1197" d="M48 520l714 947h170v-938h222v-104q0 -15 -10 -28q-8 -11 -30 -11h-182v-386h-161v386h-650q-20 0 -35 12t-19 29zM246 529h525v606q0 17 2 57q1 30 6 63z" />
<glyph unicode="5" horiz-adv-x="1039" d="M42 138l55 78q18 27 49 27q21 0 46 -16q26 -17 63 -36q32 -17 87 -35q48 -16 118 -16q74 0 138 25q60 23 105 70q42 43 67 109q24 63 24 142q0 67 -20 124q-19 55 -61 95q-40 39 -101 60q-60 21 -141 21q-55 0 -115 -9q-65 -10 -123 -29l-114 33l119 686h695v-79 q0 -37 -25 -64q-24 -26 -83 -26h-460l-68 -385q119 25 212 25q116 0 202 -34q89 -35 147 -93q61 -61 90 -140q30 -81 30 -176q0 -115 -41 -211q-40 -93 -112 -162q-69 -66 -168 -103q-93 -35 -207 -35q-71 0 -124 12q-57 13 -111 35q-48 20 -95 49q-39 25 -78 58z" />
<glyph unicode="6" horiz-adv-x="1100" d="M57 484q0 98 43 205q44 110 137 234l371 500q16 19 40 32q23 12 59 12h161l-509 -644q53 37 116 56q65 20 137 20q86 0 167 -29q77 -28 139 -85q59 -54 94 -137q35 -82 35 -186q0 -103 -37 -189q-37 -87 -103 -151t-159 -102q-89 -36 -205 -36q-113 0 -200 35 q-92 37 -154 100t-97 158q-35 94 -35 207zM233 453q0 -71 21 -129q21 -59 60 -101q40 -43 96 -65q58 -23 130 -23q73 0 133 24q62 25 102 65q42 42 65 100t23 125q0 72 -22 129q-21 55 -64 98q-41 41 -98 62q-60 22 -126 22q-74 0 -133 -25q-57 -24 -101 -68 q-41 -41 -64 -98q-22 -54 -22 -116z" />
<glyph unicode="7" horiz-adv-x="1112" d="M63 1110v357h998v-82q0 -51 -24 -95l-607 -1225q-33 -65 -100 -65h-130l616 1210q29 54 58 88h-655q-12 -146 -14 -153q-8 -35 -42 -35h-100z" />
<glyph unicode="8" horiz-adv-x="1100" d="M57 401q0 141 74 233t211 131q-118 44 -175 128q-58 85 -58 205q0 82 31 151q32 71 90 123q57 51 140 82q81 30 182 30q98 0 181 -30q82 -30 140 -82q60 -54 91 -123t31 -151q0 -121 -59 -205t-174 -128q137 -39 211 -131t74 -233q0 -93 -37 -173q-36 -77 -101 -132 t-156 -83q-93 -29 -201 -29t-201 29q-88 27 -156 83q-66 54 -102 132t-36 173zM246 404q0 -61 21 -112t60 -87q40 -37 96 -56q58 -20 129 -20q70 0 128 20t97 56t60 87t21 112q0 77 -25 130t-68 88q-38 32 -97 49q-54 16 -116 16t-116 -16q-60 -18 -98 -49q-42 -34 -67 -88 q-25 -53 -25 -130zM287 1095q0 -55 14 -98q16 -48 46 -83t83 -58q50 -22 122 -22t122 22q53 23 83 58t46 83q14 43 14 98q0 50 -17 96q-16 43 -50 79q-31 33 -83 53q-48 19 -115 19t-115 -19q-52 -20 -83 -53q-34 -36 -50 -79q-17 -46 -17 -96z" />
<glyph unicode="9" horiz-adv-x="1070" d="M57 1023q0 96 36 180q36 83 101 147q63 61 153 98q88 36 196 36q104 0 191 -35q88 -35 148 -97q61 -62 94 -150q34 -90 34 -192q0 -64 -12 -121q-13 -59 -34 -111q-22 -54 -54 -108q-36 -62 -71 -111l-358 -516q-13 -18 -38 -31q-24 -12 -56 -12h-168l447 585l42 56 q9 12 36 53q-55 -44 -127 -68q-71 -24 -149 -24q-81 0 -157 28q-74 27 -131 81q-55 52 -89 132t-34 180zM240 1036q0 -67 20 -124q20 -56 57 -93q38 -38 91 -57q55 -20 120 -20q74 0 131 24q58 24 96 64q37 39 59 93q21 53 21 108q0 71 -22 125q-23 56 -61 94q-39 39 -93 60 t-118 21q-70 0 -124 -22q-57 -23 -95 -61q-41 -41 -61 -93q-21 -54 -21 -119z" />
<glyph unicode=":" horiz-adv-x="423" d="M87 113q0 23 10 50q8 21 26 41q14 15 41 27q25 11 50 11t50 -11t41 -27q19 -19 27 -41q10 -27 10 -50q0 -26 -10 -51q-9 -22 -27 -40q-20 -20 -41 -28q-24 -9 -50 -9t-50 9q-23 9 -41 28t-26 40q-10 25 -10 51zM87 881q0 23 10 50q8 21 26 41q14 15 41 27q25 11 50 11 t50 -11t41 -27q19 -19 27 -41q10 -27 10 -50q0 -26 -10 -51q-9 -22 -27 -40q-20 -20 -41 -28q-24 -9 -50 -9t-50 9q-23 9 -41 28t-26 40q-10 25 -10 51z" />
<glyph unicode=";" horiz-adv-x="422" d="M87 881q0 23 10 50q8 21 26 41q14 15 41 27q25 11 50 11t50 -11t41 -27q19 -19 27 -41q10 -27 10 -50q0 -26 -10 -51q-9 -22 -27 -40q-20 -20 -41 -28q-24 -9 -50 -9t-50 9q-23 9 -41 28t-26 40q-10 25 -10 51zM93 126q0 23 9 44q10 23 24 37q16 16 39 25q25 10 49 10 q31 0 55 -12t40 -31t24 -46t8 -57q0 -47 -13 -95q-14 -51 -38 -99q-23 -46 -61 -95q-34 -44 -83 -85l-30 30q-14 12 -14 29q0 13 15 28q19 21 26 30q13 15 32 43q15 22 30 55t20 63h-13q-27 0 -48 9t-38 26q-13 13 -24 40q-9 23 -9 51z" />
<glyph unicode="&#x3c;" horiz-adv-x="930" d="M62 651v76l793 411v-130q0 -17 -8 -31q-7 -12 -29 -23l-460 -233q-20 -11 -43 -19q-25 -8 -49 -14q21 -4 49 -13q15 -5 43 -19l460 -232q22 -11 29 -24q8 -14 8 -29v-131z" />
<glyph unicode="=" horiz-adv-x="1077" d="M99 450v138h880v-138h-880zM99 793v138h880v-138h-880z" />
<glyph unicode="&#x3e;" horiz-adv-x="932" d="M79 240v131q0 15 8 29q7 13 29 24l459 232q28 14 43 19q29 10 48 13q-20 5 -48 14q-23 8 -43 19l-459 233q-22 11 -29 23q-8 14 -8 31v130l791 -411v-76z" />
<glyph unicode="?" horiz-adv-x="841" d="M44 1336q33 31 70 57q35 24 84 47q40 19 98 32q52 12 115 12q81 0 150 -24q73 -25 119 -66q51 -45 79 -105t28 -138q0 -76 -23 -134t-58 -99q-39 -45 -77 -74q-14 -11 -40.5 -30.5t-38.5 -28.5q-34 -26 -62 -55q-26 -27 -30 -61l-19 -157h-125l-12 170v11q0 43 23 77 q24 35 58 62q51 41 76 58q37 26 76 65q36 36 58 80q23 46 23 107q0 46 -17 80q-18 37 -47 61q-28 24 -70 38q-39 13 -87 13q-62 0 -107 -15q-41 -14 -75 -34q-26 -16 -50 -34q-19 -15 -31 -15q-25 0 -40 24zM245 113q0 26 9 50q7 20 27 41q14 15 41 27q25 11 50 11t50 -11 t41 -27q19 -19 27 -41q10 -27 10 -50q0 -26 -10 -51q-9 -22 -27 -40q-20 -20 -41 -28q-24 -9 -50 -9t-50 9q-23 9 -41 28q-20 21 -27 40q-9 23 -9 51z" />
<glyph unicode="@" horiz-adv-x="1637" d="M62 582q0 110 29 215q29 104 79 193q52 91 123 164q75 77 160 127q90 53 189 81q107 30 212 30q94 0 184 -21q96 -22 171 -60q80 -40 148 -99q69 -59 116 -135q50 -79 76 -170q27 -93 27 -204q0 -112 -31 -204q-32 -95 -86 -162q-55 -69 -129 -108t-161 -39 q-81 0 -130 39q-50 39 -63 118q-61 -83 -129 -119q-67 -35 -150 -35q-61 0 -106 21q-46 21 -75 58q-30 38 -45 88q-15 51 -15 111q0 87 33 176t99 159q69 74 163 117q97 45 226 45q67 0 120 -11q54 -11 98 -31l-95 -370q-20 -78 -20 -127q0 -34 10 -61q9 -25 25 -38 q19 -15 36 -19q23 -5 45 -5q49 0 95 29t80 81q35 53 54 125q20 75 20 162q0 139 -46 248q-45 107 -125 178q-79 70 -187 106t-233 36q-138 0 -257 -52t-209 -145q-89 -92 -140 -218t-51 -274q0 -178 54 -306q56 -133 150 -221q95 -89 222 -134t274 -45q157 0 275 34 q121 35 206 86q15 9 28 9q22 0 32 -24l25 -68q-111 -74 -249 -116q-140 -42 -317 -42t-330 57t-264 162q-113 107 -177 259t-64 349zM599 476q0 -74 34 -118q35 -45 100 -45q29 0 64 11t63 35t55 70q22 37 42 111l78 302q-41 9 -87 9q-78 0 -141 -32t-110 -85 q-47 -52 -72 -120q-26 -69 -26 -138z" />
<glyph unicode="A" d="M51 0v81q0 28 27 34l82 24l531 1328h202l530 -1328l82 -24q27 -6 27 -34v-81h-421v81q0 27 28 35l84 23l-115 296h-633l-115 -296l84 -23q28 -8 28 -35v-81h-421zM530 579h523l-217 563q-24 59 -44 138q-21 -78 -43 -139z" />
<glyph unicode="B" horiz-adv-x="1290" d="M69 0v88q0 32 30 38l117 24v1168q-25 5 -54.5 10.5t-43.5 8.5t-19 4q-30 6 -30 38v88h615q392 0 487 -222q30 -72 30 -143t-17 -122q-17 -52 -50 -93q-72 -90 -208 -132q324 -65 324 -337q0 -189 -134 -302q-139 -116 -381 -116h-666zM415 158h317q244 0 304 158 q19 51 19 107q0 114 -81 180t-243 66h-316v-511zM415 810h262q244 0 307 148q20 48 20 103q0 129 -78 189q-79 61 -242 61h-269v-501z" />
<glyph unicode="C" horiz-adv-x="1301" d="M46 733q0 334 205 542q206 209 543 209q171 0 453 -106v-114v-228h-99q-34 0 -42 35q-3 12 -9 93q-7 88 -7 92q-171 54 -311 54q-235 0 -381 -154q-149 -156 -149 -423t147 -426q139 -152 362 -152q127 0 193 24q102 38 182 109q18 15 33 15q17 0 30 -13l78 -85 q-191 -221 -529 -221q-315 0 -507 209q-192 207 -192 540z" />
<glyph unicode="D" horiz-adv-x="1521" d="M70 0v88q0 32 30 38l117 24v1168q-25 5 -54.5 10.5t-43.5 8.5t-19 4q-30 6 -30 38v88h676q326 0 524 -201q199 -203 199 -533q0 -166 -52 -300q-53 -135 -147 -231q-200 -202 -524 -202h-676zM417 161h329q239 0 378 151q142 154 142 421q0 137 -37 242q-37 107 -105 180 q-138 152 -378 152h-329v-1146z" />
<glyph unicode="E" horiz-adv-x="1202" d="M70 0v88q0 32 30 38l117 24v1168q-25 5 -54.5 10.5t-43.5 8.5t-19 4q-30 6 -30 38v88h1051v-354h-98q-35 0 -43 36q-2 14 -14 157h-549v-488h540v-155h-540v-501h550q12 142 13 145q8 35 43 35h98v-342h-1051z" />
<glyph unicode="F" horiz-adv-x="1197" d="M70 0v88q0 32 30 38l117 24v1168q-25 5 -54.5 10.5t-43.5 8.5t-19 4q-30 6 -30 38v88h147h939v-354h-99q-35 0 -42 36q-4 26 -15 157h-583v-513h557v-162h-557v-481q7 -1 45.5 -9t71.5 -15q30 -6 30 -38v-88h-494z" />
<glyph unicode="G" horiz-adv-x="1400" d="M46 733q0 337 203 543q205 208 548 208q236 0 518 -106v-342h-98q-35 0 -43 35q-6 62 -16 185q-72 22 -78 24q-117 32 -264 32q-148 0 -250 -41q-101 -41 -171 -115q-146 -155 -146 -423q0 -274 150 -433q147 -156 387 -156q200 0 364 86v324h-227q-21 0 -32 11t-11 28 v113h450v-564q-219 -158 -558 -158q-321 0 -522 207q-204 210 -204 542z" />
<glyph unicode="H" horiz-adv-x="1616" d="M69 0v88q0 32 30 38l117 24v1168q-99 20 -123 24t-24 37v88h494v-88q0 -32 -22 -36q-2 0 -21.5 -4t-46 -9.5t-57.5 -11.5v-505h790v505q-99 20 -123 24t-24 37v88h495v-88q0 -32 -31 -38l-117 -23v-1168q28 -6 56 -11.5t45 -9t23 -4.5q24 -5 24 -37v-88h-495v88 q0 32 31 38l116 24v518h-790v-518q147 -30 147 -62v-88h-494z" />
<glyph unicode="I" horiz-adv-x="625" d="M69 0v88q0 32 30 38l117 24v1168q-99 20 -123 24t-24 37v88h494v-88q0 -32 -32 -38l-116 -23v-1168q28 -6 56 -11.5t45 -9t23 -4.5q24 -5 24 -37v-88h-494z" />
<glyph unicode="J" horiz-adv-x="905" d="M55 12q9 130 22 143t33 13q21 0 51 -9t82 -9q283 0 283 353v815q-129 21 -136 23q-31 6 -31 38v88h512v-88q0 -32 -30 -38l-117 -23v-811q0 -379 -264 -488q-83 -35 -192 -35q-107 0 -213 28z" />
<glyph unicode="K" horiz-adv-x="1455" d="M69 0v88q0 32 30 38l117 24v1168q-25 5 -54.5 10.5t-43.5 8.5t-19 4q-30 6 -30 38v88h493v-88q0 -32 -32 -38q-56 -12 -116 -23v-494h74q69 0 106 43l411 465q-62 13 -90 18q-28 6 -28 35v82h462l3 -77q0 -32 -31 -38q-1 0 -32.5 -8t-62.5 -16l-436 -492q-47 -51 -81 -67 q47 -16 95 -74l464 -553l48 -10t37 -7.5t18 -3.5q31 -6 31 -38v-83h-481v82q0 30 28 36q11 1 94 18l-425 489q-36 39 -62 43q-24 4 -52 4h-90v-522q46 -10 116 -24q32 -6 32 -38v-88h-493z" />
<glyph unicode="L" horiz-adv-x="1167" d="M69 0v88q0 14 9 24.5t22 13.5l116 23v1169q-98 19 -116 23q-13 3 -22 13.5t-9 24.5v88h147h199h148v-88q0 -13 -9 -24t-23 -14q-8 -2 -36.5 -7.5t-53.5 -10.5t-26 -5v-1151h529q9 110 11 117q3 15 15.5 25t27.5 10h99v-319h-47h-19h-815h-147z" />
<glyph unicode="M" horiz-adv-x="1953" d="M69 0v88q0 32 30 38l117 24v1168q-25 5 -54.5 10.5t-43.5 8.5t-19 4q-30 6 -30 38v88h293q24 0 41 -5q15 -4 28 -28l507 -904q21 -35 46 -106q19 54 47 107l497 903q13 24 27 28q17 5 41 5h295v-88q0 -32 -31 -38q-111 -23 -117 -23v-1168q99 -20 117 -24q31 -6 31 -38 v-88h-489v88q0 32 30 38q35 7 137 24v928q0 52 4 97l-503 -918q-25 -46 -72 -46h-28q-47 0 -72 46l-514 921q6 -54 6 -100v-928q88 -14 139 -25q28 -6 28 -37v-88h-488z" />
<glyph unicode="N" horiz-adv-x="1589" d="M70 0v88q0 32 30 38l117 24v1168q-25 5 -54.5 10.5t-43.5 8.5t-19 4q-30 6 -30 38v88h249q27 0 40 -6q12 -5 29 -27l850 -1106q-5 48 -5 100v890q-35 6 -66.5 11.5t-48.5 8t-21 3.5q-31 6 -31 38v88h167h174h148v-88q0 -32 -31 -38l-117 -23v-1318h-100q-43 0 -71 36 l-849 1105q4 -47 4 -95v-896q118 -20 136 -24q31 -6 31 -38v-88h-488z" />
<glyph unicode="O" horiz-adv-x="1545" d="M46 733q0 166 52 303q51 134 148 237q93 99 228 155t295 56t295 -56q137 -57 229 -155q97 -103 148 -237q52 -137 52 -303q0 -165 -52 -302q-52 -136 -148 -237q-95 -99 -229 -155q-130 -54 -295 -54t-295 54q-133 55 -228 155q-96 101 -148 237q-52 137 -52 302z M249 733q0 -137 37 -242q38 -108 105 -181q69 -76 164 -114q96 -39 214 -39q119 0 215 39q95 38 164 114q65 71 104 181q37 105 37 242q0 136 -37 243q-38 111 -104 182q-67 73 -164 114q-95 40 -215 40q-119 0 -214 -40q-97 -41 -164 -114t-105 -182q-37 -107 -37 -243z " />
<glyph unicode="P" horiz-adv-x="1211" d="M70 0v88q0 32 30 38l117 24v1168q-25 5 -54.5 10.5t-43.5 8.5t-19 4q-30 6 -30 38v88h553q140 0 242 -31q304 -96 304 -423q0 -210 -140 -334q-146 -130 -406 -130h-208v-399q26 -6 116 -24q31 -6 31 -38v-88h-492zM415 707h208q167 0 257 83q91 84 91 223t-87 219 q-86 79 -261 79h-208v-604z" />
<glyph unicode="Q" horiz-adv-x="1575" d="M46 733q0 166 52 303q51 134 148 237q93 99 228 155t295 56t295 -56q137 -57 229 -155q97 -103 148 -237q52 -137 52 -303q0 -103 -21 -196q-21 -95 -61 -174q-40 -80 -97 -146t-129 -114l377 -406h-164q-39 0 -66 10q-28 10 -52 36l-258 281q-63 -19 -121 -29 q-60 -10 -132 -10q-165 0 -295 54q-133 55 -228 155q-96 101 -148 237q-52 137 -52 302zM249 733q0 -137 37 -242q38 -108 105 -181q69 -76 164 -114q96 -39 214 -39q119 0 215 39q95 38 164 114q65 71 104 181q37 105 37 242q0 136 -37 243q-38 111 -104 182 q-67 73 -164 114q-95 40 -215 40q-119 0 -214 -40q-97 -41 -164 -114t-105 -182q-37 -107 -37 -243z" />
<glyph unicode="R" horiz-adv-x="1370" d="M69 0v88q0 14 9 24.5t22 13.5l116 23v1169q-98 19 -116 23q-13 3 -22 13.5t-9 24.5v88h147h395q141 0 241 -28t167 -81q66 -52 98 -129q32 -76 32 -168q0 -76 -25 -146q-23 -66 -71 -121q-48 -56 -113 -92q-68 -38 -153 -57q37 -21 66 -62l319 -434q53 -12 114 -23 q14 -3 23 -14t9 -24v-88h-37h-111h-65q-55 0 -80 42l-381 524q-20 27 -38 36q-20 10 -61 10h-131v-463q12 0 116 -23q14 -3 23 -14t9 -24v-88h-148h-198h-147zM414 757h188q87 0 153 21q68 22 111 59q45 39 67 92q22 51 22 118q0 132 -86 197q-88 67 -258 67h-197v-554z" />
<glyph unicode="S" horiz-adv-x="1037" d="M75 62v368h99q34 0 42 -35q5 -20 10 -101l6 -89q152 -57 248 -57q95 0 152 20q56 20 94 55q79 72 79 194q0 117 -110 180q-49 29 -111 49q-192 59 -258 89q-64 29 -113 72q-110 99 -110 273q0 165 118 280q125 124 327 124q201 0 411 -84v-337h-99q-36 0 -42 35 q-1 3 -16 182q-137 39 -242 39q-128 0 -203 -67q-69 -62 -69 -161q0 -109 110 -171q55 -32 114 -51q187 -62 257 -93q222 -100 222 -331q0 -199 -128 -327q-137 -134 -363 -134q-98 0 -202 19q-103 19 -165 39z" />
<glyph unicode="T" horiz-adv-x="1288" d="M45 1143v324h1105h71h27v-324h-99q-35 0 -40 21q-2 9 -17 136h-346v-1150l3 -1q3 -1 9.5 -2.5t13.5 -2.5q18 -3 101 -20q22 -4 22 -36v-88h-495v88q0 31 35 39q58 13 113 23v1150h-346q-16 -120 -19 -136q-5 -21 -39 -21h-99z" />
<glyph unicode="U" horiz-adv-x="1534" d="M37 1379v88h513v-88q0 -32 -32 -38q-4 -1 -20 -3.5t-49 -8t-67 -11.5v-741q0 -188 102 -302q104 -117 285 -117t285 116q101 113 101 301v743q-34 6 -66.5 11.5t-48.5 8t-20 3.5q-32 6 -32 38v88h167h198h148v-88q0 -32 -32 -38l-116 -23v-743q0 -258 -156 -423 q-160 -169 -428 -169q-266 0 -428 169q-157 166 -157 423v743q-113 22 -116 23q-31 6 -31 38z" />
<glyph unicode="V" horiz-adv-x="1596" d="M39 1379v88h487v-88q0 -33 -40 -40q-46 -8 -107 -21l374 -933q23 -56 49 -161q22 103 45 161l372 933q-25 5 -54.5 10.5t-43.5 8.5t-19 4q-31 6 -31 38v88h489v-88q0 -32 -31 -38l-103 -23l-537 -1318h-179l-537 1318q-24 5 -48 10.5t-37 8.5t-18 4q-31 6 -31 38z" />
<glyph unicode="W" horiz-adv-x="2305" d="M38 1379v88h498v-88q0 -32 -31 -38q-112 -22 -117 -23l272 -918q12 -42 28 -126q17 85 31 126l345 1020q6 18 24 33q17 14 44 14h57q50 0 67 -47l343 -1020q18 -53 33 -121q1 5 5.5 28.5t6.5 35.5q3 21 13 57l273 918q-4 1 -115 23q-32 6 -32 38v88h399h87v-88 q0 -32 -31 -38l-102 -23l-412 -1318h-178l-371 1119q-12 31 -21 74q-1 -5 -4.5 -18t-5.5 -20q-6 -26 -9 -36l-374 -1119h-178l-411 1318q-24 5 -48 10.5t-37 8.5t-18 4q-31 6 -31 38z" />
<glyph unicode="X" horiz-adv-x="1545" d="M63 0v88q0 32 31 38q50 10 136 24l406 604l-383 564q-129 21 -136 23q-32 6 -32 38v88h523v-88q0 -32 -33 -38q-11 -2 -99 -20l306 -469q5 19 22 47l281 419q-10 2 -48.5 9.5t-67.5 13.5q-31 6 -31 38v88h526v-88q0 -33 -25 -37q-3 -1 -142 -24l-383 -555l404 -613 q117 -19 136 -24q31 -6 31 -38v-88h-540v88q0 32 31 38q3 0 11 2t23 5t29 6q10 2 19 4t15 3t10.5 2t6.5 2h3l-322 503q-10 -28 -18 -41l-310 -462q1 0 7 -1.5t16 -3.5t23 -4.5t32 -6.5t39 -8q31 -6 31 -38v-88h-528z" />
<glyph unicode="Y" horiz-adv-x="1435" d="M39 1379v88h493v-88q0 -32 -31 -38q-113 -23 -116 -23l274 -467q32 -55 60 -130q25 72 58 130l275 467q-5 1 -117 23q-31 6 -31 38v88h494v-88q0 -32 -26 -37q-26 -4 -108 -24l-448 -734v-434q15 -3 117 -24q31 -6 31 -38v-88h-148h-198h-147v88q0 32 31 38l116 24v434 l-446 734q-85 20 -104 24q-29 6 -29 37z" />
<glyph unicode="Z" horiz-adv-x="1244" d="M63 0v78q0 30 20 58l831 1170h-656q-13 -155 -14 -161q-8 -35 -42 -35h-100v196v161h1074v-73q0 -35 -22 -66l-830 -1166h682q13 155 14 161q7 34 42 34h99v-195v-162h-1098z" />
<glyph unicode="[" horiz-adv-x="532" d="M114 -296v1866h376v-72q0 -22 -13 -35t-37 -13h-173v-1625h173q24 0 37 -13t13 -36v-72h-376z" />
<glyph unicode="\" horiz-adv-x="864" d="M43 1508h78q35 0 58 -17q25 -19 38 -50l616 -1533h-77q-32 0 -59 17q-29 18 -42 53z" />
<glyph unicode="]" horiz-adv-x="531" d="M43 -224q0 19 14 35q13 14 36 14h173v1625h-173q-22 0 -36 14t-14 34v72h377v-1866h-377v72z" />
<glyph unicode="^" horiz-adv-x="965" d="M57 806l367 661h118l366 -661h-132q-19 0 -30 10q-13 12 -20 25l-201 360q-16 28 -23 46q-15 38 -17 43q-17 -51 -38 -89l-198 -360q-7 -13 -20 -25q-11 -10 -32 -10h-140z" />
<glyph unicode="_" horiz-adv-x="1051" d="M121 -169h807v-123h-807v123z" />
<glyph unicode="`" horiz-adv-x="555" d="M75 1484h173q33 0 50 -11q16 -10 31 -34l152 -248h-104q-19 0 -35 7q-11 5 -28 22z" />
<glyph unicode="a" horiz-adv-x="1051" d="M48 262q0 63 34 119q35 58 109 101q75 43 197 72q124 29 298 29v81q0 120 -52 184q-50 62 -153 62q-66 0 -112 -17q-49 -18 -79 -37q-23 -15 -57 -38q-25 -17 -48 -17q-19 0 -32 9q-14 10 -22 25l-33 58q87 84 185 124q100 41 220 41q86 0 155 -29q67 -28 114 -80 q44 -48 69 -124q24 -72 24 -159v-518q16 -3 56 -11l45 -9q13 -3 22 -13.5t9 -24.5v-88h-132h-15h-66q-25 0 -43 8q-16 7 -21 35l-21 96q-39 -36 -80 -66q-43 -32 -82 -49q-44 -20 -91 -30q-46 -10 -108 -10q-60 0 -114 17q-53 17 -91 50q-40 36 -62 86q-23 54 -23 123z M223 270q0 -42 13 -71t36 -49q21 -19 53 -28q27 -8 67 -8q53 0 88 9q34 8 75 28q31 16 68 44q35 27 63 58v214q-128 0 -214 -16q-88 -17 -144 -42q-53 -24 -80 -61q-25 -34 -25 -78z" />
<glyph unicode="b" horiz-adv-x="1157" d="M33 1420v89h162h6h177v-621q65 75 148 120q86 46 191 46q92 0 163 -34q75 -36 124 -101q51 -68 78 -166q28 -103 28 -227v-4v-3q0 -130 -35 -226q-37 -101 -97 -167q-63 -69 -145 -104q-84 -36 -181 -36q-82 0 -196.5 14t-187.5 28l-73 15v17v149v1151q-123 21 -131 22 q-13 3 -22 13.5t-9 24.5zM378 161q101 -26 204 -32q13 -1 40 -1h12q67 3 112 25q55 25 95 76q39 49 60 123q19 64 21 158v16q0 102 -18 174q-18 74 -52 119q-36 48 -83 68q-52 22 -111 22q-89 0 -157 -41q-64 -38 -123 -116v-242v-260v-89z" />
<glyph unicode="c" horiz-adv-x="927" d="M45 519q0 239 126 384q133 151 363 151q119 0 307 -76v-269h-82q-31 0 -35 28q-4 15 -8 77q-1 19 -2.5 36t-2 24.5t-0.5 8.5q-46 14 -76 19q-57 8 -104 8h-11q-55 -1 -112 -27q-56 -25 -97 -77q-79 -103 -79 -287q0 -187 82 -291q79 -101 221 -101q127 0 228 86 q17 16 39 16t33 -17l51 -67q-130 -159 -383 -159q-201 0 -326 140q-132 146 -132 393z" />
<glyph unicode="d" horiz-adv-x="1156" d="M46 515q0 235 120 385q123 156 329 156q172 0 283 -123v426q-87 14 -136 23q-32 6 -32 38v88h351v-1358q94 -19 116 -24q31 -6 31 -38v-88h-256q-38 0 -49 38l-17 126q-147 -178 -348 -178q-182 0 -285 135q-107 139 -107 394zM234 515q0 -294 152 -360q52 -22 113 -22 q160 0 279 157v502q-90 121 -239 121t-227 -103q-78 -104 -78 -295z" />
<glyph unicode="e" horiz-adv-x="1008" d="M44 540q0 108 33 202q33 95 96 164t153 108q92 40 202 40q91 0 172 -32q80 -32 137 -90q56 -57 89 -145q32 -84 32 -197q0 -43 -9 -58q-8 -14 -35 -14h-690q1 -94 27 -171q25 -74 67 -121q45 -50 103 -73q60 -24 133 -24q70 0 118 16q54 18 86 34q33 17 60 35 q22 15 41 15q24 0 35 -17l51 -67q-35 -42 -81 -71q-44 -28 -101 -49q-61 -22 -111 -30q-57 -9 -113 -9q-109 0 -199 36q-89 36 -156 107q-66 70 -103 173q-37 102 -37 238zM230 632h565q0 64 -18 116q-19 54 -51 91q-35 39 -82 60q-48 21 -112 21q-130 0 -207 -77t-95 -211z " />
<glyph unicode="f" horiz-adv-x="761" d="M58 942v75h164v100q0 177 96 276q94 96 261 96q69 0 129 -21l-5 -91q-1 -20 -17 -24q-15 -4 -46 -4h-32q-209 0 -209 -237v-95h300v-132h-293v-735q118 -20 136 -24q30 -6 30 -38v-88h-509v88q0 32 32 38l127 24v732l-114 13q-50 12 -50 47z" />
<glyph unicode="g" horiz-adv-x="1038" d="M26 -99q0 76 48 130t134 86q-46 22 -70 55q-26 35 -26 91q0 21 8 47q6 20 25 47q16 23 41 45q24 21 58 38q-78 44 -121 114t-43 167q0 75 29 138q29 61 81 105q51 42 125 67q72 24 158 24q69 0 127 -15t107 -44h281v-67q0 -34 -43 -43l-118 -17q35 -67 35 -148 q0 -75 -29 -138q-28 -61 -81 -106q-49 -42 -123 -67q-71 -24 -156 -24q-76 0 -137 17q-35 -22 -50 -44q-17 -25 -17 -46q0 -35 30 -55q32 -21 79 -28q58 -9 111 -10q64 -2 128 -6q68 -5 127 -16q64 -12 112 -37t79 -71q30 -45 30 -117q0 -64 -34 -129q-34 -64 -95 -111 q-66 -51 -153 -78q-92 -29 -204 -29t-199 23q-85 22 -142 60q-54 35 -84 88q-28 49 -28 104zM185 -76q0 -35 18 -65t55 -52q35 -21 93 -35q53 -13 131 -13q71 0 132 14q57 13 99 38t62 58q22 36 22 75q0 37 -22 62q-21 24 -58 37q-31 11 -85 18q-47 6 -102 9q-52 3 -108 6 q-52 3 -106 11q-57 -26 -94 -68t-37 -95zM248 716q0 -46 15 -85q15 -40 43 -66q30 -28 71 -43q42 -15 96 -15q56 0 98 15q41 15 71 43q28 26 43 66q14 36 14 85q0 95 -57 151q-59 57 -169 57q-109 0 -167 -57t-58 -151z" />
<glyph unicode="h" horiz-adv-x="1281" d="M50 1420v88h350v-610q147 156 334 156q168 0 258 -108q89 -106 89 -286v-510q99 -20 117 -24q31 -6 31 -38v-88h-330v660q0 248 -218 248q-152 0 -281 -144v-614l26 -6q77 -15 91 -18q31 -6 31 -38v-88h-477v88q0 32 30 38l117 24v1209q-132 22 -137 23q-31 6 -31 38z " />
<glyph unicode="i" horiz-adv-x="592" d="M65 0v88q0 14 9 24.5t22 13.5l116 23v739q-98 19 -116 23q-13 3 -22 13.5t-9 24.5v88h330v-888q98 -19 116 -23q13 -3 22 -13.5t9 -24.5v-88h-477zM175 1363q0 26 11 51t28 42t41 28q21 10 49 10t51 -10t41 -28q19 -19 29 -42t10 -51q0 -29 -10 -50q-11 -23 -29 -41 t-41 -28t-51 -10t-49 10q-24 11 -41 28t-28 41t-11 50z" />
<glyph unicode="j" horiz-adv-x="529" d="M12 -352l8 98q3 21 32 21h40q80 0 114 37t34 120v964q-64 12 -117 23q-31 6 -31 38v88h148h182v-1114q0 -207 -159 -273q-58 -23 -126 -23q-69 0 -125 21zM203 1363q0 28 10 51q11 25 28 42t41 28q21 10 50 10q27 0 50 -10t41 -28q19 -19 29 -42q11 -25 11 -51t-11 -50 q-10 -23 -29 -41q-18 -18 -41 -28t-50 -10q-29 0 -50 10q-24 11 -41 28t-28 41q-10 21 -10 50z" />
<glyph unicode="k" horiz-adv-x="1184" d="M67 0v88q0 32 30 38l117 24v1209q-25 5 -54.5 10.5t-43.5 8.5t-19 4q-30 6 -30 38v88h147h183v-887h47q37 0 64 28l233 251q-3 0 -10.5 1.5t-11.5 2.5q-30 6 -34 7q-32 6 -32 38v88h254h166h12v-88q0 -33 -25 -37q-19 -3 -127 -24l-242 -257q-30 -37 -59 -54 q33 -22 61 -65l288 -362l53 -11q14 -3 29 -6t23 -5t11 -2q31 -6 31 -38v-88h-193q-41 0 -69 36l-341 425q-16 22 -30 28q-17 7 -46 7h-52v-346q3 0 16.5 -3t42.5 -9l58 -12q31 -6 31 -38v-88h-478z" />
<glyph unicode="l" horiz-adv-x="593" d="M67 0v88q0 32 30 38l117 24v1209q-25 5 -54.5 10.5t-43.5 8.5t-19 4q-30 6 -30 38v88h329v-1358q99 -20 117 -24q32 -6 32 -38v-88h-478z" />
<glyph unicode="m" horiz-adv-x="1823" d="M69 0v88q0 32 30 38l117 24v738q-25 5 -54.5 10.5t-43.5 8.5t-19 4q-30 6 -30 38v88h147h109q38 0 49 -38l13 -106q131 161 294 161q105 0 170 -59q66 -60 94 -157q40 106 136 164q87 52 181 52t160 -26q61 -24 109 -77q91 -103 91 -291v-510q99 -20 117 -24 q31 -6 31 -38v-88h-330v660q0 120 -54 185q-54 63 -154 63q-95 0 -157 -62q-66 -66 -66 -186v-510q13 -2 116 -24q31 -6 31 -38v-88h-330v660q0 248 -196 248q-127 0 -232 -135v-623l55 -11q16 -3 30 -6t22.5 -5t9.5 -2q32 -6 32 -38v-88h-478z" />
<glyph unicode="n" horiz-adv-x="1281" d="M69 0v88q0 32 30 38l117 24v738q-25 5 -54.5 10.5t-43.5 8.5t-19 4q-30 6 -30 38v88h147h109q38 0 49 -38l14 -112q152 167 344 167q167 0 259 -109q88 -104 88 -285v-510q99 -20 117 -24q32 -6 32 -38v-88h-331v660q0 248 -218 248q-152 0 -281 -144v-614q8 -2 117 -24 q32 -6 32 -38v-88h-478z" />
<glyph unicode="o" horiz-adv-x="1081" d="M45 519q0 121 35 221q34 99 99 168q67 71 156 108q93 38 206 38q112 0 205 -38q89 -37 156 -108q63 -67 98 -168q34 -98 34 -221t-34 -221q-35 -101 -98 -168q-65 -70 -156 -107q-90 -37 -205 -37q-116 0 -206 37q-91 37 -156 107q-65 69 -99 168q-35 100 -35 221z M233 518q0 -95 19 -165q20 -74 58 -122q38 -49 96 -76q57 -27 135 -27q153 0 229 103t76 287q0 186 -76 289t-229 103q-80 0 -135 -26q-56 -27 -96 -77q-38 -49 -58 -123q-19 -72 -19 -166z" />
<glyph unicode="p" horiz-adv-x="1139" d="M30 -263q0 32 30 38l117 23v1090q-25 5 -54.5 10.5t-43.5 8.5t-19 4q-30 6 -30 38v88h147h109q38 0 49 -38l15 -122q147 179 349 179q183 0 286 -135q107 -142 107 -396q0 -233 -119 -384q-122 -155 -314 -155q-190 0 -300 122v-310q1 0 7 -1.5t20.5 -4t28.5 -5.5 q15 -3 29 -6t22.5 -4.5t9.5 -1.5q31 -6 31 -38v-88h-477v88zM359 250q91 -123 240 -123q148 0 226 103q78 104 78 295q0 383 -264 383q-161 0 -280 -156v-502z" />
<glyph unicode="q" horiz-adv-x="1136" d="M48 516v3q0 250 132 397q126 140 326 140q166 0 384 -43l74 -15v-1199q120 -19 131 -22q30 -6 30 -37v-89h-513v89q0 30 26 36q24 6 142 24v354q-144 -166 -339 -166q-184 0 -286 135q-107 140 -107 393zM237 516q0 -383 264 -383q160 0 279 157v591q-129 33 -243 33h-13 q-204 -8 -267 -225q-20 -66 -20 -119v-54z" />
<glyph unicode="r" horiz-adv-x="884" d="M69 0v88q0 32 30 38l117 24v738q-25 5 -54.5 10.5t-43.5 8.5t-19 4q-30 6 -30 38v88h147h105q29 0 40 -11t16 -39l12 -162q114 231 316 231q80 0 142 -37l-24 -136q-8 -26 -26 -26q-16 0 -49 10t-83 10q-178 0 -267 -217v-510q7 -1 45.5 -9t71.5 -15q31 -6 31 -38v-88 h-477z" />
<glyph unicode="s" horiz-adv-x="840" d="M87 753q0 126 96 210q101 91 292 91q103 0 270 -55v-72v-194h-80q-30 0 -35 29q-1 3 -13 134q-97 22 -159 22h-2q-88 -2 -142 -45q-54 -42 -54 -94t24 -79q39 -47 117 -71q42 -13 128 -41q55 -18 99 -37q49 -21 86 -51q84 -69 84 -183q0 -149 -102 -237 q-104 -93 -273 -95h-6q-164 0 -329 56v271h73q26 0 30 -25q3 -21 13 -131q90 -41 211 -41q101 0 159 51q53 47 53 104q0 58 -23 87q-22 28 -61 48q-35 18 -87 34q-137 43 -191 66q-56 24 -94 56q-84 71 -84 192z" />
<glyph unicode="t" horiz-adv-x="743" d="M26 925v72l170 22l42 320q2 16 13 25q11 10 29 10h92v-357h297v-132h-297v-623q0 -66 31 -97q32 -32 82 -32q28 0 50 8q19 7 36 17q20 12 27 17q10 7 18 7q15 0 26 -17l53 -87q-46 -43 -113 -69q-65 -25 -138 -25q-124 0 -189 68q-66 69 -66 198v635h-124q-16 0 -28 9 q-11 8 -11 31z" />
<glyph unicode="u" horiz-adv-x="1242" d="M29 949v88h329v-661q0 -116 55 -182q54 -65 164 -65q155 0 280 143v616q-3 1 -116 23q-31 6 -31 38v88h147h182v-887q99 -20 117 -24q32 -6 32 -38v-88h-257q-38 0 -49 38l-15 112q-150 -166 -344 -166q-167 0 -259 107q-88 101 -88 285v512q-25 5 -54.5 10.5t-43.5 8.5 t-19 4q-30 6 -30 38z" />
<glyph unicode="v" horiz-adv-x="1221" d="M30 949v88h465v-88q0 -32 -31 -38q-5 -1 -114 -22l220 -557q16 -41 38 -147q23 100 41 147l221 556q-6 1 -43.5 8.5l-72.5 14.5q-31 6 -31 38v88h389h71v-88q0 -32 -31 -38q-4 -1 -100 -20l-363 -891h-165l-363 891q-18 5 -57 12l-22 4t-16 3t-6 1q-30 6 -30 38z" />
<glyph unicode="w" horiz-adv-x="1779" d="M29 949v88h463v-88q0 -32 -32 -38q-3 -1 -113 -22l166 -557q18 -81 28 -141q7 34 40 141l219 672q12 35 50 35h79q40 0 52 -35l214 -672q12 -40 36 -139q13 77 32 139l168 556q-9 1 -121 23q-32 6 -32 38v88h463v-88q0 -32 -31 -38q-3 0 -10 -1.5t-19 -4t-23 -4.5 q-12 -2 -23 -4.5t-18 -4t-9 -1.5l-288 -891h-144q-28 0 -37 35l-230 703q-10 26 -14 50q-5 30 -9 46q-10 -45 -11 -50q-3 -15 -13 -47l-232 -702q-12 -35 -42 -35h-137l-289 891l-34 6q-17 3 -33.5 6.5t-24.5 5.5t-11 2q-30 6 -30 38z" />
<glyph unicode="x" horiz-adv-x="1169" d="M67 0v88q0 32 30 38l50 10q37 8 50 9l263 386l-247 359q-25 5 -49.5 10t-38.5 7.5t-19 3.5q-30 6 -30 38v88h406v-88q0 -32 -31 -38q-3 -2 -43 -9l183 -281q10 32 26 57l152 222q-28 6 -33 7q-20 3 -21 4q-31 6 -31 38v88h407v-88q0 -32 -33 -38q-22 -4 -107 -21 l-245 -348l266 -397q22 -5 56 -11.5t35 -6.5q37 -7 37 -39v-88h-408v88q0 32 32 38q44 9 51 10l-198 308q-7 -30 -22 -53l-173 -253l25 -5q33 -6 35 -7q32 -6 32 -38v-88h-407z" />
<glyph unicode="y" horiz-adv-x="1220" d="M29 949v88h465v-88q0 -32 -31 -38q-10 -3 -113 -22l231 -543q12 -30 27 -91q15 50 31 92l224 542q-28 6 -65.5 13t-46.5 9q-29 6 -29 38v88h385h75v-88q0 -32 -31 -38q-3 0 -9.5 -1.5l-19.5 -4.5t-25 -5q-13 -3 -25.5 -5t-20 -3.5t-8.5 -1.5l-515 -1196q-21 -45 -65 -45 h-135l189 411l-364 833q-21 4 -42.5 8t-34 6.5l-17.5 3.5q-30 6 -30 38z" />
<glyph unicode="z" horiz-adv-x="945" d="M69 0v76q0 31 25 65l564 753h-443q-8 -100 -11 -125q-5 -26 -31 -26h-73v294h104h666v-78q0 -37 -25 -69l-561 -748h461q7 97 12 137q4 25 31 25h73v-304h-792z" />
<glyph unicode="{" horiz-adv-x="567" d="M46 583v109q69 0 105 41q35 39 35 107q0 48 -8 101q-1 6 -18 100q-16 86 -18 102q-8 54 -8 104q0 70 21 130q20 58 64 103q40 41 105 66q63 24 147 24h54v-81q0 -22 -14 -30q-15 -9 -27 -9h-20q-79 0 -125 -52q-45 -51 -45 -140q0 -61 7 -110q9 -63 16 -104 q12 -68 17 -101q7 -46 7 -101q0 -42 -11 -72q-13 -36 -33 -60q-22 -26 -49 -45q-28 -19 -62 -28q34 -9 62 -28t49 -46q22 -28 33 -59q11 -30 11 -71q0 -55 -7 -101q-5 -33 -17 -101q-6 -34 -16 -104q-7 -49 -7 -111q0 -89 45 -140t125 -51h20q12 0 27 -9q14 -8 14 -30v-82 h-54q-84 0 -147 24q-64 24 -105 67q-44 45 -64 103q-21 60 -21 130q0 50 8 104q3 20 10 58t8 43t8 43t10 58q8 53 8 101q0 65 -35 106q-36 42 -105 42z" />
<glyph unicode="|" horiz-adv-x="367" d="M114 -351v1921h141v-1921h-141z" />
<glyph unicode="}" horiz-adv-x="568" d="M44 -214q0 22 14 30q15 9 27 9h20q80 0 125 51t45 140q0 62 -7 111q-10 70 -16 104q-5 28 -16 101q-8 53 -8 101q0 38 12 71q12 34 32 59q21 27 49 46t62 28q-34 9 -62 28q-27 19 -49 45q-18 22 -32 60q-12 33 -12 72q0 48 8 101q11 73 16 101q6 34 16 104q7 49 7 110 q0 89 -45 140q-46 52 -125 52h-20q-12 0 -27 9q-14 8 -14 30v81h54q84 0 147 -24q65 -25 105 -66q44 -45 64 -103q21 -60 21 -130q0 -50 -8 -104q-2 -16 -18 -102q-17 -94 -18 -100q-8 -53 -8 -101q0 -66 36 -107t104 -41v-109q-68 0 -104 -42t-36 -106q0 -48 8 -101 q3 -20 10 -58t8 -43t8 -43t10 -58q8 -54 8 -104q0 -70 -21 -130q-20 -58 -64 -103q-41 -43 -105 -67q-63 -24 -147 -24h-54v82z" />
<glyph unicode="~" horiz-adv-x="1124" d="M88 424q0 70 19 126q21 61 54 98q37 42 87 64q52 23 119 23q51 0 105 -17q44 -14 101 -37q27 -11 93 -36q45 -17 80 -17q67 0 104 43q38 44 39 115h147q0 -70 -19 -126q-21 -61 -54 -98q-37 -42 -87 -63q-54 -23 -118 -23q-52 0 -106 17q-55 17 -101 36q-78 32 -92 37 q-45 17 -81 17q-67 0 -104 -43q-36 -42 -38 -116h-148z" />
<glyph unicode="&#xa1;" horiz-adv-x="409" d="M77 926q0 25 10 50q9 23 27 41t40 27q21 10 51 10q24 0 49 -10q23 -9 41 -27q17 -17 28 -41q10 -21 10 -50q0 -27 -10 -50t-28 -41q-17 -17 -41 -28q-21 -10 -49 -10q-30 0 -51 10q-22 11 -40 28q-19 19 -27 41q-10 27 -10 50zM122 203q0 60 1 89q1 27 5 88q2 30 8 92 q8 82 10 100h124q9 -76 11 -100q6 -62 8 -92t4 -88t2 -89v-554h-173v554z" />
<glyph unicode="&#xa2;" horiz-adv-x="942" d="M59 518q0 240 127 383q113 131 301 149l13 183q1 21 16 37q14 15 35 15h67l-16 -236q112 -15 253 -73v-268h-82q-31 0 -35 28q-2 9 -13 146q-35 11 -75 18q-44 7 -58 8v-1l-53 -778v-3h42q35 0 77 16q47 18 72 35q35 24 47 35q17 16 40 16q21 0 32 -17l51 -67 q-126 -154 -372 -159l-11 -176q-1 -18 -16 -34q-13 -15 -35 -15h-68l16 236q-133 29 -223 129q-132 145 -132 393zM247 518q0 -187 82 -291q37 -47 94 -75q5 25 54 749q-162 -38 -211 -220q-19 -70 -19 -163z" />
<glyph unicode="&#xa3;" horiz-adv-x="1189" d="M54 629v59q0 26 17 45t46 19h137v267q0 94 28 181q27 84 84 147q58 64 140 99q86 37 196 37q79 0 142 -20q60 -19 110 -55q48 -34 84 -81t60 -99l-74 -47q-10 -6 -21 -9t-21 -3q-14 0 -27 6q-12 6 -24 20q-28 34 -42 50q-20 23 -47 42q-24 17 -60 28t-80 11 q-64 0 -113 -21q-48 -20 -82 -62q-33 -40 -49 -96q-17 -59 -17 -126v-269h452v-74q0 -19 -15 -34t-38 -15h-399v-249q0 -77 -29 -133q-28 -55 -80 -102q3 0 25.5 4t33.5 5q38 4 60 4h692v-78q0 -14 -6 -28q-7 -16 -16 -26q-11 -12 -24 -19q-14 -7 -33 -7h-987v118 q40 12 66 27q34 19 57 44q24 26 39 61q15 36 15 83v296h-200z" />
<glyph unicode="&#xa4;" horiz-adv-x="1041" d="M62 1052l94 92l154 -156q42 30 99 49q52 18 112 18q57 0 111 -17q49 -15 96 -48l157 157l91 -93l-155 -156q30 -43 49 -98q18 -53 18 -112q0 -56 -17 -110q-17 -53 -47 -97l156 -154l-93 -95l-156 156q-44 -30 -98 -48q-50 -17 -112 -17q-61 0 -110 16q-51 17 -97 47 l-156 -157l-91 94l154 155q-30 44 -48 98q-17 50 -17 112q0 57 17 110q18 54 46 97zM291 688q0 -46 18 -88t49 -73q32 -32 74 -50t89 -18q49 0 91 18t74 50q31 31 49 73q19 44 19 88q0 46 -19 90t-49 74q-32 32 -74 50t-91 18q-47 0 -89 -18t-74 -50q-30 -30 -49 -74 q-18 -42 -18 -90z" />
<glyph unicode="&#xa5;" horiz-adv-x="1172" d="M45 1467h153q27 0 42 -12t26 -34l283 -579q6 -13 24 -66q11 -33 18 -59q10 40 16 60q9 32 24 65l281 579q6 15 25 32q15 14 43 14h154l-419 -827h314v-104h-348v-108h348v-105h-348v-323h-183v323h-348v105h348v108h-348v104h313z" />
<glyph unicode="&#xa6;" horiz-adv-x="358" d="M110 -351v814h141v-814h-141zM110 757v813h141v-813h-141z" />
<glyph unicode="&#xa7;" horiz-adv-x="923" d="M58 715q0 79 44 144q41 61 140 99q-51 39 -84 93q-32 52 -32 131q0 56 25 114q24 55 71 96t116 65q72 25 157 25q101 0 183 -32t141 -88l-41 -67q-12 -22 -38 -22q-14 0 -34 11q-16 10 -48 25t-67 26q-39 12 -92 12q-51 0 -89 -13t-66 -35q-27 -21 -42 -50 q-14 -27 -14 -60q0 -40 25 -68q28 -31 65 -53q44 -26 93 -47q10 -4 47.5 -20t58.5 -25q56 -25 106 -52q54 -29 93 -64q37 -33 65 -84q25 -46 25 -109q0 -84 -40 -148q-41 -65 -126 -104q50 -38 82 -88t32 -121q0 -70 -26 -133q-25 -59 -75 -105q-49 -44 -123 -70 q-75 -26 -167 -26q-111 0 -197 35q-88 36 -149 91l42 70q6 11 20 20q11 7 29 7q19 0 39 -14q18 -12 50 -32q31 -18 73 -33q41 -14 108 -14q53 0 92 13q41 14 68 36q27 23 42 54q14 29 14 71q0 46 -25 80t-68 60q-48 29 -95 48q-11 5 -33.5 13.5t-41 16t-35.5 14.5 q-54 21 -109 48q-52 25 -95 62t-68 84q-26 49 -26 113zM220 743q0 -52 36 -88q39 -39 92 -66q60 -31 123 -56q65 -26 131 -59q57 28 80 65q25 41 25 87q0 35 -16 65q-15 28 -42 52t-62 43q-39 21 -77 38q-54 24 -83 36q-53 22 -84 38q-68 -30 -95 -68q-28 -39 -28 -87z" />
<glyph unicode="&#xa8;" horiz-adv-x="766" d="M86 1320q0 24 9 45t25 37t37 25q23 10 43 10q21 0 44 -10t38 -25q16 -16 25 -37t9 -45q0 -23 -9 -44q-9 -22 -25 -36q-18 -16 -38 -25q-21 -9 -44 -9q-22 0 -43 9q-18 8 -37 25q-16 14 -25 36q-9 21 -9 44zM454 1320q0 24 9 45q9 20 24 37q14 15 37 25t44 10q22 0 45 -10 q21 -9 37 -25t25 -37t9 -45q0 -23 -9 -44q-9 -22 -25 -36q-19 -17 -37 -25q-21 -9 -45 -9q-23 0 -44 9t-37 25q-15 15 -24 36t-9 44z" />
<glyph unicode="&#xa9;" horiz-adv-x="1624" d="M65 733q0 107 26 199q27 96 75 180q46 81 118 151q70 68 151 117q80 48 178 76q94 27 199 27q103 0 199 -27q99 -28 179 -76q81 -49 151 -117q72 -70 118 -151q48 -84 75 -180t27 -199q0 -102 -27 -198q-27 -97 -75 -179q-48 -83 -118 -151t-151 -117q-80 -48 -179 -76 q-92 -26 -199 -26q-108 0 -199 26q-98 28 -178 76q-81 49 -151 117t-118 151q-47 81 -75 179q-26 91 -26 198zM167 733q0 -93 22 -175q22 -81 65 -157q42 -74 100 -133q59 -61 130 -102q73 -43 155 -65q84 -23 173 -23q134 0 253 51t206 140q89 91 139 208q50 118 50 256 q0 89 -23 176q-22 84 -65 159q-41 71 -101 133q-61 63 -130 103q-73 43 -155 66q-84 24 -174 24q-132 0 -253 -52q-118 -51 -205 -141q-88 -91 -137 -210q-50 -121 -50 -258zM369 735q0 105 35 190q37 89 98 149q63 62 148 96q84 34 186 34q109 0 188 -35q78 -35 136 -91 l-47 -66q-5 -6 -13 -13q-8 -6 -21 -6t-30 12t-41 25q-23 12 -65 25q-39 12 -99 12q-70 0 -130 -23q-57 -22 -98 -66q-40 -44 -63 -105q-22 -60 -22 -138q0 -81 22 -141q23 -63 61 -104t94 -64q53 -22 117 -22q43 0 83 7q37 6 59 16q19 9 43 23q26 16 40 24q2 1 6.5 4.5 t6.5 4.5q6 3 12 3q11 0 16 -3q3 -2 10 -9l62 -65q-59 -68 -143 -105q-87 -38 -204 -38q-99 0 -183 35q-83 35 -141 97q-57 62 -91 149q-32 83 -32 188z" />
<glyph unicode="&#xaa;" horiz-adv-x="681" d="M74 1017q0 35 19 69q19 33 65 61q45 27 119 45q76 19 184 20v38q0 66 -30 96t-88 30q-39 0 -64 -9q-23 -8 -45 -20q-23 -12 -34 -19q-15 -9 -31 -9q-14 0 -25 8q-10 7 -15 18l-23 43q50 47 116 73q62 24 136 24q56 0 99 -18q41 -17 72 -48q30 -30 45 -73q16 -46 16 -96 v-390h-62q-18 0 -27 6q-11 7 -18 24l-12 50q-27 -23 -48 -38q-23 -16 -49 -28q-21 -10 -55 -17q-29 -6 -63 -6q-41 0 -72 10q-35 11 -58 31q-24 21 -38 52t-14 73zM202 1023q0 -43 26 -60q27 -18 68 -18q52 0 90 20q39 20 75 55v107q-76 -2 -122 -10q-48 -9 -80 -23 q-30 -14 -44 -32q-13 -17 -13 -39z" />
<glyph unicode="&#xab;" horiz-adv-x="786" d="M67 530v24l255 398l59 -28q13 -7 21 -19q8 -13 8 -24q0 -17 -11 -34l-162 -267q-17 -27 -29 -38q17 -17 29 -37l162 -267q5 -8 8 -18q3 -9 3 -17q0 -28 -29 -42l-59 -29zM370 530v24l255 398l59 -28q15 -7 22 -19q7 -11 7 -24q0 -17 -11 -34l-162 -267q-17 -27 -29 -38 q17 -17 29 -37l162 -267q4 -8 8 -18q3 -9 3 -17q0 -28 -29 -42l-59 -29z" />
<glyph unicode="&#xac;" horiz-adv-x="1070" d="M89 618v139h881v-434h-155v295h-726z" />
<glyph unicode="&#xad;" horiz-adv-x="699" d="M97 537v154h506v-154h-506z" />
<glyph unicode="&#xae;" horiz-adv-x="1624" d="M65 733q0 107 26 199q27 96 75 180q46 81 118 151q70 68 151 117q80 48 178 76q94 27 199 27q103 0 199 -27q99 -28 179 -76q81 -49 151 -117q72 -70 118 -151q48 -84 75 -180t27 -199q0 -102 -27 -198q-27 -97 -75 -179q-48 -83 -118 -151t-151 -117q-80 -48 -179 -76 q-92 -26 -199 -26q-108 0 -199 26q-98 28 -178 76q-81 49 -151 117t-118 151q-47 81 -75 179q-26 91 -26 198zM167 733q0 -93 22 -175q22 -81 65 -157q42 -74 100 -133q59 -61 130 -102q73 -43 155 -65q84 -23 173 -23q134 0 253 51t206 140q89 91 139 208q50 118 50 256 q0 89 -23 176q-22 84 -65 159q-41 71 -101 133q-61 63 -130 103q-73 43 -155 66q-84 24 -174 24q-132 0 -253 -52q-118 -51 -205 -141q-88 -91 -137 -210q-50 -121 -50 -258zM505 279v913h295q176 0 261 -64t85 -189q0 -97 -55 -164q-56 -68 -163 -93q14 -8 30 -26 q11 -12 24 -35l233 -342h-151q-34 0 -50 25l-206 309q-9 14 -22 21t-40 7h-81v-362h-160zM665 758h118q55 0 96 11t64 31q24 21 34 50q11 31 11 69q0 34 -10 66q-9 30 -31 47q-25 20 -58 28q-36 9 -89 9h-135v-311z" />
<glyph unicode="&#xaf;" horiz-adv-x="773" d="M94 1261v119h588v-119h-588z" />
<glyph unicode="&#xb0;" horiz-adv-x="808" d="M70 1155q0 70 25 129t71 105q44 45 106 70q63 26 131 26q69 0 132 -26q61 -25 106 -70q46 -46 71 -105t25 -129q0 -68 -25 -127t-71 -105t-106 -71q-63 -26 -132 -26q-68 0 -131 26q-60 25 -106 71t-71 105t-25 127zM200 1154q0 -42 15 -80q15 -37 43 -65q27 -27 65 -44 q36 -16 80 -16t80 16q37 17 65 44q28 28 43 65q15 38 15 80q0 44 -15 81q-14 36 -43 66q-25 26 -65 44q-36 16 -80 16t-80 -16q-40 -18 -65 -44q-29 -30 -43 -66q-15 -37 -15 -81z" />
<glyph unicode="&#xb1;" horiz-adv-x="1117" d="M71 82v138h981v-138h-981zM71 707v139h414v385h150v-385h417v-139h-417v-377h-150v377h-414z" />
<glyph unicode="&#xb2;" horiz-adv-x="668" d="M70 922v44q0 32 22 54l226 224q123 123 123 215q0 53 -30 81q-29 28 -77 28q-90 0 -120 -92q-19 -31 -45 -31q-4 0 -18 2l-73 12q15 109 86 163t176 54q107 0 171 -58t64 -155q0 -101 -96 -205q-18 -20 -58 -60l-166 -169q52 14 93 14h159q1 13 2 28t2 21.5t1 7.5 q4 20 25 20h56v-198h-523z" />
<glyph unicode="&#xb3;" horiz-adv-x="645" d="M55 1111l57 25q15 6 29 6q29 0 41 -24q2 -5 8.5 -16t7.5 -13q8 -15 24 -31q15 -15 38 -24q25 -10 54 -10q33 0 56 10q27 12 41 26q17 17 24 37q8 22 8 42q0 32 -8 52q-8 21 -29 37q-17 13 -53 21q-31 7 -82 7v90q91 2 126 31q36 30 36 84q0 51 -30 78t-78 27 q-51 0 -79 -24q-29 -24 -41 -65q-7 -16 -17 -24t-24 -8h-9q-4 0 -10 2l-68 12q8 57 29 95q23 41 56 68q32 26 77 40t93 14q52 0 94 -15q41 -15 72 -41t47 -60q16 -33 16 -76q0 -130 -122 -177q67 -19 103 -60t36 -103q0 -54 -22 -100q-21 -44 -57 -72q-37 -30 -82 -44 q-47 -15 -95 -15q-60 0 -102 13q-44 14 -74 38q-31 25 -53 62q-24 40 -38 85z" />
<glyph unicode="&#xb4;" horiz-adv-x="552" d="M73 1191l151 248q15 24 31 34q17 11 50 11h178l-238 -264q-17 -17 -28 -22q-16 -7 -36 -7h-108z" />
<glyph unicode="&#xb5;" horiz-adv-x="1074" d="M110 -273v1310h182v-673q0 -113 55 -174t163 -61q79 0 150 38t131 105v765h182v-1037h-109q-38 0 -49 38l-14 112q-71 -75 -141 -109q-73 -35 -161 -35q-75 0 -133 26q-56 25 -98 73q8 -49 11 -87q3 -45 3 -84v-285h-92q-39 0 -59 20q-21 21 -21 58z" />
<glyph unicode="&#xb6;" horiz-adv-x="1391" d="M53 1074q0 88 33 160q34 75 92 124q63 54 145 81q84 28 191 28h829v-156h-224v-1517h-161v1517h-283v-1517h-161v882q-107 0 -191 31q-86 32 -145 85q-58 52 -92 127q-33 72 -33 155z" />
<glyph unicode="&#xb7;" horiz-adv-x="489" d="M92 607q0 33 12 61t33 49t48 33t59 12t60 -12t49 -33t33 -49t12 -61q0 -31 -12 -58q-13 -29 -33 -49q-21 -21 -49 -33q-26 -11 -60 -11t-59 11q-27 12 -48 33q-20 20 -33 49q-12 27 -12 58z" />
<glyph unicode="&#xb8;" horiz-adv-x="540" d="M83 -328l17 57q6 18 24 18q4 0 14 -4l20 -8q16 -6 27 -8q16 -3 38 -3q43 0 65 16t22 44q0 21 -11 33q-12 13 -32 22q-25 11 -52 16q-35 7 -70 11l44 144h115l-24 -82q94 -22 133 -55q42 -36 42 -91q0 -33 -17 -59q-18 -28 -45 -45q-30 -19 -70 -28q-41 -9 -91 -9 q-46 0 -79 8q-44 11 -70 23z" />
<glyph unicode="&#xb9;" horiz-adv-x="579" d="M55 1476l228 194h110v-661h133v-87h-416v87h150v450l4 44l-109 -90q-12 -9 -27 -9q-25 0 -33 14z" />
<glyph unicode="&#xba;" horiz-adv-x="777" d="M72 1167q0 75 22 132q23 61 64 100q42 41 100 63q57 22 131 22q73 0 130 -22t98 -63q41 -42 64 -100q22 -57 22 -132q0 -74 -22 -133q-21 -57 -64 -101q-39 -40 -98 -63q-57 -22 -130 -22q-74 0 -131 22q-60 23 -100 63q-42 42 -64 101t-22 133zM215 1166q0 -101 43 -156 q42 -54 131 -54q87 0 129 54t42 156q0 104 -42 156q-42 53 -129 53q-89 0 -131 -53q-43 -55 -43 -156z" />
<glyph unicode="&#xbb;" horiz-adv-x="790" d="M79 203q0 18 10 35l163 267q15 27 28 37q-16 16 -28 38l-163 267q-10 17 -10 35q0 28 29 42l59 28l255 -398v-24l-255 -398l-59 29q-29 14 -29 42zM382 203q0 18 10 35l163 267q15 27 28 37q-15 16 -28 38l-163 267q-10 17 -10 35q0 28 29 42l59 28l255 -398v-24 l-255 -398l-59 29q-29 14 -29 42z" />
<glyph unicode="&#xbc;" horiz-adv-x="1414" d="M41 1274l227 194h111v-661h133v-87h-417v87h151v450l4 45l-110 -91q-12 -9 -26 -9q-24 0 -33 15zM209 0l838 1405q17 29 42 46q23 16 56 16h79l-843 -1413q-19 -31 -42 -43q-21 -11 -52 -11h-78zM785 267l351 479h127v-473h111v-66q0 -12 -7 -19q-8 -8 -20 -8h-84v-180 h-112v180h-313q-19 0 -30 8q-10 7 -12 21zM909 273h242v247q0 27 1 42q2 30 4 46z" />
<glyph unicode="&#xbd;" horiz-adv-x="1403" d="M41 1274l227 194h111v-661h133v-87h-417v87h151v450l4 45l-110 -91q-12 -9 -31 -9t-28 15zM164 0l837 1405q38 62 99 62h79l-843 -1413q-33 -54 -94 -54h-78zM819 0v44q0 31 23 54l226 225q123 123 123 215q0 51 -31 80q-29 28 -78 28q-88 0 -118 -92q-19 -31 -45 -31 q-5 0 -19 2l-73 13q15 108 86 162q72 55 177 55q106 0 171 -59q64 -58 64 -154q0 -102 -96 -205q-18 -20 -59 -61l-165 -168q52 14 93 14h158q5 52 6 56q4 21 24 21h56v-199h-523z" />
<glyph unicode="&#xbe;" horiz-adv-x="1458" d="M49 909l56 25q15 6 30 6q29 0 41 -24q4 -8 15 -29q7 -13 25 -31q15 -15 37 -24q25 -10 55 -10q31 0 56 11t40 26q19 19 25 36q8 22 8 42q0 33 -8 53t-29 36q-18 14 -53 22q-31 7 -82 7v89q89 2 126 32q36 30 36 84q0 50 -30 77t-79 27q-50 0 -78 -24q-29 -24 -41 -65 q-7 -16 -17 -24t-24 -8q-2 0 -5 0.5t-4 0.5q-7 0 -10 1l-68 12q8 57 29 95q23 41 56 68q34 28 76 41q45 14 94 14q52 0 94 -15q41 -15 72 -41q30 -26 47 -61q16 -33 16 -76q0 -130 -122 -177q68 -20 103 -59t35 -104q0 -56 -21 -99t-57 -72q-37 -30 -82 -44q-47 -15 -96 -15 q-62 0 -101 12q-44 14 -74 38q-31 25 -53 62q-24 40 -38 85zM257 0l838 1405q17 29 42 46q23 16 56 16h79l-843 -1413q-19 -31 -42 -43q-21 -11 -52 -11h-78zM829 267l351 479h127v-473h111v-66q0 -12 -7 -19q-8 -8 -20 -8h-84v-180h-112v180h-313q-19 0 -30 8q-10 7 -12 21 zM953 273h242v247q0 27 1 42q2 30 4 46z" />
<glyph unicode="&#xbf;" horiz-adv-x="847" d="M58 -38q0 77 23 132q22 53 59 93q40 43 77 67l78 52q39 26 63 50q26 26 30 59l19 157h124l13 -171v-12q0 -45 -23 -77q-22 -31 -59 -57q-48 -34 -75 -50q-39 -23 -76 -54q-35 -29 -59 -72q-23 -41 -23 -102q0 -44 18 -80q17 -35 47 -60q30 -26 70 -39q39 -13 87 -13 q62 0 107 15q41 14 75 34q26 16 50 34q19 15 32 15q14 0 23 -6t16 -17l48 -77q-29 -28 -70 -56q-39 -27 -84 -48q-40 -19 -98 -32q-52 -12 -115 -12q-79 0 -150 23t-119 64q-50 43 -79 103q-29 61 -29 137zM345 925q0 23 10 50q8 21 26 41q14 15 41 27q25 11 50 11t50 -11 t41 -27q19 -19 27 -41q10 -27 10 -50q0 -26 -10 -51q-9 -22 -27 -40q-20 -20 -41 -28q-24 -9 -50 -9t-50 9q-23 9 -41 28t-26 40q-10 25 -10 51z" />
<glyph unicode="&#xc0;" d="M51 0v81q0 28 27 34l82 24l531 1328h202l530 -1328l82 -24q27 -6 27 -34v-81h-421v81q0 27 28 35l84 23l-115 296h-633l-115 -296l84 -23q28 -8 28 -35v-81h-421zM421 1825h206q30 0 49 -7q16 -6 37 -27l216 -208h-143q-17 0 -33 4q-10 2 -30 16zM530 579h523l-217 563 q-24 59 -44 138q-21 -78 -43 -139z" />
<glyph unicode="&#xc1;" d="M51 0v81q0 28 27 34l82 24l531 1328h202l530 -1328l82 -24q27 -6 27 -34v-81h-421v81q0 27 28 35l84 23l-115 296h-633l-115 -296l84 -23q28 -8 28 -35v-81h-421zM530 579h523l-217 563q-24 59 -44 138q-21 -78 -43 -139zM632 1583l216 208q10 10 19 16q12 8 18 11 q7 3 20 5q16 2 29 2h206l-301 -221q-20 -13 -31 -17q-12 -4 -35 -4h-141z" />
<glyph unicode="&#xc2;" d="M51 0v81q0 28 27 34l82 24l531 1328h202l530 -1328l82 -24q27 -6 27 -34v-81h-421v81q0 27 28 35l84 23l-115 296h-633l-115 -296l84 -23q28 -8 28 -35v-81h-421zM457 1583l243 215h181l243 -215h-138q-7 0 -27 4q-14 3 -23 9l-133 98q-10 6 -12 8q-8 -6 -13 -8l-133 -98 q-9 -6 -23 -9q-20 -4 -27 -4h-138zM530 579h523l-217 563q-24 59 -44 138q-21 -78 -43 -139z" />
<glyph unicode="&#xc3;" d="M51 0v81q0 28 27 34l82 24l531 1328h202l530 -1328l82 -24q27 -6 27 -34v-81h-421v81q0 27 28 35l84 23l-115 296h-633l-115 -296l84 -23q28 -8 28 -35v-81h-421zM504 1585q0 45 12 82q13 40 33 64q23 27 55 42q33 15 72 15q36 0 68 -13q33 -13 63 -30q20 -11 56 -29 q26 -13 51 -13q36 0 55 21q18 20 20 59h101q0 -43 -12 -81q-12 -39 -32 -64q-20 -26 -54 -42q-32 -15 -72 -15q-37 0 -69 13q-33 14 -63 30q-10 6 -57 29q-26 13 -51 13q-35 0 -54 -22q-18 -21 -20 -59h-102zM530 579h523l-217 563q-24 59 -44 138q-21 -78 -43 -139z" />
<glyph unicode="&#xc4;" d="M51 0v81q0 28 27 34l82 24l531 1328h202l530 -1328l82 -24q27 -6 27 -34v-81h-421v81q0 27 28 35l84 23l-115 296h-633l-115 -296l84 -23q28 -8 28 -35v-81h-421zM461 1706q0 24 9 45q8 19 25 36q15 15 35 24q22 10 41 10q22 0 45 -10q21 -9 36 -24q17 -17 25 -36 q9 -21 9 -45t-9 -43t-25 -35q-15 -15 -36 -24t-45 -9q-21 0 -41 9t-35 24q-16 16 -25 35t-9 43zM530 579h523l-217 563q-24 59 -44 138q-21 -78 -43 -139zM897 1706q0 24 9 45t24 36t36 24q23 10 44 10q20 0 43 -10q21 -9 36 -24t24 -36t9 -45t-9 -43q-9 -20 -24 -35 t-36 -24t-43 -9q-23 0 -44 9t-36 24t-24 35q-9 19 -9 43z" />
<glyph unicode="&#xc5;" d="M51 0v81q0 28 27 34l82 24l531 1328h202l530 -1328l82 -24q27 -6 27 -34v-81h-421v81q0 27 28 35l84 23l-115 296h-633l-115 -296l84 -23q28 -8 28 -35v-81h-421zM530 579h523l-217 563q-24 59 -44 138q-21 -78 -43 -139zM595 1699q0 41 16 74q15 32 42 57q26 24 61 38 q33 13 73 13q41 0 76 -13q33 -12 62 -38q30 -26 43 -57q15 -35 15 -74t-15 -72q-14 -30 -43 -56q-27 -24 -62 -37t-76 -13q-40 0 -73 13q-37 15 -61 37q-26 25 -42 56q-16 32 -16 72zM686 1699q0 -43 28 -73t76 -30q44 0 74 30q28 28 28 73q0 47 -28 75t-74 28 q-49 0 -76 -28q-28 -30 -28 -75z" />
<glyph unicode="&#xc6;" horiz-adv-x="1988" d="M52 0v81q0 28 27 34v1l82 23l630 1193q-2 0 -28 5q-17 3 -18 4q-30 6 -30 38v88h1193v-353h-100q-34 0 -42 35q-2 14 -14 157h-611l61 -488h542v-155h-522l62 -501h469q12 142 13 145q8 35 42 35h100v-342h-938v88q0 32 30 38q1 0 8 1.5t18 4t22 4.5q39 8 51 9l-32 256 h-569l-136 -262l83 -23q29 -8 29 -35v-81h-232h-1h-80h-109zM572 545h477l-97 771q-19 -65 -56 -145z" />
<glyph unicode="&#xc7;" horiz-adv-x="1300" d="M46 733q0 334 205 542q206 209 543 209q171 0 453 -106v-114v-228h-99q-34 0 -42 35q-3 12 -9 93q-7 88 -7 92q-460 146 -692 -100q-149 -158 -149 -423q0 -267 147 -426q139 -152 362 -152q127 0 193 24q102 38 182 109q18 15 33 15q17 0 30 -13l78 -85 q-180 -209 -491 -220l-15 -57q95 -22 134 -55q41 -35 41 -80t-16 -70q-18 -28 -46 -45q-59 -37 -160 -37q-81 0 -150 31l18 57q6 18 23 18q5 0 15 -4q3 -1 9.5 -3.5t9.5 -3.5q28 -12 69 -12q40 0 62 16t22 40t-12 37t-32 22q-35 15 -121 27l37 121q-266 24 -433 204 q-192 209 -192 542z" />
<glyph unicode="&#xc8;" horiz-adv-x="1201" d="M69 0v88q0 32 30 38l117 24v1168q-25 5 -54.5 10.5t-43.5 8.5t-19 4q-30 6 -30 38v88h1051v-354h-98q-36 0 -43 36q-2 14 -14 157h-549v-488h540v-155h-540v-501h550q12 142 13 145q8 35 43 35h98v-342h-1051zM311 1825h206q30 0 49 -7q16 -6 37 -27l216 -208h-142 q-18 0 -34 4q-10 2 -30 16z" />
<glyph unicode="&#xc9;" horiz-adv-x="1201" d="M69 0v88q0 32 30 38l117 24v1168q-25 5 -54.5 10.5t-43.5 8.5t-19 4q-30 6 -30 38v88h1051v-354h-98q-36 0 -43 36q-2 14 -14 157h-549v-488h540v-155h-540v-501h550q12 142 13 145q8 35 43 35h98v-342h-1051zM522 1583l216 208q10 10 19 16q12 8 18 11t21 5q16 2 28 2 h206l-301 -221q-20 -13 -31 -17q-12 -4 -34 -4h-142z" />
<glyph unicode="&#xca;" horiz-adv-x="1201" d="M69 0v88q0 32 30 38l117 24v1168q-25 5 -54.5 10.5t-43.5 8.5t-19 4q-30 6 -30 38v88h1051v-354h-98q-36 0 -43 36q-2 14 -14 157h-549v-488h540v-155h-540v-501h550q12 142 13 145q8 35 43 35h98v-342h-1051zM347 1583l244 215h180l244 -215h-138q-7 0 -27 4 q-15 3 -24 9l-133 98q-10 6 -12 8q-9 -7 -12 -8l-133 -98q-9 -6 -24 -9q-20 -4 -27 -4h-138z" />
<glyph unicode="&#xcb;" horiz-adv-x="1201" d="M69 0v88q0 32 30 38l117 24v1168q-25 5 -54.5 10.5t-43.5 8.5t-19 4q-30 6 -30 38v88h1051v-354h-98q-36 0 -43 36q-2 14 -14 157h-549v-488h540v-155h-540v-501h550q12 142 13 145q8 35 43 35h98v-342h-1051zM351 1706q0 24 9 45q8 19 25 36q15 15 35 24q22 10 42 10 q21 0 44 -10t37 -24q15 -15 24 -36q10 -23 10 -45q0 -21 -10 -43q-9 -20 -24 -35q-14 -14 -37 -24q-21 -9 -44 -9q-22 0 -42 9t-35 24q-16 16 -25 35t-9 43zM787 1706q0 24 9 45t24 36t36 24q23 10 44 10q20 0 43 -10q21 -9 36 -24q17 -17 25 -36q9 -21 9 -45t-9 -43 t-25 -35q-15 -15 -36 -24t-43 -9q-23 0 -44 9t-36 24t-24 35q-9 19 -9 43z" />
<glyph unicode="&#xcc;" horiz-adv-x="689" d="M11 1825h206q30 0 49 -7q16 -6 37 -27l216 -208h-142q-18 0 -34 4q-10 2 -30 16zM132 0v88q0 32 31 38l117 24v1168q-99 20 -123 24q-25 5 -25 37v88h495v-88q0 -32 -32 -38l-117 -23v-1168q28 -6 56 -11.5t45 -9t23 -4.5q25 -5 25 -37v-88h-495z" />
<glyph unicode="&#xcd;" horiz-adv-x="675" d="M69 0v88q0 32 30 38l117 24v1168q-99 20 -123 24t-24 37v88h494v-88q0 -32 -32 -38l-116 -23v-1168q28 -6 56 -11.5t45 -9t23 -4.5q24 -5 24 -37v-88h-494zM159 1583l216 208q10 10 19 16q12 8 18 11q7 3 20 5q16 2 29 2h206l-301 -221q-20 -13 -31 -17q-12 -4 -35 -4 h-141z" />
<glyph unicode="&#xce;" horiz-adv-x="686" d="M10 1583l244 215h180l244 -215h-138q-7 0 -27 4q-15 3 -24 9l-133 98q-10 6 -12 8q-9 -7 -12 -8l-133 -98q-9 -6 -24 -9q-20 -4 -27 -4h-138zM95 0v88q0 32 31 38l117 24v1168q-99 20 -123 24q-25 5 -25 37v88h495v-88q0 -32 -32 -38l-117 -23v-1168q28 -6 56 -11.5 t45 -9t23 -4.5q25 -5 25 -37v-88h-495z" />
<glyph unicode="&#xcf;" horiz-adv-x="681" d="M11 1706q0 24 9 45q8 19 25 36q15 15 35 24q22 10 42 10q21 0 44 -10t37 -24q15 -15 24 -36q10 -23 10 -45q0 -21 -10 -43q-9 -20 -24 -35q-14 -14 -37 -24q-21 -9 -44 -9q-22 0 -42 9t-35 24q-16 16 -25 35t-9 43zM93 0v88q0 32 31 38l117 24v1168q-99 20 -123 24 q-25 5 -25 37v88h495v-88q0 -32 -32 -38l-117 -23v-1168q28 -6 56 -11.5t45 -9t23 -4.5q25 -5 25 -37v-88h-495zM447 1706q0 24 9 45t24 36t36 24q23 10 44 10q20 0 43 -10q21 -9 36 -24q17 -17 25 -36q9 -21 9 -45t-9 -43t-25 -35q-15 -15 -36 -24t-43 -9q-23 0 -44 9 t-36 24t-24 35q-9 19 -9 43z" />
<glyph unicode="&#xd0;" horiz-adv-x="1521" d="M16 682v117h201v519q-98 19 -116 23q-14 3 -23 14t-9 24v88h148h530q163 0 295 -52q134 -53 228 -150q94 -95 147 -232q53 -136 53 -300t-53 -300q-53 -135 -147 -231q-95 -97 -228 -149q-135 -53 -295 -53h-530h-148v88q0 13 9 24t23 14l116 23v533h-201zM417 161h330 q118 0 214 39t163 112q68 74 105 180q37 105 37 241q0 137 -37 242q-37 107 -105 180q-69 75 -163 113q-96 39 -214 39h-330v-508h390v-117h-390v-521z" />
<glyph unicode="&#xd1;" horiz-adv-x="1587" d="M69 0v88q0 32 30 38l117 24v1168q-25 5 -54.5 10.5t-43.5 8.5t-19 4q-30 6 -30 38v88h249q26 0 40 -6q12 -5 29 -27l850 -1106q-5 48 -5 100v890q-35 6 -66.5 11.5t-48.5 8t-21 3.5q-31 6 -31 38v88h167h174h148v-88q0 -32 -31 -38l-117 -23v-1318h-100q-42 0 -71 36 l-849 1105q4 -47 4 -95v-896q118 -20 136 -24q31 -6 31 -38v-88h-488zM550 1585q0 45 12 82q13 40 33 64q23 27 55 42q33 15 72 15q37 0 69 -13q29 -12 62 -30q20 -11 56 -29q26 -13 52 -13q35 0 54 21q18 20 20 59h101q0 -43 -12 -81q-12 -39 -32 -64q-20 -26 -54 -42 q-32 -15 -72 -15q-37 0 -69 13q-33 14 -63 30q-10 6 -57 29q-26 13 -51 13q-35 0 -54 -22q-18 -21 -20 -59h-102z" />
<glyph unicode="&#xd2;" horiz-adv-x="1544" d="M46 733q0 166 52 303q51 134 148 237q93 99 228 155t295 56t295 -56q137 -57 229 -155q97 -103 148 -237q52 -137 52 -303q0 -165 -52 -302q-52 -136 -148 -237q-95 -99 -229 -155q-130 -54 -295 -54t-295 54q-133 55 -228 155q-96 101 -148 237q-52 137 -52 302z M249 733q0 -137 37 -242q38 -108 105 -181q69 -76 164 -114q96 -39 214 -39q119 0 215 39q95 38 164 114q65 71 104 181q37 105 37 242q0 136 -37 243q-38 111 -104 182q-67 73 -164 114q-95 40 -215 40q-119 0 -214 -40q-97 -41 -164 -114t-105 -182q-37 -107 -37 -243z M401 1825h206q30 0 49 -7q16 -6 37 -27l216 -208h-142q-18 0 -34 4q-10 2 -30 16z" />
<glyph unicode="&#xd3;" horiz-adv-x="1544" d="M46 733q0 166 52 303q51 134 148 237q93 99 228 155t295 56t295 -56q137 -57 229 -155q97 -103 148 -237q52 -137 52 -303q0 -165 -52 -302q-52 -136 -148 -237q-95 -99 -229 -155q-130 -54 -295 -54t-295 54q-133 55 -228 155q-96 101 -148 237q-52 137 -52 302z M249 733q0 -137 37 -242q38 -108 105 -181q69 -76 164 -114q96 -39 214 -39q119 0 215 39q95 38 164 114q65 71 104 181q37 105 37 242q0 136 -37 243q-38 111 -104 182q-67 73 -164 114q-95 40 -215 40q-119 0 -214 -40q-97 -41 -164 -114t-105 -182q-37 -107 -37 -243z M612 1583l216 208q10 10 19 16q12 8 18 11t21 5q16 2 28 2h206l-301 -221q-20 -13 -31 -17q-12 -4 -34 -4h-142z" />
<glyph unicode="&#xd4;" horiz-adv-x="1544" d="M46 733q0 166 52 303q51 134 148 237q93 99 228 155t295 56t295 -56q137 -57 229 -155q97 -103 148 -237q52 -137 52 -303q0 -165 -52 -302q-52 -136 -148 -237q-95 -99 -229 -155q-130 -54 -295 -54t-295 54q-133 55 -228 155q-96 101 -148 237q-52 137 -52 302z M249 733q0 -137 37 -242q38 -108 105 -181q69 -76 164 -114q96 -39 214 -39q119 0 215 39q95 38 164 114q65 71 104 181q37 105 37 242q0 136 -37 243q-38 111 -104 182q-67 73 -164 114q-95 40 -215 40q-119 0 -214 -40q-97 -41 -164 -114t-105 -182q-37 -107 -37 -243z M437 1583l244 215h180l244 -215h-138q-7 0 -27 4q-15 3 -24 9l-133 98q-10 6 -12 8q-9 -7 -12 -8l-133 -98q-9 -6 -24 -9q-20 -4 -27 -4h-138z" />
<glyph unicode="&#xd5;" horiz-adv-x="1544" d="M46 733q0 166 52 303q51 134 148 237q93 99 228 155t295 56t295 -56q137 -57 229 -155q97 -103 148 -237q52 -137 52 -303q0 -165 -52 -302q-52 -136 -148 -237q-95 -99 -229 -155q-130 -54 -295 -54t-295 54q-133 55 -228 155q-96 101 -148 237q-52 137 -52 302z M249 733q0 -137 37 -242q38 -108 105 -181q69 -76 164 -114q96 -39 214 -39q119 0 215 39q95 38 164 114q65 71 104 181q37 105 37 242q0 136 -37 243q-38 111 -104 182q-67 73 -164 114q-95 40 -215 40q-119 0 -214 -40q-97 -41 -164 -114t-105 -182q-37 -107 -37 -243z M484 1585q0 45 12 82q12 38 34 64q23 28 54 42q33 15 72 15q37 0 69 -13q29 -12 62 -30q10 -5 57 -29q26 -13 51 -13q35 0 55 21q18 20 20 59h100q0 -47 -11 -81q-12 -37 -33 -64t-53 -42t-73 -15q-37 0 -69 13q-29 12 -62 30q-10 6 -57 29q-26 13 -52 13q-34 0 -53 -22 q-18 -21 -20 -59h-103z" />
<glyph unicode="&#xd6;" horiz-adv-x="1544" d="M46 733q0 166 52 303q51 134 148 237q93 99 228 155t295 56t295 -56q137 -57 229 -155q97 -103 148 -237q52 -137 52 -303q0 -165 -52 -302q-52 -136 -148 -237q-95 -99 -229 -155q-130 -54 -295 -54t-295 54q-133 55 -228 155q-96 101 -148 237q-52 137 -52 302z M249 733q0 -137 37 -242q38 -108 105 -181q69 -76 164 -114q96 -39 214 -39q119 0 215 39q95 38 164 114q65 71 104 181q37 105 37 242q0 136 -37 243q-38 111 -104 182q-67 73 -164 114q-95 40 -215 40q-119 0 -214 -40q-97 -41 -164 -114t-105 -182q-37 -107 -37 -243z M441 1706q0 22 10 45q9 21 24 36t35 24q22 10 42 10q21 0 44 -10t37 -24q15 -15 24 -36q10 -23 10 -45q0 -21 -10 -43q-9 -20 -24 -35q-14 -14 -37 -24q-21 -9 -44 -9q-22 0 -42 9t-35 24t-24 35q-10 22 -10 43zM878 1706q0 26 8 45q9 21 24 36t36 24q23 10 44 10 q20 0 43 -10q21 -9 36 -24q17 -17 25 -36q9 -21 9 -45t-9 -43t-25 -35q-15 -15 -36 -24t-43 -9q-23 0 -44 9t-36 24t-24 35q-8 17 -8 43z" />
<glyph unicode="&#xd7;" horiz-adv-x="990" d="M34 323l364 364l-353 353l97 99l354 -355l352 353l98 -99l-352 -352l362 -361l-97 -99l-362 363l-366 -365z" />
<glyph unicode="&#xd8;" horiz-adv-x="1544" d="M46 733q0 166 52 303q51 134 148 237q93 99 228 155t295 56q118 0 220 -30q104 -31 188 -85l84 114q23 30 36 39q17 12 50 12h102l-176 -241q107 -103 163 -242q57 -143 57 -318q0 -165 -52 -302q-52 -136 -148 -237q-95 -99 -229 -155q-130 -54 -295 -54q-113 0 -207 25 q-99 26 -177 74l-102 -139q-22 -29 -53 -43t-59 -14h-80l196 267q-116 102 -178 247q-63 147 -63 331zM249 733q0 -141 38 -246q39 -109 109 -183l675 921q-60 42 -137 65q-75 22 -165 22q-119 0 -214 -40q-97 -41 -164 -114t-105 -182q-37 -107 -37 -243zM490 228 q117 -71 279 -71q119 0 215 39q95 38 164 114q65 71 104 181q37 105 37 242q0 129 -33 232t-95 177z" />
<glyph unicode="&#xd9;" horiz-adv-x="1533" d="M36 1379v88h513v-88q0 -32 -32 -38q-4 -1 -20 -3.5t-49 -8t-67 -11.5v-741q0 -188 102 -302q104 -117 285 -117t285 116q101 113 101 301v743q-34 6 -66.5 11.5t-48.5 8t-20 3.5q-32 6 -32 38v88h167h198h148v-88q0 -32 -32 -38l-116 -23v-743q0 -258 -156 -423 q-160 -169 -428 -169q-266 0 -428 169q-157 166 -157 423v743q-113 22 -116 23q-31 6 -31 38zM397 1825h206q30 0 49 -7q16 -6 37 -27l216 -208h-142q-18 0 -34 4q-10 2 -30 16z" />
<glyph unicode="&#xda;" horiz-adv-x="1533" d="M36 1379v88h513v-88q0 -32 -32 -38q-4 -1 -20 -3.5t-49 -8t-67 -11.5v-741q0 -188 102 -302q104 -117 285 -117t285 116q101 113 101 301v743q-34 6 -66.5 11.5t-48.5 8t-20 3.5q-32 6 -32 38v88h167h198h148v-88q0 -32 -32 -38l-116 -23v-743q0 -258 -156 -423 q-160 -169 -428 -169q-266 0 -428 169q-157 166 -157 423v743q-113 22 -116 23q-31 6 -31 38zM608 1583l216 208q10 10 19 16q12 8 18 11t21 5q16 2 28 2h206l-301 -221q-20 -13 -31 -17q-12 -4 -34 -4h-142z" />
<glyph unicode="&#xdb;" horiz-adv-x="1533" d="M36 1379v88h513v-88q0 -32 -32 -38q-4 -1 -20 -3.5t-49 -8t-67 -11.5v-741q0 -188 102 -302q104 -117 285 -117t285 116q101 113 101 301v743q-34 6 -66.5 11.5t-48.5 8t-20 3.5q-32 6 -32 38v88h167h198h148v-88q0 -32 -32 -38l-116 -23v-743q0 -258 -156 -423 q-160 -169 -428 -169q-266 0 -428 169q-157 166 -157 423v743q-113 22 -116 23q-31 6 -31 38zM433 1583l244 215h180l244 -215h-138q-7 0 -27 4q-15 3 -24 9l-133 98q-10 6 -12 8q-9 -7 -12 -8l-133 -98q-9 -6 -24 -9q-20 -4 -27 -4h-138z" />
<glyph unicode="&#xdc;" horiz-adv-x="1533" d="M36 1379v88h513v-88q0 -32 -32 -38q-4 -1 -20 -3.5t-49 -8t-67 -11.5v-741q0 -188 102 -302q104 -117 285 -117t285 116q101 113 101 301v743q-34 6 -66.5 11.5t-48.5 8t-20 3.5q-32 6 -32 38v88h167h198h148v-88q0 -32 -32 -38l-116 -23v-743q0 -258 -156 -423 q-160 -169 -428 -169q-266 0 -428 169q-157 166 -157 423v743q-113 22 -116 23q-31 6 -31 38zM437 1706q0 24 9 45q8 19 25 36q15 15 35 24q22 10 42 10q21 0 44 -10t37 -24q15 -15 24 -36q10 -23 10 -45q0 -21 -10 -43q-9 -20 -24 -35q-14 -14 -37 -24q-21 -9 -44 -9 q-22 0 -42 9t-35 24q-16 16 -25 35t-9 43zM873 1706q0 24 9 45t24 36t36 24q23 10 44 10q20 0 43 -10q21 -9 36 -24q17 -17 25 -36q9 -21 9 -45t-9 -43t-25 -35q-15 -15 -36 -24t-43 -9q-23 0 -44 9t-36 24t-24 35q-9 19 -9 43z" />
<glyph unicode="&#xdd;" horiz-adv-x="1434" d="M39 1379v88h493v-88q0 -32 -31 -38q-113 -23 -116 -23l274 -467q32 -55 60 -130q25 72 58 130l275 467q-5 1 -117 23q-31 6 -31 38v88h494v-88q0 -32 -26 -37q-26 -4 -108 -24l-448 -734v-434q15 -3 117 -24q31 -6 31 -38v-88h-148h-198h-147v88q0 32 31 38l116 24v434 l-446 734q-85 20 -104 24q-29 6 -29 37zM559 1583l216 208q10 10 19 16q12 8 18 11t21 5q16 2 28 2h206l-301 -221q-20 -13 -31 -17q-12 -4 -35 -4h-141z" />
<glyph unicode="&#xde;" horiz-adv-x="1137" d="M111 0v1467h197v-270h236q142 0 242 -32q104 -33 170 -92q69 -61 101 -143q34 -87 34 -188q0 -102 -36 -187q-35 -84 -105 -146q-68 -61 -172 -96q-101 -34 -234 -34h-236v-279h-197zM308 436h236q84 0 150 23t109 63q44 41 66 96q23 58 23 124q0 140 -87 220 q-85 78 -261 78h-236v-604z" />
<glyph unicode="&#xdf;" horiz-adv-x="1111" d="M97 0v1016q0 106 36 193q37 90 100 150t158 96q90 34 205 34q102 0 183 -31q77 -30 127 -78q51 -50 74 -104q25 -59 25 -109q0 -62 -22 -105q-23 -45 -55 -78q-32 -34 -71 -59q-19 -12 -72 -51q-28 -20 -54 -50q-22 -25 -22 -59q0 -40 27 -67q25 -25 68 -49 q54 -30 88 -47q49 -25 89 -60q42 -37 68 -88q27 -52 27 -132q0 -79 -29 -143q-28 -61 -80 -106q-50 -43 -121 -66t-150 -23q-101 0 -180 35q-81 36 -142 91l42 69q7 13 20 21q11 7 29 7q19 0 39 -14q20 -15 48 -32q25 -16 67 -32q36 -14 93 -14q44 0 81 14q36 14 61 37 t38 56q13 32 13 71q0 58 -28 93q-29 37 -72 62q-53 31 -93 48q-52 22 -94 51t-71 72t-29 110q0 54 23 95q21 37 58 73q33 32 74 59q26 18 74 59q33 29 57 67q23 37 23 85q0 37 -12 66q-13 33 -42 60q-29 28 -74 44q-46 17 -110 17q-67 0 -127 -22q-57 -21 -97 -64 q-39 -42 -62 -108q-22 -63 -22 -150v-1010h-184z" />
<glyph unicode="&#xe0;" horiz-adv-x="1044" d="M44 225q0 100 34 156q36 59 108 101q173 101 496 101v81q0 246 -205 246q-118 0 -194 -54q-77 -55 -100 -55q-38 0 -89 92q171 165 332 165q159 0 228 -29q67 -28 114 -80q93 -103 93 -283v-518q28 -6 55 -11t41.5 -8t18.5 -4q17 -3 17 -35v-88h-213q-57 0 -64 43l-21 96 q-171 -155 -297 -155q-123 0 -177 17q-55 17 -92 50q-85 73 -85 172zM215 1484h173q33 0 50 -11q16 -10 31 -34l153 -248h-105q-19 0 -35 7q-9 4 -27 22zM219 270q0 -156 167 -156q166 0 296 139v214q-463 0 -463 -197z" />
<glyph unicode="&#xe1;" horiz-adv-x="1044" d="M44 225q0 100 34 156q36 59 108 101q173 101 496 101v81q0 246 -205 246q-118 0 -194 -54q-77 -55 -100 -55q-38 0 -89 92q171 165 332 165q159 0 228 -29q67 -28 114 -80q93 -103 93 -283v-518q28 -6 55 -11t41.5 -8t18.5 -4q17 -3 17 -35v-88h-213q-57 0 -64 43l-21 96 q-171 -155 -297 -155q-123 0 -177 17q-55 17 -92 50q-85 73 -85 172zM219 270q0 -156 167 -156q166 0 296 139v214q-463 0 -463 -197zM377 1191l151 248q14 23 32 34q17 11 49 11h178l-238 -264q-17 -17 -28 -22q-16 -7 -36 -7h-108z" />
<glyph unicode="&#xe2;" horiz-adv-x="1043" d="M44 225q0 100 34 156q36 59 108 101q173 101 496 101v81q0 246 -205 246q-118 0 -194 -54q-77 -55 -100 -55q-38 0 -89 92q171 165 332 165q159 0 228 -29q67 -28 114 -80q93 -103 93 -283v-518q28 -6 55 -11t41.5 -8t18.5 -4q17 -3 17 -35v-88h-213q-57 0 -64 43l-21 96 q-171 -155 -297 -155q-123 0 -177 17q-55 17 -92 50q-85 73 -85 172zM176 1197l228 270h170l229 -270h-122q-23 0 -41 14l-131 129l-17 18l-17 -18l-132 -129q-7 -5 -17 -9q-13 -5 -24 -5h-126zM219 270q0 -156 167 -156q166 0 296 139v214q-463 0 -463 -197z" />
<glyph unicode="&#xe3;" horiz-adv-x="1044" d="M44 225q0 100 34 156q36 59 108 101q173 101 496 101v81q0 246 -205 246q-118 0 -194 -54q-77 -55 -100 -55q-38 0 -89 92q171 165 332 165q159 0 228 -29q67 -28 114 -80q93 -103 93 -283v-518q28 -6 55 -11t41.5 -8t18.5 -4q17 -3 17 -35v-88h-213q-57 0 -64 43l-21 96 q-171 -155 -297 -155q-123 0 -177 17q-55 17 -92 50q-85 73 -85 172zM195 1231q0 50 13 89q14 41 38 70t58 45q33 16 74 16q36 0 67 -15q38 -18 59 -32q11 -7 29.5 -18.5t22.5 -13.5q24 -15 47 -15q37 0 57 21q19 21 21 67h111q0 -50 -13 -89q-14 -41 -37 -69 q-23 -27 -57 -44q-32 -16 -75 -16q-36 0 -67 15q-38 18 -59 32q-11 7 -29.5 18.5t-22.5 13.5q-24 15 -48 15q-74 0 -76 -90h-113zM219 270q0 -156 167 -156q166 0 296 139v214q-463 0 -463 -197z" />
<glyph unicode="&#xe4;" horiz-adv-x="1043" d="M44 225q0 100 34 156q36 59 108 101q173 101 496 101v81q0 246 -205 246q-118 0 -194 -54q-77 -55 -100 -55q-38 0 -89 92q171 165 332 165q159 0 228 -29q67 -28 114 -80q93 -103 93 -283v-518q28 -6 55 -11t41.5 -8t18.5 -4q17 -3 17 -35v-88h-213q-57 0 -64 43l-21 96 q-171 -155 -297 -155q-123 0 -177 17q-55 17 -92 50q-85 73 -85 172zM190 1320q0 22 10 45q9 21 25 37q17 17 36 25q23 10 43 10q22 0 45 -10q21 -9 37 -25q18 -18 26 -37q9 -21 9 -45q0 -23 -9 -44q-9 -20 -26 -36q-19 -17 -37 -25q-21 -9 -45 -9q-22 0 -43 9q-16 7 -36 25 q-16 14 -25 36q-10 23 -10 44zM219 270q0 -156 167 -156q166 0 296 139v214q-463 0 -463 -197zM558 1320q0 24 9 45q8 18 25 37q14 16 36 25q23 10 45 10q21 0 44 -10q21 -9 37 -25t25 -37t9 -45q0 -23 -9 -44q-9 -22 -25 -36q-19 -17 -37 -25q-21 -9 -44 -9q-24 0 -45 9 q-19 8 -36 25t-25 36q-9 21 -9 44z" />
<glyph unicode="&#xe5;" horiz-adv-x="1043" d="M44 225q0 100 34 156q36 59 108 101q173 101 496 101v81q0 246 -205 246q-118 0 -194 -54q-77 -55 -100 -55q-38 0 -89 92q171 165 332 165q159 0 228 -29q67 -28 114 -80q93 -103 93 -283v-518q28 -6 55 -11t41.5 -8t18.5 -4q17 -3 17 -35v-88h-213q-57 0 -64 43l-21 96 q-171 -155 -297 -155q-123 0 -177 17q-55 17 -92 50q-85 73 -85 172zM219 270q0 -156 167 -156q166 0 296 139v214q-463 0 -463 -197zM286 1347q0 44 16 77q17 36 45 61q29 26 65 39q39 14 77 14q41 0 80 -14q37 -14 66 -39q28 -25 45 -61q16 -33 16 -77t-16 -77 q-18 -37 -45 -60q-30 -25 -66 -38q-39 -14 -80 -14q-38 0 -77 14q-35 12 -65 38q-27 23 -45 60q-16 33 -16 77zM388 1347q0 -44 28 -74q27 -29 76 -29q45 0 74 29q28 28 28 74t-28 74q-29 29 -74 29q-49 0 -76 -29q-28 -30 -28 -74z" />
<glyph unicode="&#xe6;" horiz-adv-x="1591" d="M46 273q0 62 34 121q35 61 109 107q76 47 197 77q119 29 298 34v52q0 119 -52 185q-51 64 -153 64q-67 0 -112 -18q-48 -19 -79 -39q-33 -21 -57 -39t-48 -18q-19 0 -32 9q-14 10 -22 25l-33 58q87 84 179 124q94 41 208 41q124 0 198 -52t109 -146q57 92 143 143 q89 53 213 53q84 0 156 -33q74 -34 125 -95q54 -65 83 -152q30 -90 30 -205q0 -40 -8 -56q-8 -15 -34 -15h-642q5 -96 28 -163q24 -68 63 -115q38 -45 93 -68t120 -23q72 0 118 15t78 33t51 33t36 15q15 0 23 -4q9 -5 16 -13l48 -63q-37 -44 -78 -71q-43 -29 -96 -49 q-58 -22 -105 -30q-54 -9 -107 -9q-121 0 -218 58t-154 176q-27 -63 -72 -108q-46 -46 -99 -74q-54 -29 -115 -42q-55 -12 -121 -12q-71 0 -129 18q-61 19 -101 53q-44 38 -66 90q-23 55 -23 128zM221 283q0 -89 51 -130q52 -41 135 -41q58 0 109 18q49 17 88 56 q38 38 59 95t21 132v85q-122 -4 -214 -23q-85 -17 -143 -47q-55 -28 -81 -66q-25 -37 -25 -79zM858 611h520q0 69 -16 124q-17 59 -46 98q-31 42 -75 64q-46 23 -102 23q-63 0 -112 -21q-48 -20 -84 -61q-36 -40 -57 -98q-20 -55 -28 -129z" />
<glyph unicode="&#xe7;" horiz-adv-x="925" d="M45 519q0 239 126 383q132 152 363 152q117 0 307 -77v-268h-82q-31 0 -35 28q-4 15 -8 77q-1 19 -2.5 36t-2 24.5t-0.5 8.5q-35 11 -75 18q-60 10 -116 9q-55 -1 -112 -27q-56 -25 -97 -77q-79 -103 -79 -287q0 -187 82 -291q79 -101 221 -101q127 0 228 86q17 16 39 16 t33 -17l51 -67q-114 -140 -334 -157l-17 -60q94 -22 133 -55q42 -36 42 -80t-17 -70q-18 -28 -45 -45q-59 -37 -161 -37q-80 0 -149 31l17 57q6 18 24 18q3 0 15 -4t19 -7q29 -12 68 -12q40 0 62 16t22 40q0 25 -11 37q-12 13 -32 22q-34 15 -122 27l38 124 q-158 21 -261 136q-132 146 -132 393z" />
<glyph unicode="&#xe8;" horiz-adv-x="1003" d="M43 540q0 108 33 202q33 95 96 164t153 108q92 40 202 40q91 0 172 -32q80 -32 137 -90q56 -57 89 -145q32 -84 32 -197q0 -43 -9 -58q-8 -14 -35 -14h-690q1 -94 27 -171q25 -74 67 -121q45 -50 103 -73q60 -24 133 -24q70 0 118 16q54 18 86 34q33 17 60 35 q22 15 41 15q24 0 35 -17l51 -67q-35 -42 -81 -71q-44 -28 -101 -49q-61 -22 -111 -30q-57 -9 -113 -9q-109 0 -199 36q-89 36 -156 107q-66 70 -103 173q-37 102 -37 238zM229 632h565q0 64 -18 116q-19 54 -51 91q-35 39 -82 60q-48 21 -112 21q-130 0 -207 -77t-95 -211z M256 1484h173q33 0 50 -11q16 -10 31 -34l153 -248h-105q-19 0 -35 7q-9 4 -27 22z" />
<glyph unicode="&#xe9;" horiz-adv-x="1003" d="M43 540q0 108 33 202q33 95 96 164t153 108q92 40 202 40q91 0 172 -32q80 -32 137 -90q56 -57 89 -145q32 -84 32 -197q0 -43 -9 -58q-8 -14 -35 -14h-690q1 -94 27 -171q25 -74 67 -121q45 -50 103 -73q60 -24 133 -24q70 0 118 16q54 18 86 34q33 17 60 35 q22 15 41 15q24 0 35 -17l51 -67q-35 -42 -81 -71q-44 -28 -101 -49q-61 -22 -111 -30q-57 -9 -113 -9q-109 0 -199 36q-89 36 -156 107q-66 70 -103 173q-37 102 -37 238zM229 632h565q0 64 -18 116q-19 54 -51 91q-35 39 -82 60q-48 21 -112 21q-130 0 -207 -77t-95 -211z M418 1191l151 248q14 23 32 34q17 11 49 11h178l-238 -264q-17 -17 -28 -22q-16 -7 -36 -7h-108z" />
<glyph unicode="&#xea;" horiz-adv-x="1002" d="M42 540q0 108 33 202q33 95 96 164t153 108q92 40 202 40q91 0 172 -32q80 -32 137 -90q56 -57 89 -145q32 -84 32 -197q0 -43 -9 -58q-8 -14 -35 -14h-690q1 -94 27 -171q25 -74 67 -121q45 -50 103 -73q60 -24 133 -24q70 0 118 16q54 18 86 34q33 17 60 35 q22 15 41 15q24 0 35 -17l51 -67q-35 -42 -81 -71q-44 -28 -101 -49q-61 -22 -111 -30q-57 -9 -113 -9q-109 0 -199 36q-89 36 -156 107q-66 70 -103 173q-37 102 -37 238zM216 1197l228 270h170l229 -270h-122q-23 0 -41 14l-131 129l-18 18l-16 -18l-132 -129 q-7 -5 -17 -9q-13 -5 -24 -5h-126zM228 632h565q0 64 -18 116q-19 54 -51 91q-35 39 -82 60q-48 21 -112 21q-130 0 -207 -77t-95 -211z" />
<glyph unicode="&#xeb;" horiz-adv-x="1002" d="M42 540q0 108 33 202q33 95 96 164t153 108q92 40 202 40q91 0 172 -32q80 -32 137 -90q56 -57 89 -145q32 -84 32 -197q0 -43 -9 -58q-8 -14 -35 -14h-690q1 -94 27 -171q25 -74 67 -121q45 -50 103 -73q60 -24 133 -24q70 0 118 16q54 18 86 34q33 17 60 35 q22 15 41 15q24 0 35 -17l51 -67q-35 -42 -81 -71q-44 -28 -101 -49q-61 -22 -111 -30q-57 -9 -113 -9q-109 0 -199 36q-89 36 -156 107q-66 70 -103 173q-37 102 -37 238zM228 632h565q0 64 -18 116q-19 54 -51 91q-35 39 -82 60q-48 21 -112 21q-130 0 -207 -77t-95 -211z M230 1320q0 22 10 45q9 21 25 37q17 17 36 25q23 10 43 10q22 0 45 -10q21 -9 37 -25q18 -18 26 -37q9 -21 9 -45q0 -23 -9 -44q-9 -20 -26 -36q-19 -17 -37 -25q-21 -9 -45 -9q-22 0 -43 9q-16 7 -36 25q-16 14 -25 36q-10 23 -10 44zM598 1320q0 24 9 45q8 18 25 37 q14 16 36 25q23 10 45 10q21 0 44 -10q21 -9 37 -25t25 -37t9 -45q0 -23 -9 -44q-9 -22 -25 -36q-19 -17 -37 -25q-21 -9 -44 -9q-24 0 -45 9q-19 8 -36 25t-25 36q-9 21 -9 44z" />
<glyph unicode="&#xec;" horiz-adv-x="595" d="M39 1484h173q33 0 49 -10t32 -35l152 -248h-104q-23 0 -35 6.5t-27 22.5zM68 0v88q0 13 9 24t23 14l116 23v739q-98 19 -116 23q-14 3 -23 14t-9 24v88h148h182v-888q99 -19 117 -23q13 -3 22 -13.5t9 -24.5v-88h-478z" />
<glyph unicode="&#xed;" horiz-adv-x="625" d="M65 0v88q0 14 9 24.5t22 13.5l116 23v739q-98 19 -116 23q-13 3 -22 13.5t-9 24.5v88h147h183v-888q98 -19 116 -23q13 -3 22 -13.5t9 -24.5v-88h-477zM197 1191l151 248q15 24 31.5 34.5t49.5 10.5h179l-239 -264q-27 -29 -64 -29h-108z" />
<glyph unicode="&#xee;" horiz-adv-x="651" d="M15 1197l229 270h170l228 -270h-122q-23 0 -41 14q-25 24 -74.5 73t-73.5 74q-27 -29 -80 -80t-69 -67q-16 -14 -41 -14h-126zM85 0v88q0 14 9 24.5t22 13.5l116 23v739q-98 19 -116 23q-13 3 -22 13.5t-9 24.5v88h147h183v-888q98 -19 116 -23q13 -3 22 -13.5t9 -24.5 v-88h-477z" />
<glyph unicode="&#xef;" horiz-adv-x="658" d="M35 1320q0 24 9 45t25 37q17 17 36 25q23 10 43 10q22 0 45 -10q21 -9 37 -25q18 -18 26 -37q9 -21 9 -45q0 -23 -9 -44q-9 -20 -26 -36q-19 -17 -37 -25q-21 -9 -45 -9q-22 0 -43 9q-16 7 -36 25q-16 14 -25 36q-9 21 -9 44zM89 0v88q0 14 9 24.5t22 13.5l117 23v739 q-99 19 -117 23q-13 3 -22 13.5t-9 24.5v88h148h182v-888q98 -19 116 -23q14 -3 23 -14t9 -24v-88h-478zM402 1320q0 22 10 45q9 20 24 37q14 15 37 25t44 10q22 0 45 -10q21 -9 37 -25t25 -37t9 -45q0 -23 -9 -44q-9 -22 -25 -36q-19 -17 -37 -25q-21 -9 -45 -9 q-23 0 -44 9t-37 25q-15 15 -24 36q-10 23 -10 44z" />
<glyph unicode="&#xf0;" horiz-adv-x="1067" d="M42 477q0 95 32 182q32 86 91 150q60 65 144 102q85 38 191 38q102 0 193 -44q90 -44 157 -133q-21 142 -80 237q-58 94 -157 162l-188 -138l-34 58q-2 3 -3.5 7.5t-2.5 5.5q-3 6 -3 13q0 23 24 38l105 74q-35 16 -98 38q-29 10 -110 31q-16 4 -31 19q-13 13 -13 38 q0 12 5 29l21 64q95 -16 190 -47q92 -30 175 -80l171 125l36 -58q8 -14 8 -25q0 -22 -22 -38l-100 -69q62 -50 113 -113q48 -60 86 -143q37 -82 56 -174q20 -97 20 -208q0 -144 -32 -263q-31 -114 -95 -198q-63 -83 -156 -126q-94 -44 -217 -44q-104 0 -187 33 q-87 35 -151 97q-63 62 -101 154q-37 90 -37 206zM224 475q0 -83 24 -148q25 -67 64 -109q42 -45 95 -67q55 -23 115 -23q71 0 132 28q57 26 100 83q40 53 65 140q24 84 27 199q-17 44 -43 85q-27 42 -65 74q-37 31 -89 51q-50 19 -114 19q-75 0 -135 -26q-58 -25 -97 -70 q-41 -47 -59 -105q-20 -63 -20 -131z" />
<glyph unicode="&#xf1;" horiz-adv-x="1274" d="M66 0v88q0 32 30 38l117 24v738q-25 5 -54.5 10.5t-43.5 8.5t-19 4q-30 6 -30 38v88h147h109q38 0 49 -38l14 -112q152 167 344 167q167 0 259 -109q88 -104 88 -285v-510q99 -20 117 -24q32 -6 32 -38v-88h-331v660q0 248 -218 248q-152 0 -281 -144v-614q7 -2 117 -24 q32 -6 32 -38v-88h-478zM346 1231q0 50 13 89q14 41 38 70q24 28 59 45q33 16 73 16q35 0 67 -15q38 -18 59 -32q10 -7 29 -18.5t23 -13.5q24 -15 48 -15q37 0 57 21q19 21 21 67h110q0 -50 -13 -89q-14 -41 -37 -69q-23 -27 -57 -44q-32 -16 -74 -16q-36 0 -67 15 q-39 18 -59 32q-10 7 -29 18.5t-23 13.5q-24 15 -48 15q-74 0 -76 -90h-114z" />
<glyph unicode="&#xf2;" horiz-adv-x="1078" d="M43 519q0 121 35 221q34 99 99 168q67 71 156 108q93 38 206 38q112 0 205 -38q89 -37 156 -108q63 -67 98 -168q34 -98 34 -221t-34 -221q-35 -101 -98 -168q-65 -70 -156 -107q-90 -37 -205 -37q-116 0 -206 37q-91 37 -156 107q-65 69 -99 168q-35 100 -35 221z M231 518q0 -95 19 -165q20 -74 58 -122q39 -49 95 -76q57 -27 136 -27q153 0 229 103t76 287q0 186 -76 289t-229 103q-81 0 -136 -26t-95 -77q-38 -49 -58 -123q-19 -72 -19 -166zM265 1484h173q33 0 50 -11q16 -10 31 -34l153 -248h-105q-19 0 -35 7q-9 4 -27 22z" />
<glyph unicode="&#xf3;" horiz-adv-x="1078" d="M44 519q0 121 35 221q35 99 99 168q67 71 156 108q93 38 206 38q112 0 205 -38q89 -37 156 -108q63 -67 98 -168q34 -98 34 -221t-34 -221q-35 -101 -98 -168q-65 -70 -156 -107q-90 -37 -205 -37q-116 0 -206 37q-91 37 -156 107q-64 69 -99 168q-35 100 -35 221z M232 518q0 -95 19 -165q20 -74 58 -122q39 -49 95 -76q57 -27 136 -27q153 0 229 103t76 287q0 186 -76 289t-229 103q-81 0 -136 -26t-95 -77q-38 -49 -58 -123q-19 -72 -19 -166zM428 1191l152 248q15 24 31 34q17 11 49 11h179l-239 -264q-17 -17 -28 -22q-16 -7 -35 -7 h-109z" />
<glyph unicode="&#xf4;" horiz-adv-x="1077" d="M43 519q0 121 35 221q34 99 99 168q67 71 156 108q93 38 206 38q112 0 205 -38q89 -37 156 -108q63 -67 98 -168q34 -98 34 -221t-34 -221q-35 -101 -98 -168q-65 -70 -156 -107q-90 -37 -205 -37q-116 0 -206 37q-91 37 -156 107q-65 69 -99 168q-35 100 -35 221z M226 1197l229 270h170l228 -270h-122q-23 0 -41 14l-131 129l-17 18l-17 -18l-132 -129q-7 -5 -17 -9q-13 -5 -24 -5h-126zM231 518q0 -95 19 -165q20 -74 58 -122q39 -49 95 -76q57 -27 136 -27q153 0 229 103t76 287q0 186 -76 289t-229 103q-81 0 -136 -26t-95 -77 q-38 -49 -58 -123q-19 -72 -19 -166z" />
<glyph unicode="&#xf5;" horiz-adv-x="1077" d="M43 519q0 121 35 221q34 99 99 168q67 71 156 108q93 38 206 38q112 0 205 -38q89 -37 156 -108q63 -67 98 -168q34 -98 34 -221t-34 -221q-35 -101 -98 -168q-65 -70 -156 -107q-90 -37 -205 -37q-116 0 -206 37q-91 37 -156 107q-65 69 -99 168q-35 100 -35 221z M231 518q0 -95 19 -165q20 -74 58 -122q39 -49 95 -76q57 -27 136 -27q153 0 229 103t76 287q0 186 -76 289t-229 103q-81 0 -136 -26t-95 -77q-38 -49 -58 -123q-19 -72 -19 -166zM245 1231q0 50 13 89q14 41 38 70t58 45q33 16 74 16q36 0 67 -15q38 -18 59 -32 q10 -7 29 -18.5t23 -13.5q24 -15 47 -15q37 0 57 21q19 21 21 67h111q0 -50 -13 -89q-14 -41 -37 -69q-23 -27 -57 -44q-32 -16 -75 -16q-36 0 -67 15q-35 17 -58 32q-10 7 -28.5 18t-24.5 14q-24 15 -48 15q-74 0 -76 -90h-113z" />
<glyph unicode="&#xf6;" horiz-adv-x="1077" d="M43 519q0 121 35 221q34 99 99 168q67 71 156 108q93 38 206 38q112 0 205 -38q89 -37 156 -108q63 -67 98 -168q34 -98 34 -221t-34 -221q-35 -101 -98 -168q-65 -70 -156 -107q-90 -37 -205 -37q-116 0 -206 37q-91 37 -156 107q-65 69 -99 168q-35 100 -35 221z M231 518q0 -95 19 -165q20 -74 58 -122q39 -49 95 -76q57 -27 136 -27q153 0 229 103t76 287q0 186 -76 289t-229 103q-81 0 -136 -26t-95 -77q-38 -49 -58 -123q-19 -72 -19 -166zM241 1320q0 24 9 45t25 37q17 17 36 25q23 10 43 10q22 0 45 -10q21 -9 37 -25 q18 -18 26 -37q9 -21 9 -45q0 -23 -9 -44q-9 -20 -26 -36q-19 -17 -37 -25q-21 -9 -45 -9q-22 0 -43 9q-16 7 -36 25q-16 14 -25 36q-9 21 -9 44zM608 1320q0 24 9 45q8 18 25 37q14 16 36 25q23 10 45 10q21 0 44 -10q21 -9 37 -25t25 -37q10 -23 10 -45q0 -21 -10 -44 q-9 -22 -25 -36q-19 -17 -37 -25q-21 -9 -44 -9q-24 0 -45 9q-19 8 -36 25t-25 36q-9 21 -9 44z" />
<glyph unicode="&#xf7;" horiz-adv-x="1063" d="M39 618v139h981v-139h-981zM401 322q0 23 10 50q7 20 27 41q13 15 40 27q24 11 50 11t50 -11q26 -12 41 -27q16 -16 27 -41q10 -23 10 -50q0 -30 -10 -51q-11 -24 -28 -41q-18 -18 -40 -27t-50 -9t-50 9q-24 10 -40 27q-19 21 -27 41q-10 25 -10 51zM401 1051q0 23 10 50 q7 20 27 41q13 15 40 27q24 11 50 11t50 -11t40 -27q18 -18 28 -41t10 -50q0 -30 -10 -51q-11 -24 -28 -41q-18 -18 -40 -27t-50 -9t-50 9q-24 10 -40 27q-19 21 -27 41q-10 25 -10 51z" />
<glyph unicode="&#xf8;" horiz-adv-x="1101" d="M41 -78l148 201q-66 69 -103 170q-36 99 -36 226q0 121 35 221q35 99 99 168q67 71 156 108q93 38 206 38q79 0 150 -20q70 -20 126 -55l70 93q23 30 37 40q15 11 49 11h92l-161 -218q62 -68 97 -167q33 -93 33 -219q0 -123 -34 -221q-35 -101 -98 -168 q-65 -70 -156 -107q-90 -37 -205 -37q-81 0 -145 17q-69 18 -122 50l-57 -76q-21 -27 -53 -42q-29 -13 -59 -13h-69zM227 518q0 -162 61 -263l446 604q-75 57 -188 57q-77 0 -137 -27q-58 -26 -100 -79q-39 -50 -61 -125q-21 -73 -21 -167zM366 172q71 -49 180 -49 q76 0 135 27q60 28 100 78q39 50 61 125q20 70 20 165q0 153 -53 253z" />
<glyph unicode="&#xf9;" horiz-adv-x="1239" d="M28 949v88h329v-661q0 -116 55 -182q54 -65 163 -65q156 0 281 143v616q-3 1 -116 23q-31 6 -31 38v88h147h182v-887q99 -20 117 -24q32 -6 32 -38v-88h-257q-38 0 -49 38l-15 112q-150 -166 -344 -166q-167 0 -259 107q-88 101 -88 285v512q-25 5 -54.5 10.5t-43.5 8.5 t-19 4q-30 6 -30 38zM340 1484h173q33 0 50 -11q16 -10 31 -34l152 -248h-104q-19 0 -35 7q-9 4 -27 22z" />
<glyph unicode="&#xfa;" horiz-adv-x="1238" d="M28 949v88h329v-661q0 -116 55 -182q54 -65 163 -65q156 0 281 143v616q-3 1 -116 23q-31 6 -31 38v88h147h182v-887q99 -20 117 -24q32 -6 32 -38v-88h-257q-38 0 -49 38l-15 112q-150 -166 -344 -166q-167 0 -259 107q-88 101 -88 285v512q-25 5 -54.5 10.5t-43.5 8.5 t-19 4q-30 6 -30 38zM502 1191l151 248q14 23 32 34q17 11 49 11h178l-238 -264q-17 -17 -28 -22q-16 -7 -36 -7h-108z" />
<glyph unicode="&#xfb;" horiz-adv-x="1238" d="M28 949v88h329v-661q0 -116 55 -182q54 -65 163 -65q156 0 281 143v616q-3 1 -116 23q-31 6 -31 38v88h147h182v-887q99 -20 117 -24q32 -6 32 -38v-88h-257q-38 0 -49 38l-15 112q-150 -166 -344 -166q-167 0 -259 107q-88 101 -88 285v512q-25 5 -54.5 10.5t-43.5 8.5 t-19 4q-30 6 -30 38zM301 1197l228 270h170l229 -270h-122q-23 0 -41 14l-131 129l-18 18l-16 -18l-132 -129q-7 -5 -17 -9q-13 -5 -24 -5h-126z" />
<glyph unicode="&#xfc;" horiz-adv-x="1238" d="M28 949v88h329v-661q0 -116 55 -182q54 -65 163 -65q156 0 281 143v616q-3 1 -116 23q-31 6 -31 38v88h147h182v-887q99 -20 117 -24q32 -6 32 -38v-88h-257q-38 0 -49 38l-15 112q-150 -166 -344 -166q-167 0 -259 107q-88 101 -88 285v512q-25 5 -54.5 10.5t-43.5 8.5 t-19 4q-30 6 -30 38zM315 1320q0 22 10 45q9 21 25 37q17 17 36 25q23 10 43 10q22 0 45 -10q21 -9 37 -25q18 -18 26 -37q9 -21 9 -45q0 -23 -9 -44q-9 -20 -26 -36q-19 -17 -37 -25q-21 -9 -45 -9q-22 0 -43 9q-16 7 -36 25q-16 14 -25 36q-10 23 -10 44zM683 1320 q0 24 9 45q8 18 25 37q14 16 36 25q23 10 45 10q21 0 44 -10q21 -9 37 -25t25 -37t9 -45q0 -23 -9 -44q-9 -22 -25 -36q-19 -17 -37 -25q-21 -9 -44 -9q-24 0 -45 9q-19 8 -36 25t-25 36q-9 21 -9 44z" />
<glyph unicode="&#xfd;" horiz-adv-x="1217" d="M28 949v88h465v-88q0 -32 -31 -38q-10 -3 -113 -22l231 -543q12 -30 27 -91q15 50 31 92l224 542q-28 6 -65.5 13t-46.5 9q-29 6 -29 38v88h385h75v-88q0 -32 -31 -38q-3 0 -9.5 -1.5l-19.5 -4.5t-25 -5q-13 -3 -25.5 -5t-20 -3.5t-8.5 -1.5l-515 -1196q-21 -45 -65 -45 h-135l189 411l-364 833q-21 4 -42.5 8t-34 6.5l-17.5 3.5q-30 6 -30 38zM508 1191l151 248q14 23 32 34q17 11 49 11h179l-239 -264q-17 -17 -28 -22q-16 -7 -36 -7h-108z" />
<glyph unicode="&#xfe;" horiz-adv-x="1072" d="M112 -351v1859h182v-621q64 76 148 121q86 46 192 46q91 0 162 -34q75 -36 124 -101q51 -68 78 -166q28 -103 28 -228q0 -111 -31 -213q-29 -97 -88 -171q-57 -72 -141 -114q-82 -41 -187 -41q-99 0 -165 35q-68 36 -120 100v-472h-182zM294 250q50 -68 110 -95 q62 -28 134 -28q144 0 222 103q78 104 78 295q0 102 -18 174q-19 75 -52 120q-36 48 -83 68q-50 21 -112 21q-88 0 -156 -41q-65 -39 -123 -115v-502z" />
<glyph unicode="&#xff;" horiz-adv-x="1217" d="M28 949v88h465v-88q0 -32 -31 -38q-10 -3 -113 -22l231 -543q12 -30 27 -91q15 50 31 92l224 542q-28 6 -65.5 13t-46.5 9q-29 6 -29 38v88h385h75v-88q0 -32 -31 -38q-3 0 -9.5 -1.5l-19.5 -4.5t-25 -5q-13 -3 -25.5 -5t-20 -3.5t-8.5 -1.5l-515 -1196q-21 -45 -65 -45 h-135l189 411l-364 833q-21 4 -42.5 8t-34 6.5l-17.5 3.5q-30 6 -30 38zM322 1320q0 24 9 45t25 37q17 17 36 25q23 10 43 10q22 0 45 -10q21 -9 37 -25q18 -18 26 -37q9 -21 9 -45q0 -23 -9 -44q-9 -20 -26 -36q-19 -17 -37 -25q-21 -9 -45 -9q-22 0 -43 9q-16 7 -36 25 q-16 14 -25 36q-9 21 -9 44zM689 1320q0 24 9 45q8 18 25 37q14 16 36 25q23 10 45 10q21 0 44 -10q21 -9 37 -25t25 -37q10 -23 10 -45q0 -21 -10 -44q-9 -22 -25 -36q-19 -17 -37 -25q-21 -9 -44 -9q-24 0 -45 9q-19 8 -36 25t-25 36q-9 21 -9 44z" />
<glyph unicode="&#x152;" horiz-adv-x="2171" d="M47 733q0 164 47 303q46 136 133 237q181 211 471 211q164 0 295 -69t216 -193v245h881v-161v-193h-99q-35 0 -42 36q-4 26 -15 157h-549v-488h541v-155h-541v-501h550q11 129 14 145q8 35 42 35h99v-342h-881v246q-85 -123 -216 -192q-129 -68 -285 -68q-158 0 -275 54 q-122 56 -206 154q-87 101 -133 237q-47 139 -47 302zM250 733q0 -135 33 -243q33 -107 95 -183t148 -116q84 -39 193 -39t193 39t147 116q61 74 94 183q33 108 33 243t-33 243t-94 184t-147 116q-88 41 -193 41t-193 -41q-87 -41 -148 -116q-63 -78 -95 -184 q-33 -108 -33 -243z" />
<glyph unicode="&#x153;" horiz-adv-x="1716" d="M46 519q0 122 33 221q33 100 94 168q64 72 146 108q87 38 190 38q133 0 231 -62t152 -175q51 107 147 172q97 65 232 65q84 0 156 -33q74 -34 125 -95q54 -65 83 -152q30 -90 30 -205q0 -40 -8 -56q-7 -15 -34 -15h-642q5 -96 28 -163q24 -68 63 -115q38 -45 93 -68 t120 -23q64 0 108 16q48 18 78 34q32 18 56 35q20 15 42 15q23 0 34 -17l52 -67q-36 -42 -79 -71q-45 -30 -95 -49q-58 -22 -105 -30q-54 -9 -107 -9q-122 0 -220 59q-97 58 -154 180q-56 -114 -154 -177q-97 -62 -239 -62q-104 0 -187 37q-82 36 -143 107q-60 69 -93 168 t-33 221zM234 518q0 -183 71 -287q70 -103 214 -103q143 0 212 103q70 105 70 287q0 92 -18 166q-18 75 -52 123q-34 49 -88 77q-51 26 -124 26q-75 0 -126 -26t-88 -77q-34 -47 -53 -123q-18 -74 -18 -166zM983 611h520q0 69 -16 124q-17 59 -46 98q-31 42 -75 64 q-46 23 -101 23q-63 0 -112 -21q-48 -20 -84 -61q-36 -40 -57 -98q-22 -59 -29 -129z" />
<glyph unicode="&#x178;" horiz-adv-x="1434" d="M39 1379v88h493v-88q0 -32 -31 -38q-113 -23 -116 -23l274 -467q32 -55 60 -130q25 72 58 130l275 467q-5 1 -117 23q-31 6 -31 38v88h494v-88q0 -32 -26 -37q-26 -4 -108 -24l-448 -734v-434q15 -3 117 -24q31 -6 31 -38v-88h-148h-198h-147v88q0 32 31 38l116 24v434 l-446 734q-85 20 -104 24q-29 6 -29 37zM388 1706q0 24 9 45q8 19 25 36q15 15 35 24q22 10 42 10q21 0 44 -10t37 -24q15 -15 24 -36t9 -45t-9 -43q-9 -20 -24 -35q-14 -14 -37 -24q-21 -9 -44 -9t-42 9q-20 9 -35 24q-16 16 -25 35t-9 43zM824 1706q0 24 9 45t24 36t36 24 q23 10 44 10q20 0 43 -10q21 -9 36 -24t24 -36q10 -23 10 -45q0 -21 -10 -43q-9 -20 -24 -35t-36 -24t-43 -9q-23 0 -44 9t-36 24t-24 35q-9 19 -9 43z" />
<glyph unicode="&#x2c6;" horiz-adv-x="770" d="M72 1197l228 270h170l228 -270h-121q-23 0 -41 14l-132 129l-17 18l-16 -18l-132 -129q-6 -5 -18 -9q-13 -5 -23 -5h-126z" />
<glyph unicode="&#x2dc;" horiz-adv-x="768" d="M87 1231q0 50 13 89q14 41 38 70q24 28 59 45q33 16 73 16q35 0 67 -15q39 -18 59 -32q11 -7 29.5 -18.5t22.5 -13.5q24 -15 48 -15q36 0 56 21q19 21 21 67h111q0 -50 -13 -89q-14 -41 -37 -69q-23 -27 -57 -44q-32 -16 -74 -16q-35 0 -67 15q-39 18 -59 32 q-11 7 -29.5 18.5t-22.5 13.5q-24 15 -49 15q-74 0 -75 -90h-114z" />
<glyph unicode="&#x2000;" horiz-adv-x="940" />
<glyph unicode="&#x2001;" horiz-adv-x="1881" />
<glyph unicode="&#x2002;" horiz-adv-x="940" />
<glyph unicode="&#x2003;" horiz-adv-x="1881" />
<glyph unicode="&#x2004;" horiz-adv-x="627" />
<glyph unicode="&#x2005;" horiz-adv-x="470" />
<glyph unicode="&#x2006;" horiz-adv-x="313" />
<glyph unicode="&#x2007;" horiz-adv-x="313" />
<glyph unicode="&#x2008;" horiz-adv-x="235" />
<glyph unicode="&#x2009;" horiz-adv-x="376" />
<glyph unicode="&#x200a;" horiz-adv-x="104" />
<glyph unicode="&#x2010;" horiz-adv-x="699" d="M97 537v154h506v-154h-506z" />
<glyph unicode="&#x2011;" horiz-adv-x="699" d="M97 537v154h506v-154h-506z" />
<glyph unicode="&#x2012;" horiz-adv-x="699" d="M97 537v154h506v-154h-506z" />
<glyph unicode="&#x2013;" horiz-adv-x="1012" d="M97 538v133h819v-133h-819z" />
<glyph unicode="&#x2014;" horiz-adv-x="1555" d="M97 538v133h1362v-133h-1362z" />
<glyph unicode="&#x2018;" horiz-adv-x="390" d="M82 1234q0 93 45 177t128 155l56 -35q8 -5 11 -11t3 -13q0 -13 -11 -24q-15 -20 -31 -43q-18 -28 -28 -48q-10 -22 -19 -53q-8 -29 -8 -58q0 -30 10 -68q9 -34 33 -73q8 -13 8 -24q0 -24 -28 -35l-112 -45q-29 48 -43 99t-14 99z" />
<glyph unicode="&#x2019;" horiz-adv-x="389" d="M70 1073q0 15 10 25q19 22 32 42q15 22 27 48q13 27 20 53q7 25 7 58q0 30 -10 68q-9 35 -33 74q-7 11 -7 22q0 24 27 36l112 45q30 -49 43 -98q13 -48 13 -98q0 -94 -45 -178q-45 -83 -127 -155l-56 35q-8 5 -11 11q-2 4 -2 12z" />
<glyph unicode="&#x201a;" horiz-adv-x="404" d="M79 -224q0 14 10 24q16 19 32 43q15 23 27 48q13 27 20 53q7 25 7 58q0 30 -10 68q-9 34 -33 73q-7 11 -7 23q0 24 28 36l111 45q29 -48 43 -99t14 -98q0 -91 -46 -177q-46 -85 -127 -156l-56 35q-8 5 -11 11q-2 4 -2 13z" />
<glyph unicode="&#x201c;" horiz-adv-x="701" d="M82 1234q0 93 45 177t128 155l56 -35q8 -5 11 -11t3 -13q0 -13 -11 -24q-15 -20 -31 -43q-18 -28 -28 -48q-10 -22 -19 -53q-8 -29 -8 -58q0 -30 10 -68q9 -34 33 -73q8 -13 8 -24q0 -24 -28 -35l-112 -45q-29 48 -43 99t-14 99zM393 1234q0 91 46 177t127 155l57 -35 q6 -4 10 -11q3 -6 3 -13q0 -14 -10 -24q-22 -28 -32 -43q-18 -28 -28 -48q-10 -22 -19 -53q-7 -25 -7 -58t9 -68q8 -31 34 -73q7 -11 7 -24q0 -24 -28 -35l-111 -45q-31 51 -44 99q-14 51 -14 99z" />
<glyph unicode="&#x201d;" horiz-adv-x="700" d="M70 1073q0 15 10 25q19 22 32 42q15 22 27 48q13 27 20 53q7 25 7 58q0 30 -10 68q-9 35 -33 74q-7 11 -7 22q0 24 27 36l112 45q30 -49 43 -98q13 -48 13 -98q0 -94 -45 -178q-45 -83 -127 -155l-56 35q-8 5 -11 11q-2 4 -2 12zM381 1073q0 15 10 25q19 22 32 42 q18 28 28 48q10 22 19 53q7 25 7 58q0 30 -10 68q-9 35 -33 74q-7 11 -7 22q0 24 28 36l111 45q30 -49 43 -98q14 -51 14 -98q0 -92 -46 -178q-46 -85 -126 -155l-57 35q-8 5 -11 11q-2 4 -2 12z" />
<glyph unicode="&#x201e;" horiz-adv-x="715" d="M79 -224q0 14 10 24q16 19 32 43q15 23 27 48q13 27 20 53q7 25 7 58q0 30 -10 68q-9 34 -33 73q-7 11 -7 23q0 24 28 36l111 45q29 -48 43 -99t14 -98q0 -91 -46 -177q-46 -85 -127 -156l-56 35q-8 5 -11 11q-2 4 -2 13zM390 -224q0 14 10 24q16 19 32 43q18 28 28 48 q10 22 19 53q7 25 7 58q0 34 -9 68q-8 31 -34 73q-7 11 -7 23q0 24 28 36l111 45q29 -48 43 -99t14 -98q0 -91 -46 -177q-47 -87 -126 -156l-57 35q-6 4 -10 11q-3 6 -3 13z" />
<glyph unicode="&#x2022;" horiz-adv-x="914" d="M78 609q0 80 30 149q31 71 81 121q52 52 121 82t147 30q79 0 148 -30q71 -31 122 -82q50 -50 81 -121t31 -149q0 -77 -31 -148q-30 -69 -81 -120q-49 -49 -122 -81q-71 -31 -148 -31q-76 0 -147 31t-121 81q-51 51 -81 120t-30 148z" />
<glyph unicode="&#x2026;" horiz-adv-x="1485" d="M91 113q0 23 10 50q8 21 26 41q14 15 41 27q25 11 50 11t50 -11t41 -27q19 -19 27 -41q10 -27 10 -50q0 -26 -10 -51q-9 -22 -27 -40q-20 -20 -41 -28q-24 -9 -50 -9t-50 9q-23 9 -41 28t-26 40q-10 25 -10 51zM617 113q0 23 10 50q7 20 27 41q15 16 40 27t50 11 q26 0 51 -11t41 -27q19 -19 27 -41q9 -24 9 -50q0 -29 -9 -51t-27 -40q-20 -20 -41 -28q-24 -9 -51 -9q-26 0 -50 9q-22 8 -40 28q-20 21 -27 40q-10 25 -10 51zM1145 113q0 23 10 50q8 21 26 41q14 15 41 27q25 11 50 11t50 -11t41 -27q19 -19 27 -41q10 -23 10 -50 q0 -26 -10 -51q-9 -22 -27 -40q-20 -20 -41 -28q-24 -9 -50 -9t-50 9q-23 9 -41 28t-26 40q-10 25 -10 51z" />
<glyph unicode="&#x202f;" horiz-adv-x="376" />
<glyph unicode="&#x2039;" horiz-adv-x="483" d="M67 530v24l255 398l59 -28q13 -7 21 -19q8 -13 8 -24q0 -17 -11 -34l-162 -267q-17 -27 -29 -38q17 -17 29 -37l162 -267q5 -8 8 -18q3 -9 3 -17q0 -28 -29 -42l-59 -29z" />
<glyph unicode="&#x203a;" horiz-adv-x="487" d="M79 203q0 18 10 35l163 267q15 27 28 37q-16 16 -28 38l-163 267q-10 17 -10 35q0 28 29 42l59 28l255 -398v-24l-255 -398l-59 29q-29 14 -29 42z" />
<glyph unicode="&#x205f;" horiz-adv-x="470" />
<glyph unicode="&#x20ac;" horiz-adv-x="1235" d="M60 566v105h138q-1 10 -1 30v32v42q0 13 2 41h-139v105h151q21 130 69 233q47 102 121 177q72 73 166 112q95 39 205 39q138 0 235 -51q95 -50 169 -142l-63 -69q-8 -10 -16 -16q-9 -7 -23 -7q-16 0 -36 20q-17 17 -51 43q-30 23 -81 43q-48 19 -127 19q-149 0 -248 -102 t-132 -299h560v-57q0 -19 -13 -33q-14 -15 -39 -15h-520q-1 -14 -1 -41q0 -7 -0.5 -21t-0.5 -21v-32q0 -20 1 -30h478v-58q0 -18 -14 -32q-15 -15 -39 -15h-416q29 -212 127 -316q100 -106 248 -106q53 0 97 11t73 27q31 17 53 36q23 20 38 35q20 20 29 27q14 11 25 11 q7 0 15 -4q6 -3 14 -11l77 -71q-72 -105 -178 -163q-104 -57 -253 -57q-121 0 -214 40q-96 41 -165 116t-114 183q-44 106 -61 242h-146z" />
<glyph unicode="&#x2122;" horiz-adv-x="1451" d="M67 1360v107h497v-107h-184v-499h-129v499h-184zM663 861v606h108q18 0 25 -4q6 -4 18 -17l173 -310q4 -10 12 -28q6 -13 10 -27q1 4 2.5 8.5t3.5 10t3 8.5q4 12 12 28l173 310q7 10 18 17q7 4 24 4h109v-606h-113v374l9 77l-187 -344q-14 -29 -45 -29h-19q-32 0 -44 29 l-188 341l8 -74v-374h-112z" />
<glyph unicode="&#xe000;" horiz-adv-x="1038" d="M0 0v1039h1039v-1039h-1039z" />
</font>
</defs>
</svg>
