<?xml version="1.0" standalone="no"?>
<!DOCTYPE svg PUBLIC "-//W3C//DTD SVG 1.1//EN" "http://www.w3.org/Graphics/SVG/1.1/DTD/svg11.dtd" >
<svg xmlns="http://www.w3.org/2000/svg" xmlns:xlink="http://www.w3.org/1999/xlink" version="1.1">
<metadata></metadata>
<defs>
<font id="surannaregular" horiz-adv-x="551" >
<font-face units-per-em="2048" ascent="1638" descent="-410" />
<missing-glyph horiz-adv-x="383" />
<glyph horiz-adv-x="0" />
<glyph unicode="&#xd;" horiz-adv-x="682" />
<glyph unicode=" "  horiz-adv-x="383" />
<glyph unicode="&#x09;" horiz-adv-x="383" />
<glyph unicode="&#xa0;" horiz-adv-x="383" />
<glyph unicode="!" horiz-adv-x="412" d="M113 81.5q0 39.5 26 65.5t67 26t68.5 -26t27.5 -65.5t-27.5 -68.5t-68.5 -29t-67 29t-26 68.5zM118 1198.5q0 53.5 23.5 82.5t64.5 29t66 -29t25 -84t-33 -376.5t-38 -552.5h-40q-3 231 -35.5 554t-32.5 376.5z" />
<glyph unicode="&#x22;" horiz-adv-x="438" d="M71 1244.5q0 26.5 15.5 46t44.5 19.5t45 -19.5t16 -46t-20 -124.5t-28 -206h-26q-8 108 -27.5 206t-19.5 124.5zM250 1244.5q0 26.5 15.5 46t44.5 19.5t45 -19.5t16 -46t-20 -124.5t-28 -206h-26q-8 108 -27.5 206t-19.5 124.5z" />
<glyph unicode="#" horiz-adv-x="937" d="M58 341v71h181l39 208h-165v73h178l90 465h71l-87 -465h249l90 465h71l-87 -465h186v-73h-199l-37 -208h184v-71h-200l-63 -341h-73l63 341h-250l-65 -341h-71l60 341h-165zM312 412h250l39 208h-249z" />
<glyph unicode="$" horiz-adv-x="1060" d="M105 -16v415h37l139 -299q110 -76 244 -95v575l-131 34q-142 37 -213 123.5t-71 207.5q0 173 100 278.5t278 105.5q24 0 37 -3v121h26v-124q8 0 32 -5v129h24v-129q79 -13 147 -42l118 53h34v-334h-34l-118 236q-68 34 -147 48v-523l97 -23q142 -37 210 -121t68 -257.5 t-101 -276t-274 -110.5v-139h-24v137h-8l-24 2v-139h-26v142q-129 11 -247 84l-136 -71h-37zM186 1029q0 -165 229 -223l110 -29v512q-11 3 -37 0q-139 0 -220.5 -71t-81.5 -189zM551 5q11 -3 32 0v560l-32 7v-567zM551 769l32 -8v523l-32 5v-520zM607 5q139 5 223 79 t84 190.5t-59 177t-193 94.5l-55 13v-554z" />
<glyph unicode="%" horiz-adv-x="1331" d="M58 953q0 171 69.5 260t184.5 89q118 0 188 -90.5t70 -258.5q0 -173 -70 -263.5t-188 -90.5q-116 0 -185 90.5t-69 263.5zM184 869q0 -234 128 -234q132 0 132 234v163q0 236 -132 236q-129 0 -128 -236v-163zM302 0l648 1294h82l-646 -1294h-84zM764 344 q0 173 69.5 262.5t187.5 89.5q116 0 185.5 -89.5t69.5 -262.5q0 -171 -69.5 -261.5t-185.5 -90.5q-118 0 -187.5 90.5t-69.5 261.5zM890 263q0 -236 131 -237q129 1 129 237v165q0 234 -129 234q-131 0 -131 -234v-165z" />
<glyph unicode="&#x26;" horiz-adv-x="1320" d="M84 349.5q0 173.5 123.5 266.5t322.5 101v8q-200 24 -296.5 94.5t-96.5 216.5t110 219.5t304 73.5q131 0 219.5 -64.5t88.5 -169.5q0 -53 -30.5 -83t-70 -30t-65.5 25t-26 70q68 32 66 105q0 47 -43.5 77t-137 30t-159 -64t-65.5 -172q0 -158 90.5 -231.5t269.5 -83.5 v-34q-383 -26 -383 -352q0 -160 87.5 -253.5t220.5 -93.5t215.5 80t82.5 230q0 60 -18 129q-21 5 -61 8q-70 15 -115 15q-163 0 -163 -86q0 -47 51 -47.5t72 44.5q79 -18 79 -89q0 -39 -27.5 -68t-78.5 -29t-92 53.5t-41 140.5t69.5 154t188.5 67q76 0 171.5 -14.5 t158.5 -14.5t109 23.5t46 65.5q0 47 -51 47t-72 -47q-79 18 -79 89q0 39 27.5 68t80 29t90.5 -47t38 -121q0 -255 -241 -254q-71 0 -116 7q13 -66 13 -118q0 -168 -94.5 -261t-254.5 -93q-260 0 -388.5 105t-128.5 278.5z" />
<glyph unicode="'" horiz-adv-x="259" d="M71 1244.5q0 26.5 15.5 46t44.5 19.5t45 -19.5t16 -46t-20 -124.5t-28 -206h-26q-8 108 -27.5 206t-19.5 124.5z" />
<glyph unicode="(" horiz-adv-x="554" d="M60 577.5q0 346.5 133 584t364 306.5l10 -37q-315 -113 -315 -853q0 -386 102.5 -593.5t212.5 -260.5l-10 -39q-231 66 -364 306t-133 586.5z" />
<glyph unicode=")" horiz-adv-x="554" d="M-10 -276l10 -39q231 66 364 306t133 586.5t-133 584t-364 306.5l-10 -37q315 -113 315 -853q0 -386 -102.5 -593.5t-212.5 -260.5z" />
<glyph unicode="*" horiz-adv-x="727" d="M90.5 1040q1.5 21 13.5 34t27.5 13t28.5 -8t97 -75t97 -75l-34 247q0 18 12 31.5t31.5 13.5t33 -13t13.5 -30t-17.5 -125t-17.5 -124q16 8 99 75t98.5 77.5t30 10.5t25 -18t10.5 -36.5t-24 -31.5q-16 -11 -115.5 -46.5t-112.5 -45.5q13 -11 113 -50.5t119.5 -50 t19.5 -27.5t-9 -34t-26 -17t-31.5 8t-97.5 75t-99 75l35 -244q0 -18 -12 -31.5t-33 -13.5q-45 3 -45 45q0 16 17 120.5t17 123.5q-13 -8 -97 -75t-95.5 -75t-28.5 -8t-29 13t-12 35.5t19.5 31.5t118 48.5t111.5 50.5q-13 11 -112.5 46t-115.5 46q-24 13 -22.5 34z" />
<glyph unicode="+" horiz-adv-x="848" d="M55 549v58h339v341h60v-341h342v-58h-342v-344h-60v344h-339z" />
<glyph unicode="," horiz-adv-x="364" d="M76 81q0 42 29 67t77.5 25t82.5 -39t34 -110q0 -187 -202 -287l-18 27q50 29 89 82.5t39 106.5q0 32 -36.5 31.5t-65.5 28.5t-29 68z" />
<glyph unicode="-" d="M100 415v55h354v-55h-354z" />
<glyph unicode="." horiz-adv-x="343" d="M77.5 79q-1.5 42 29 68t66.5 26q39 0 68 -26t29 -66q0 -42 -27.5 -69.5t-68 -27t-69.5 26.5q-26 26 -27.5 68z" />
<glyph unicode="/" horiz-adv-x="703" d="M53 0l504 1132h81l-501 -1132h-84z" />
<glyph unicode="0" horiz-adv-x="1115" d="M92 646q0 328 124.5 504t341.5 177.5t343 -176t126 -507t-126 -504t-343 -174.5t-341.5 177t-124.5 503zM299 491q0 -249 69.5 -367.5t190.5 -118.5q118 0 189 117t71 369v315q0 247 -69.5 365t-190.5 118t-190.5 -118t-69.5 -365v-315z" />
<glyph unicode="1" horiz-adv-x="548" d="M84 0v34l113 13v1200l-113 13v34h276v-1247l113 -13v-34h-389z" />
<glyph unicode="2" horiz-adv-x="981" d="M58 0v123l341 350q278 278 277 547t-227 269q-79 0 -139.5 -43t-60.5 -122t84 -121q0 -58 -35 -88t-85 -30t-87 38t-37 104q0 131 115.5 216.5t293 85.5t272 -94.5t94.5 -252.5t-126 -291q-60 -66 -189 -182l-389 -338h604l66 239h42v-410h-814z" />
<glyph unicode="3" horiz-adv-x="992" d="M63 263q0 66 38 102.5t88 36.5t85.5 -30.5t35.5 -90.5q-84 -39 -85.5 -116.5t55 -118.5t161.5 -41t177.5 88t72.5 243q-1 342 -384 368v34q171 11 265.5 93.5t94.5 206t-59 187.5t-153.5 64t-144.5 -30t-50 -83q0 -84 81 -123q0 -55 -34 -85.5t-81 -30.5t-84 38t-37 99 q0 108 107.5 181.5t273 73.5t269.5 -75t104 -212q0 -268 -394 -317v-8q202 -11 325.5 -108t123.5 -262.5t-125 -273t-358 -107.5q-152 0 -260 85.5t-108 211.5z" />
<glyph unicode="4" horiz-adv-x="939" d="M0 310v34l685 950h40v-908h147v-76h-147v-252l147 -24v-34h-476v34l150 24v252h-546zM79 386h467v646z" />
<glyph unicode="5" horiz-adv-x="974" d="M42 263q0 66 35.5 102.5t86.5 36.5t86.5 -30.5t35.5 -90.5q-84 -39 -84 -116.5t55 -118.5t147 -41q121 0 192 104t71 281t-84 274t-221 97q-73 -2 -160 -28l-29 21l74 540h428q97 0 141.5 16t60.5 71l37 -3q-11 -158 -78 -215.5t-185 -57.5h-388l-40 -320q79 21 168 21 q218 0 358.5 -123.5t140.5 -307.5q0 -152 -115 -275q-123 -134 -384 -134q-139 0 -244 85.5t-105 211.5z" />
<glyph unicode="6" horiz-adv-x="1039" d="M92 668q0 322 127.5 491.5t350.5 169.5q152 0 253 -63t101 -158q0 -55 -35.5 -93t-84 -38t-77.5 25t-29 67q47 34 47.5 89t-49.5 95.5t-126 40.5q-276 1 -279 -430v-179q100 121 272 121t286.5 -109t114.5 -304.5t-127.5 -311t-308.5 -115.5q-247 0 -344 199 q-92 181 -92 503zM291 370q0 -368 237 -365q116 0 177.5 81.5t61.5 225.5v161q0 294 -223 294q-79 0 -147.5 -43.5t-105.5 -116.5v-237z" />
<glyph unicode="7" horiz-adv-x="800" d="M63 935v359h712q-18 -165 -68.5 -349t-102.5 -317q-137 -355 -158 -628h-223q26 234 150 462q58 102 107 197q144 255 213 467h-541l-47 -191h-42z" />
<glyph unicode="8" horiz-adv-x="1037" d="M84 305q0 202 186 328q45 32 111 63l-74 50q-173 123 -173 267.5t115.5 230t269 85.5t262.5 -73.5t109 -189.5t-61.5 -190.5t-172.5 -135.5q121 -76 172.5 -119t93.5 -116.5t42 -157.5q0 -176 -131.5 -278.5t-324.5 -102.5t-308.5 89.5t-115.5 249.5zM247 286 q0 -113 67 -197t199.5 -84t214 72.5t81.5 164t-46 164t-156 148.5l-176 113q-184 -142 -184 -381zM276 1110.5q0 -73.5 40.5 -127.5t121.5 -106l171 -110q134 95 134 283q0 105 -64.5 172t-164 67t-169 -52.5t-69.5 -126z" />
<glyph unicode="9" horiz-adv-x="1039" d="M79 902q0 196 126 311.5t310 115.5q244 0 344 -200q92 -181 91.5 -502.5t-127.5 -491t-350 -169.5q-152 0 -252 63t-100 157q0 55 34 93.5t81.5 38.5t76 -25t28.5 -67q-45 -34 -43.5 -89.5t50.5 -96t125 -40.5q276 0 275 431v178q-97 -121 -270 -121t-286 109t-113 305z M273 822q0 -294 226 -294q76 0 145.5 43t106.5 117l3 226v10q0 368 -239 365q-116 0 -179 -81.5t-63 -225.5v-160z" />
<glyph unicode=":" horiz-adv-x="391" d="M101.5 79q-1.5 42 28.5 68t67 26t65.5 -26t28.5 -66q0 -42 -26 -69.5t-68 -27t-68 26.5t-27.5 68zM101.5 647.5q-1.5 40.5 28.5 68t67 27.5t65.5 -27.5t28.5 -66.5q0 -42 -26 -70t-68 -27.5t-68 26.5q-26 29 -27.5 69.5z" />
<glyph unicode=";" horiz-adv-x="433" d="M110 81.5q0 39.5 27.5 65.5t76.5 26t83 -40.5t34 -108.5q0 -187 -202 -287l-16 27q47 29 86.5 81.5t39.5 107.5q0 32 -37 31.5t-64.5 28.5t-27.5 68.5zM110.5 647.5q-0.5 40.5 30 68t66.5 27.5q37 0 66 -27.5t29 -66.5q0 -42 -27.5 -70t-69.5 -27.5t-68 26.5 q-26 29 -26.5 69.5z" />
<glyph unicode="&#x3c;" horiz-adv-x="785" d="M50 562v31l630 342v-63l-543 -294l543 -292v-63z" />
<glyph unicode="=" horiz-adv-x="974" d="M116 412v63h743v-63h-743zM116 680v63h743v-63h-743z" />
<glyph unicode="&#x3e;" horiz-adv-x="785" d="M105 223v63l544 292l-544 294v63l630 -342v-31z" />
<glyph unicode="?" horiz-adv-x="842" d="M55 1037q0 126 111.5 209t276 83t252 -73.5t87.5 -247.5q0 -139 -102 -252q-42 -50 -92 -106.5t-92 -105.5q-102 -121 -102 -276h-34q0 173 78 328q34 63 66 126q79 152 82 273q0 165 -49 229.5t-129 64.5t-140.5 -40.5t-60.5 -116.5t82 -113q0 -55 -33 -86.5 t-81.5 -31.5t-84 36.5t-35.5 99.5zM281 81.5q0 39.5 27.5 65.5t68 26t68.5 -26t28 -65.5t-28 -68.5t-68.5 -29t-68 29t-27.5 68.5z" />
<glyph unicode="@" horiz-adv-x="1423" d="M84 647q0 282 191.5 472.5t474 190.5t450.5 -153.5t168 -405.5q0 -194 -106.5 -323t-256 -129t-196.5 92q-89 -89 -215.5 -90.5t-194.5 78.5t-68 204q0 194 128.5 325.5t286.5 131.5q68 0 120.5 -30.5t78.5 -77.5l26 81h132l-153 -540q-11 -34 -10 -61q0 -63 89 -63 q118 0 203.5 121t85.5 281q0 236 -155 376.5t-415 140.5t-439.5 -180t-179.5 -441t179.5 -437t437.5 -176q121 0 208.5 23.5t182.5 76.5l24 -42q-102 -58 -195.5 -83t-219.5 -25q-281 0 -471.5 190.5t-190.5 472.5zM486 528q0 -79 34 -125t102 -46q108 0 179 97l126 423 q-53 113 -167 113t-194 -146t-80 -316z" />
<glyph unicode="A" horiz-adv-x="1163" d="M-45 0v34l158 66l470 1229h24l443 -1271l150 -24v-34h-475v34l131 21l-139 383h-428l-131 -338l144 -66v-34h-347zM302 473h404l-194 569z" />
<glyph unicode="B" horiz-adv-x="1194" d="M63 0v34l147 24v1179l-147 23v34h494q257 0 366 -72t109 -230q0 -234 -297 -296v-11q378 -50 378 -336q0 -179 -130 -264t-350 -85h-570zM389 39h244q137 0 214 80.5t77 229.5v16q0 147 -76 219t-215 72h-244v-617zM389 698h178q129 0 198.5 73.5t69.5 207.5v11v6 q0 256 -278 256h-168v-554z" />
<glyph unicode="C" horiz-adv-x="1194" d="M84 644.5q0 303.5 164 494t429 190.5q147 0 273 -95l108 95h34v-405h-34l-100 252q-123 113 -287 113t-270.5 -134t-106.5 -359v-297q0 -228 101 -361t275 -133q84 0 165 35.5t139 98.5l92 260h34v-415h-34l-116 82q-123 -100 -267 -100q-278 0 -438.5 187.5t-160.5 491z " />
<glyph unicode="D" horiz-adv-x="1373" d="M63 0v34l147 24v1179l-147 23v34h617q270 0 441 -180q170 -178 170 -463q-1 -3 -1 -5q-2 -289 -169.5 -467.5t-440.5 -178.5h-617zM389 39h291q181 0 292.5 126t111.5 358v249q0 231 -111.5 355.5t-292.5 124.5h-291v-1213z" />
<glyph unicode="E" horiz-adv-x="1155" d="M63 0v34l147 24v1179l-147 23v34h972v-370h-43l-126 328h-477v-580h210l97 234h39v-512h-39l-97 239h-210v-594h506l134 355h42v-394h-1008z" />
<glyph unicode="F" horiz-adv-x="1079" d="M63 0v34l147 24v1179l-147 23v34h972v-393h-43l-126 351h-477v-606h273l94 236h45v-512h-45l-94 237h-273v-549l149 -24v-34h-475z" />
<glyph unicode="G" horiz-adv-x="1312" d="M84 645.5q0 304.5 166.5 494t434.5 189.5q168 0 281 -87l100 87h34v-405h-34l-105 268q-116 97 -282.5 97t-277 -131t-110.5 -362v-297q0 -231 104 -362.5t275 -131.5q139 0 216.5 93.5t77.5 253.5v184l-150 23v34h483v-34l-152 -23v-184q0 -160 -118.5 -273t-371.5 -113 t-412 187.5t-159 492z" />
<glyph unicode="H" horiz-adv-x="1388" d="M63 0v34l147 24v1179l-147 23v34h475v-34l-149 -23v-531h614v531l-150 23v34h476v-34l-147 -23v-1179l147 -24v-34h-476v34l150 24v609h-614v-609l149 -24v-34h-475z" />
<glyph unicode="I" horiz-adv-x="596" d="M63 0v34l147 24v1179l-147 23v34h475v-34l-149 -23v-1179l149 -24v-34h-475z" />
<glyph unicode="J" horiz-adv-x="719" d="M11 119.5q0 66.5 30 99.5t73.5 33t69.5 -25t34 -46l5 -23q-50 -34 -50 -72.5t20 -59.5t54 -21q53 0 79 69.5t34 245.5v917l-150 23v34h470v-34l-150 -23v-917q0 -165 -50 -252q-60 -102 -246 -102q-95 0 -159 43.5t-64 110z" />
<glyph unicode="K" horiz-adv-x="1189" d="M63 0v34l147 24v1179l-147 23v34h475v-34l-149 -23v-583l525 535l-176 71v34h373v-34l-132 -71l-367 -367l517 -764l110 -24v-34h-478v34l147 21l-422 641l-97 -97v-541l149 -24v-34h-475z" />
<glyph unicode="L" horiz-adv-x="1084" d="M63 0v34l147 24v1179l-147 23v34h475v-34l-149 -23v-1198h483l131 355h45v-394h-985z" />
<glyph unicode="M" horiz-adv-x="1627" d="M63 0v34l150 66v1137l-150 23v34h360l404 -1039l415 1039h328v-34l-150 -23v-1179l150 -24v-34h-478v34l150 24v1131l-478 -1205h-29l-483 1253v-1137l158 -66v-34h-347z" />
<glyph unicode="N" horiz-adv-x="1307" d="M66 0v34l152 66v1095l-152 65v34h302l695 -976v877l-149 65v34h346v-34l-155 -65v-1195h-42l-806 1134v-1034l155 -66v-34h-346z" />
<glyph unicode="O" horiz-adv-x="1381" d="M84 649.5q0 300.5 172 488.5t437 191q265 0 437 -190.5t172 -490t-170 -490.5q-168 -192 -437.5 -192t-440 191.5t-170.5 492zM281 523q0 -239 115.5 -378.5t296.5 -139.5t294 139.5t113 378.5v249q0 234 -113 375.5t-294 141.5t-296.5 -141.5t-115.5 -375.5v-249z" />
<glyph unicode="P" horiz-adv-x="1092" d="M63 0v34l147 24v1179l-147 23v34h507q473 0 472 -396q1 -397 -472 -397h-181v-443l149 -24v-34h-475zM389 541h160q297 0 296 323v65q1 323 -296 323h-160v-711z" />
<glyph unicode="Q" horiz-adv-x="1381" d="M84 663q0 285 171 477q173 186 438 189q265 0 437 -190.5t172 -474t-140.5 -468.5t-365.5 -220v-110q-1 -202 196 -202v-37h-55q-341 0 -341 278v71q-234 32 -373 217t-139 470zM286 523q0 -242 113 -380t293 -138t294 138t114 380v249q0 242 -114 379.5t-294 137.5 t-293 -138t-113 -379v-249z" />
<glyph unicode="R" horiz-adv-x="1173" d="M63 0v34l147 24v1179l-147 23v34h452q263 0 380.5 -82.5t117.5 -250.5q0 -278 -336 -323v-10q255 -34 297 -276l18 -139q13 -81 30.5 -119.5t61 -38.5t98.5 58l26 -29q-87 -100 -192 -100t-151 43.5t-59 148.5l-31 218q-34 234 -260 234h-126v-570l149 -24v-34h-475z M389 667h181q118 0 183.5 72t65.5 214v32q1 267 -304 267h-126v-585z" />
<glyph unicode="S" horiz-adv-x="1050" d="M105 -16v415h34l139 -299q134 -95 291.5 -95t251 73.5t93.5 212.5q0 100 -59 156.5t-196 90.5l-268 69q-139 37 -211 127t-72 211q0 173 101 278.5t263.5 105.5t278.5 -53l118 53h34v-334h-34l-115 236q-121 58 -263 58t-223.5 -71t-81.5 -173t58 -152t168 -79l292 -79 q142 -34 210 -120.5t68 -264t-111.5 -281t-281 -103.5t-313.5 89l-137 -71h-34z" />
<glyph unicode="T" horiz-adv-x="1126" d="M39 935v359h1053v-359h-50l-118 317h-270v-1194l149 -24v-34h-475v34l147 24v1194h-265l-126 -317h-45z" />
<glyph unicode="U" horiz-adv-x="1302" d="M42 1260v34h478v-34l-150 -23v-883q0 -328 357 -330q344 0 344 330v841l-149 65v34h344v-34l-155 -65v-841q0 -194 -109 -291t-350.5 -97t-350.5 107.5t-109 280.5v883z" />
<glyph unicode="V" horiz-adv-x="1118" d="M-45 1260v34h476v-34l-155 -21l357 -969l349 917l-186 73v34h346v-34l-115 -71l-465 -1223h-13l-465 1271z" />
<glyph unicode="W" horiz-adv-x="1748" d="M-34 1260v34h451v-34l-147 -23l347 -959l236 617l-120 342l-147 23v34h477v-34l-139 -21l352 -958l349 906l-184 73v34h350v-34l-126 -71l-462 -1223h-14l-315 874l-328 -874h-13l-457 1271z" />
<glyph unicode="X" horiz-adv-x="1228" d="M-13 1260v34h491v-34l-129 -21l315 -475l310 418l-189 78v34h386v-34l-155 -86l-331 -441l449 -678l139 -21v-34h-491v34l126 21l-351 531l-357 -476l191 -76v-34h-386v34l158 89l370 497l-410 617z" />
<glyph unicode="Y" horiz-adv-x="1092" d="M-50 1260v34h488v-34l-152 -23l342 -588l309 533l-191 78v34h362v-34l-126 -78l-336 -578v-546l150 -24v-34h-476v34l150 24v491l-394 688z" />
<glyph unicode="Z" horiz-adv-x="1100" d="M45 0v39l756 1213h-502l-165 -307h-42l37 349h890v-42l-756 -1213h564l165 331h43l-40 -370h-950z" />
<glyph unicode="[" horiz-adv-x="498" d="M139 -299v1751h347v-50h-184v-1654h184v-47h-347z" />
<glyph unicode="\" horiz-adv-x="703" d="M68 1132h84l502 -1132h-84z" />
<glyph unicode="]" horiz-adv-x="498" d="M18 -252v-47h347v1751h-347v-50h184v-1654h-184z" />
<glyph unicode="^" horiz-adv-x="926" d="M100 431l331 661h65l331 -661h-81l-284 559l-281 -559h-81z" />
<glyph unicode="_" horiz-adv-x="740" d="M0 -126h743v-58h-743v58z" />
<glyph unicode="`" horiz-adv-x="354" d="M-32.5 1167.5q-1.5 32.5 22 55t63 22.5t60.5 -45l118 -257l-24 -19l-212 187q-26 24 -27.5 56.5z" />
<glyph unicode="a" horiz-adv-x="900" d="M60 186.5q0 94.5 40 149.5q110 144 433 144h58v158q0 179 -163 179q-74 0 -119.5 -34.5t-45.5 -79t42 -57.5q0 -42 -30.5 -72t-72.5 -30q-39 0 -69.5 30t-30.5 75q0 84 94.5 144t231.5 60q328 0 326 -249v-496q0 -74 60 -74t60 71h34q0 -55 -36.5 -88t-107.5 -33 t-120.5 43.5t-52.5 132.5q-42 -84 -121 -130t-180 -46t-165.5 54t-64.5 148.5zM236 200q0 -66 35.5 -103t106.5 -37t136.5 58t76.5 158v165h-58q-126 0 -211.5 -60.5t-85.5 -180.5z" />
<glyph unicode="b" horiz-adv-x="1034" d="M34 0v34l110 13v1200l-110 13v34h273v-627q87 186 268 186t286 -120.5t105 -315t-105 -314t-286 -119.5t-268 184v-168h-273zM307 339q0 -129 73.5 -222t184.5 -93q225 0 225 315v160q0 315 -225 315q-108 0 -181.5 -88t-76.5 -217v-170z" />
<glyph unicode="c" horiz-adv-x="876" d="M66 421.5q0 198.5 124.5 315t281 116.5t252 -70.5t95.5 -175.5q0 -55 -27.5 -83t-72 -28t-73.5 29t-29 74q42 29 42 85t-47 94.5t-126 38.5q-116 0 -179 -83t-63 -235v-160q0 -144 60.5 -232.5t176 -88.5t197 63t99.5 166h37q-21 -121 -110.5 -192t-217.5 -71 q-179 0 -299.5 119.5t-120.5 318z" />
<glyph unicode="d" horiz-adv-x="1034" d="M68 420q0 197 106.5 315t286.5 118t266 -186v580l-113 13v34h276v-1247l113 -13v-34h-276v168q-87 -184 -266.5 -184t-286 119.5t-106.5 316.5zM247 339q0 -315 223 -315q108 0 181.5 89t75.5 213v183q-3 126 -76 215.5t-181 89.5q-223 0 -223 -315v-160z" />
<glyph unicode="e" horiz-adv-x="897" d="M184 731q118 122 287.5 122t268 -101t100.5 -253h-596v-160q0 -144 63 -231q68 -90 184 -90h2q115 0 198 66q84 63 105 163h39q-24 -121 -115.5 -192t-225.5 -71q-184 0 -308 121q-121 118 -121 309q0 194 119 317zM247 538h415q-1 279 -182 279q-108 0 -168 -75 t-65 -204z" />
<glyph unicode="f" d="M42 0v34l113 13v743l-113 16v32h113v136q0 336 278 336q95 0 158 -46t63 -124q0 -47 -27.5 -79t-69.5 -32t-73.5 31.5t-31.5 71.5q57 16 57 74q0 28 -22 49t-54 21q-63 0 -89 -59t-26 -193v-186h210v-32l-210 -16v-743l191 -13v-34h-467z" />
<glyph unicode="g" horiz-adv-x="869" d="M24 -247q0 60 42 105t115 45q13 0 61 -8q-50 -53 -50 -133t56.5 -141.5t198 -61.5t240 81.5t98.5 183.5q0 71 -36.5 101t-131.5 30h-315q-228 0 -228 161q0 74 39 119.5t108 61.5q-126 84 -126 239t93 236t231 81t227 -71q63 3 93 28t30 56.5t-15.5 47t-36.5 15.5 q0 42 29 70t71 28t70.5 -26.5t28.5 -84t-56.5 -106.5t-182.5 -56q78 -80 78 -211q0 -135 -95 -219q-93 -82 -237 -82h-6q-88 0 -154 31q-108 -8 -108 -84q0 -37 42 -56.5t105 -19.5h265q129 0 196 -51t67 -170q0 -155 -106.5 -260t-303.5 -105t-296.5 62t-99.5 164zM247 509 q0 -113 43 -176t132.5 -63t134 63t44.5 176v79q0 236 -177 236t-177 -236v-79z" />
<glyph unicode="h" horiz-adv-x="1013" d="M34 0v34l110 13v1200l-110 13v34h273v-630q131 189 315 189q116 0 184 -59t68 -172v-575l113 -13v-34h-373v34l98 13v570q0 179 -138 179t-267 -189v-560l97 -13v-34h-370z" />
<glyph unicode="i" horiz-adv-x="462" d="M45 0v34l113 13v741l-113 18v29h275v-788l111 -13v-34h-386zM105 1136q0 46 31.5 74.5t77.5 28.5t76 -28.5t30 -74.5t-30 -77.5t-74.5 -31.5t-77.5 31.5t-33 77.5z" />
<glyph unicode="j" horiz-adv-x="427" d="M-50 -144q0 50 27.5 80t69.5 30t68.5 -21t28.5 -45l8 -21q-52 -31 -52 -82q0 -67 63 -67h2q42 0 68.5 34t26.5 99.5t-58 165.5t-58 186v575l-120 16v32h281v-930v-5q0 -218 -163 -218q-84 0 -138 46t-54 125zM95 1136q0 46 31.5 74.5t77 28.5t76 -28.5t30.5 -74.5 t-30.5 -77.5t-75 -31.5t-77 31.5t-32.5 77.5z" />
<glyph unicode="k" horiz-adv-x="913" d="M34 0v34l110 13v1200l-110 13v34h273v-829l370 302l-139 39v32h305v-32l-105 -39l-268 -218l378 -502l87 -13v-34h-378v34l97 13l-305 402l-42 -34v-368l97 -13v-34h-370z" />
<glyph unicode="l" horiz-adv-x="454" d="M29 0v34l123 13v1200l-123 13v34h283v-1247l113 -13v-34h-396z" />
<glyph unicode="m" horiz-adv-x="1525" d="M42 0v34l113 13v743l-113 16v32h276v-150q123 165 289 165q207 0 241 -173q126 173 294 173q116 0 180 -57.5t64 -173.5v-575l113 -13v-34h-370v34l95 13v570q0 179 -129 179t-242 -163v-586l97 -13v-34h-359v34l97 13v570q0 179 -128.5 179t-241.5 -163v-586l97 -13v-34 h-373z" />
<glyph unicode="n" horiz-adv-x="1021" d="M42 0v34l113 13v743l-113 16v32h276v-174q131 189 315 189q116 0 184 -59t68 -172v-575l110 -13v-34h-370v34l97 13v570q0 179 -138 179t-266 -189v-560l97 -13v-34h-373z" />
<glyph unicode="o" horiz-adv-x="968" d="M184 731q118 122 300.5 122t300.5 -122t118 -311t-118 -312.5t-297 -123.5t-302 121q-121 121 -121 311q0 192 119 315zM244 339q0 -144 60.5 -232.5t181.5 -88.5t180 88.5t59 232.5v160q0 147 -59 232.5t-180 85.5t-181.5 -85.5t-60.5 -232.5v-160z" />
<glyph unicode="p" horiz-adv-x="1034" d="M34 -425l110 15v1200l-110 16v32h273v-171q84 186 266.5 186t287.5 -119.5t105 -316t-105 -315t-286 -118.5t-268 184v-578l152 -15v-34h-425v34zM307 336q0 -129 73.5 -220.5t184.5 -91.5q225 0 225 312v163q0 312 -225 315q-108 0 -181.5 -89.5t-76.5 -215.5v-173z" />
<glyph unicode="q" horiz-adv-x="1034" d="M68 417.5q0 196.5 106.5 316t287.5 119.5t265 -186v171h276v-32l-113 -16v-1200l113 -15v-34h-467v34l191 15v578q-87 -184 -266.5 -184t-286 118.5t-106.5 315zM247 336q0 -312 223 -312q108 0 181.5 89t75.5 210v186q-3 126 -76 215.5t-181 89.5q-223 -3 -223 -315 v-163z" />
<glyph unicode="r" horiz-adv-x="708" d="M42 0v34l113 13v743l-113 16v32h276v-124q102 139 231 139q60 0 107.5 -31.5t47.5 -82.5t-29 -78.5t-77.5 -27.5t-77.5 39q18 24 17 50t-19.5 44.5t-50.5 18.5q-63 0 -149 -131v-607l128 -13v-34h-404z" />
<glyph unicode="s" horiz-adv-x="761" d="M66 163q0 50 28.5 82.5t68.5 32.5q76 0 97 -68q-29 -32 -29 -66q0 -128 170 -128h3q89 0 155 44.5t66 107.5t-44.5 93t-147.5 65l-210 65q-144 42 -144 216q0 105 84 175.5t218 70.5t210 -46t76 -122q0 -39 -26.5 -68t-63 -29t-59 18.5t-22.5 49.5q32 24 34 63 q0 102 -147 103q-105 0 -166.5 -42t-61.5 -97t22.5 -79t85.5 -45l257 -79q89 -29 132.5 -86.5t43.5 -156t-75 -176t-227 -77.5q-328 0 -328 179z" />
<glyph unicode="t" horiz-adv-x="556" d="M26 806v32h118v136l161 39v-175h210v-32l-210 -16v-580q0 -171 120 -171h3q55 0 102 35l21 -27q-74 -63 -173 -63q-234 0 -234 223v583z" />
<glyph unicode="u" horiz-adv-x="1010" d="M24 806v32h278v-620q0 -176 136 -176q139 0 268 171v577l-115 16v32h275v-791l116 -13v-34h-276v155q-129 -171 -315 -171q-118 0 -185 58t-67 173v575z" />
<glyph unicode="v" horiz-adv-x="858" d="M-21 806v32h402v-32l-116 -21l244 -609l218 588l-141 42v29h288v-29l-99 -39l-300 -801h-44l-347 824z" />
<glyph unicode="w" horiz-adv-x="1328" d="M-21 806v32h362v-32l-76 -21l244 -609l145 394l-95 220l-84 16v32h381v-32l-118 -21l244 -609l221 585l-137 45v29h284v-29l-103 -39l-297 -801h-47l-226 549l-202 -549h-44l-347 824z" />
<glyph unicode="x" horiz-adv-x="963" d="M3 806v32h393v-32l-99 -18l220 -284l229 263l-129 39v29h297v-29l-116 -45l-257 -291l328 -423l102 -13v-34h-393v34l94 13l-241 313l-250 -289l129 -37v-34h-289v34l108 40l273 322l-302 394z" />
<glyph unicode="y" horiz-adv-x="866" d="M-21 806v29h402v-29l-113 -21l270 -578l195 557l-142 42v29h294v-29l-110 -42l-365 -1055q-32 -95 -80.5 -138.5t-135 -43.5t-138 42t-51.5 102.5t29 89.5t83 29t80 -53q-24 -32 -24 -67t21 -56t53 -21q76 0 118 116l97 280l-375 799z" />
<glyph unicode="z" horiz-adv-x="829" d="M60 0v39l502 759h-344l-97 -202h-50l18 242h662v-40l-502 -759h358l107 224h53l-19 -263h-688z" />
<glyph unicode="{" horiz-adv-x="504" d="M18 562v29q192 0 192 244q0 50 -17 194.5t-17 199.5q0 129 75 184t219 55v-32q-76 0 -106.5 -39t-30.5 -139l32 -399q0 -113 -61.5 -186.5t-174.5 -94.5q113 -24 174.5 -97.5t61.5 -186.5l-32 -396q0 -100 30.5 -139.5t106.5 -39.5v-31q-144 0 -219 55t-75 183 q0 53 17 197.5t17 194.5q0 247 -192 244z" />
<glyph unicode="|" horiz-adv-x="338" d="M144 -389v1618h56v-1618h-56z" />
<glyph unicode="}" horiz-adv-x="504" d="M37 -281v-31q144 0 219 55t75 183q0 53 -17 197.5t-17 194.5q0 247 192 244v29q-192 0 -192 244q0 50 17 194.5t17 199.5q0 129 -75 184t-219 55v-32q76 0 106.5 -39t30.5 -139l-32 -399q0 -113 61.5 -186.5t174.5 -94.5q-113 -24 -174.5 -97.5t-61.5 -186.5l32 -396 q0 -100 -30.5 -139.5t-106.5 -39.5z" />
<glyph unicode="~" horiz-adv-x="858" d="M76 341q5 24 26 66t41 68t54 48.5t73.5 22.5t75 -18.5t56.5 -36.5t50 -53q81 -92 136 -91q79 0 129 131l8 29l60 -19q-5 -18 -26 -62.5t-42 -71t-55 -48.5t-71 -22t-74 18t-55 36.5t-49.5 51.5t-47.5 48q-50 45 -92 45t-75 -39.5t-46 -78.5l-15 -39q-60 18 -61 15z" />
<glyph unicode="&#xa1;" horiz-adv-x="364" d="M92 756.5q0 -39.5 26 -65.5t67 -26t68.5 26t27.5 65.5t-27.5 68.5t-68.5 29t-67 -29t-26 -68.5zM97 -360.5q0 -53.5 23.5 -82.5t64.5 -29t66 29t25 84t-33 376.5t-38 552.5h-40q-3 -231 -35.5 -554t-32.5 -376.5z" />
<glyph unicode="&#xa2;" horiz-adv-x="882" d="M74 423q0 184 108.5 298t261.5 130v220h60v-218q137 -5 228.5 -74.5t91.5 -171.5q0 -55 -28.5 -83t-72 -28t-72.5 29t-29 74q45 29 45 84t-44.5 93t-118.5 41v-799q105 5 182.5 67t98.5 162h37q-26 -118 -110 -189t-208 -74v-215h-60v218q-163 16 -266.5 134t-103.5 302z M252 339q0 -129 48.5 -214.5t143.5 -100.5v790q-92 -18 -142 -98.5t-50 -216.5v-160z" />
<glyph unicode="&#xa3;" horiz-adv-x="1018" d="M102 459v61h239v13q0 66 -31 129h-208v63h174q-13 18 -50 69t-55 78q-50 81 -50 170q0 118 103.5 202.5t282 84.5t297 -85.5t118.5 -216.5q0 -66 -38.5 -104t-88 -38t-84 30t-34.5 88q84 42 84 121t-61.5 122t-154.5 43t-155 -59t-62 -168t55 -245q26 -66 37 -92h265v-63 h-249q8 -45 8 -81.5t-6 -60.5h247v-61h-260q-18 -63 -61.5 -123t-65.5 -82.5t-80 -72.5h557l99 260h45v-441h-814v123q5 5 51 51.5t62 61.5q97 121 115 223h-231z" />
<glyph unicode="&#xa4;" horiz-adv-x="871" d="M92 278l121 121q-60 79 -60.5 180t62.5 182l-120 119l42 44l123 -118q76 60 176 59t178 -62l124 124l47 -45l-126 -123q66 -76 66 -177.5t-66 -182.5l126 -118l-47 -45l-121 121q-79 -63 -180 -63t-180 63l-120 -123zM213 580q0 -92 65.5 -157.5t158.5 -65.5t160 65.5 t67 157.5t-67 159t-160 67t-158.5 -67t-65.5 -159z" />
<glyph unicode="&#xa5;" horiz-adv-x="1252" d="M47 1260v34h489v-34l-150 -23l339 -588l312 533l-194 78v34h362v-34l-123 -78l-328 -565h246v-60h-254v-113h254v-61h-254v-325l147 -24v-34h-473v34l150 24v325h-265v61h265v105l-5 8h-260v60h223l-352 620z" />
<glyph unicode="&#xa6;" horiz-adv-x="354" d="M144 260h66v-649h-66v649zM144 583v646h66v-646h-66z" />
<glyph unicode="&#xa7;" horiz-adv-x="842" d="M84 530q0 97 37 161.5t102 122.5q-113 89 -113 226q0 270 294 270q142 0 227.5 -51t85.5 -135q0 -47 -29 -79t-69.5 -32t-65.5 20t-25 59q39 24 39 71t-48.5 81.5t-131 34.5t-147 -42t-64.5 -118q0 -50 23.5 -89.5t46 -58t66.5 -47.5l276 -131q179 -87 179 -236 q0 -173 -142 -294q110 -89 110 -219.5t-78.5 -198.5t-222 -68t-231 51t-87.5 135q0 47 28.5 79t70.5 32t66 -21t24 -58q-39 -29 -38 -73.5t51 -77.5t132.5 -33t149.5 42t67 115q0 50 -25 91t-48.5 59.5t-70.5 44.5l-276 134q-163 84 -163 233zM147 602.5q0 -53.5 42 -95.5 t137 -92l260 -124q3 0 6.5 -2.5t6.5 -4.5q105 95 105 204q0 55 -46 94.5t-149 89.5l-257 124q-55 -50 -80 -95t-25 -98.5z" />
<glyph unicode="&#xa8;" horiz-adv-x="630" d="M71 1091q0 41 27.5 68.5t68 27.5t68.5 -27.5t28 -68.5t-28 -68.5t-68.5 -27.5t-69.5 26q-26 29 -26 70zM370 1091q0 41 27.5 68.5t68.5 27.5t68.5 -27.5t27.5 -68.5t-27.5 -68.5t-68.5 -27.5t-67 26q-29 29 -29 70z" />
<glyph unicode="&#xa9;" horiz-adv-x="1483" d="M79 647q0 138 52.5 257.5t143 210t211.5 143t257 52.5q137 0 257.5 -53.5t210 -144.5t143 -210.5t53.5 -255.5q0 -137 -53.5 -257.5t-143 -210t-210 -142t-257.5 -52.5t-257.5 52.5t-211 142t-143 210t-52.5 258.5zM142 644.5q0 -124.5 46 -233.5t127 -193 q176 -173 428 -173q249 0 425 176q173 176 174 425q0 123 -46 233.5t-127.5 190.5t-190.5 128.5t-235 48.5t-235 -48.5t-191.5 -128.5t-128.5 -190.5t-46 -235zM360 647q0 188 106 306t280 118q89 0 170 -58l71 58h32v-257h-32l-63 139q-74 71 -178 71q-228 0 -229 -284 v-189q0 -281 229 -281q50 0 103.5 25t87.5 62l58 142h32v-268h-32l-71 55q-79 -63 -178 -63q-173 0 -279.5 118t-106.5 306z" />
<glyph unicode="&#xaa;" horiz-adv-x="806" d="M66 764q0 137 119.5 192t271.5 55h39v115q0 74 -29 103t-89 29q-129 0 -129 -76q0 -39 42 -53q0 -37 -30 -63t-66.5 -26t-61.5 26t-25 63q0 81 77.5 127t184.5 46q273 0 273 -202v-399q0 -42 42 -45q16 0 28 12t12 30h42q0 -47 -34.5 -73t-87 -26t-91.5 27.5t-53 79.5 q-74 -108 -233 -107q-92 0 -147 44.5t-55 120.5zM223 775q0 -113 100 -113q63 0 114 47t59 126v129h-39q-100 0 -167 -50t-67 -139z" />
<glyph unicode="&#xab;" horiz-adv-x="588" d="M74 423v29l278 309l16 -15l-153 -308l153 -309l-16 -16zM312 425v24l179 189l16 -13l-71 -187l71 -191l-16 -13z" />
<glyph unicode="&#xac;" horiz-adv-x="903" d="M116 549v58h669v-407h-58v349h-611z" />
<glyph unicode="&#xad;" horiz-adv-x="619" d="M100 549v58h420v-58h-420z" />
<glyph unicode="&#xae;" horiz-adv-x="1483" d="M79 647q0 138 52.5 257.5t143 210t211.5 143t257 52.5q137 0 257.5 -53.5t210 -144.5t143 -210.5t53.5 -255.5q0 -137 -53.5 -257.5t-143 -210t-210 -142t-257.5 -52.5t-257.5 52.5t-211 142t-143 210t-52.5 258.5zM142 644.5q0 -124.5 46 -233.5t127 -193 q176 -173 428 -173q249 0 425 176q173 176 174 425q0 123 -46 233.5t-127.5 190.5t-190.5 128.5t-235 48.5t-235 -48.5t-191.5 -128.5t-128.5 -190.5t-46 -235zM394 231v37l97 13v722l-97 16v39h354q173 0 248 -52.5t75 -160.5q0 -179 -260 -207v-5q165 -24 192 -184l16 -89 q3 -42 12 -60.5t35 -19t58 31.5l26 -31q-58 -60 -139 -60q-121 0 -139 120l-21 139q-11 68 -46.5 105t-116.5 37h-63v-341l94 -13v-37h-325zM625 667h100q200 0 199 173v21q1 155 -199 155h-100v-349z" />
<glyph unicode="&#xaf;" horiz-adv-x="740" d="M0 1077v55h743v-55h-743z" />
<glyph unicode="&#xb0;" horiz-adv-x="590" d="M59 986q1 98 72 166.5t168 68.5t165.5 -69.5t68.5 -165.5t-66 -167q-68 -71 -167.5 -72t-170.5 70t-70 169zM123 985q0 -71 51.5 -122.5t124.5 -51.5q71 0 122.5 51.5t51.5 121t-54 123.5t-122.5 54t-121 -52.5t-52.5 -123.5z" />
<glyph unicode="&#xb1;" horiz-adv-x="979" d="M121 181v61h743v-61h-743zM121 549v58h338v262h61v-262h344v-58h-344v-263h-61v263h-338z" />
<glyph unicode="&#xb2;" horiz-adv-x="622" d="M84 614v66l186 184q131 129 132 268q0 60 -30.5 98t-76.5 38t-74.5 -19.5t-28.5 -59t50 -65.5q0 -32 -20 -51.5t-50 -19.5t-53.5 23.5t-23.5 60.5q0 79 57.5 122t157.5 43t159 -49.5t59 -124.5t-42 -134t-116 -120l-197 -157h271l44 128h40v-231h-444z" />
<glyph unicode="&#xb3;" horiz-adv-x="593" d="M66 759q0 37 21 59t49.5 22t48.5 -17t20 -51q-47 -26 -47 -66q0 -68 107 -68q55 0 93 39.5t38 123.5t-43 126t-140 47v34q87 5 122 40.5t35 109.5q0 110 -102 110q-81 0 -82 -60q0 -39 45 -58q0 -32 -18.5 -50t-47 -18t-48.5 22t-20 59q0 71 52.5 105t142 34t143 -38 t53.5 -114q0 -137 -191 -158v-2q239 -16 236 -194q0 -79 -71 -138t-174.5 -59t-162.5 44.5t-59 115.5z" />
<glyph unicode="&#xb4;" horiz-adv-x="375" d="M47 943l118 257q18 45 60.5 45t64.5 -22.5t22 -56.5t-28 -55l-210 -187z" />
<glyph unicode="&#xb5;" horiz-adv-x="1042" d="M144 -341l11 556v623h163v-620q0 -176 136.5 -176t267.5 189v607h163v-791l110 -13v-34h-273v173q-131 -189 -315 -189q-131 1 -194 69q24 -357 191 -444q-18 -37 -55 -59.5t-81 -22.5q-121 0 -124 132z" />
<glyph unicode="&#xb6;" horiz-adv-x="882" d="M53 991q0 130 84 216.5t231 86.5h446v-34l-147 -23v-1418h-68v1420h-161v-1420h-68v869q-150 0 -233.5 86.5t-83.5 216.5z" />
<glyph unicode="&#xb7;" horiz-adv-x="385" d="M89 483.5q0 44.5 33 74.5t72.5 30t72 -31.5t32.5 -72t-30 -72t-73.5 -31.5t-74.5 29q-32 29 -32 73.5z" />
<glyph unicode="&#xb8;" d="M113 -360l10 34q18 -5 59 -5t78 26.5t37 76.5q0 105 -116 115l32 129h44l-21 -87q197 -8 197 -150q0 -76 -59 -115t-134 -39t-127 15z" />
<glyph unicode="&#xb9;" horiz-adv-x="401" d="M81 607v34l69 8v603l-69 8v34h184v-645l68 -8v-34h-252z" />
<glyph unicode="&#xba;" horiz-adv-x="808" d="M58 949.5q0 153.5 98.5 253t246.5 99.5t248 -98.5t101.5 -253t-101.5 -252.5q-100 -100 -249.5 -99.5t-246.5 99t-97 252zM218 885q0 -242 186 -242t187 242v131q0 242 -187 242q-186 0 -186 -242v-131z" />
<glyph unicode="&#xbb;" horiz-adv-x="588" d="M84 247l16 -13l179 191v24l-179 189l-16 -13l71 -187zM223 129l16 -16l278 310v29l-278 309l-16 -15l153 -308z" />
<glyph unicode="&#xbc;" horiz-adv-x="1076" d="M71 607v34l68 8v603l-68 8v34h184v-645l68 -8v-34h-252zM192 0l646 1294h84l-649 -1294h-81zM538 168v16l363 504h39v-465h79v-55h-79v-121l79 -13v-34h-273v34l78 13v121h-286zM614 223h210v294z" />
<glyph unicode="&#xbd;" horiz-adv-x="1131" d="M76 607v34l68 8v603l-68 8v34h187v-645l68 -8v-34h-255zM144 0l649 1294h81l-646 -1294h-84zM620 0v66l186 183q134 129 134 268q0 60 -30 98.5t-77.5 38.5t-76.5 -20t-29 -58t50 -67q0 -32 -19.5 -51.5t-50 -19.5t-52.5 24t-22 61q0 79 56.5 122t157.5 43t158.5 -50 t57.5 -125t-40.5 -134t-116.5 -116l-194 -158h270l45 126h36v-231h-443z" />
<glyph unicode="&#xbe;" horiz-adv-x="1123" d="M60 759q0 37 21 59t50 22t49 -17t20 -51q-47 -26 -48 -66q0 -68 108 -68q55 0 93 39.5t38 123.5t-43 126t-143 47v34q87 5 122 40.5t35 109.5q0 110 -99 110q-81 0 -82 -60q0 -39 45 -58q0 -32 -18.5 -50t-47.5 -18t-48.5 22t-19.5 59q0 71 52.5 105t140.5 34t143 -38 t55 -114q0 -137 -192 -158v-2q236 -16 237 -194q0 -79 -72.5 -138t-176 -59t-161.5 44.5t-58 115.5zM270 0l646 1294h84l-648 -1294h-82zM575 168v16l362 504h40v-465h79v-55h-79v-121l79 -13v-34h-271v34l79 13v121h-289zM651 223h213v294z" />
<glyph unicode="&#xbf;" horiz-adv-x="829" d="M58 -173q0 139 102 252q42 50 92 106.5t92 105.5q102 121 102 276h34q0 -173 -78 -328q-34 -63 -66 -126q-79 -152 -82 -273q0 -165 49 -229.5t129 -64.5t140.5 40.5t60.5 116.5t-82 113q0 55 33 86.5t81.5 31.5t84 -36.5t35.5 -99.5q0 -126 -111.5 -209t-276 -83 t-252 73.5t-87.5 247.5zM367 753.5q0 39.5 28 68.5t68.5 29t68 -29t27.5 -68.5t-27.5 -65.5t-68 -26t-68.5 26t-28 65.5z" />
<glyph unicode="&#x2000;" horiz-adv-x="734" />
<glyph unicode="&#x2001;" horiz-adv-x="1468" />
<glyph unicode="&#x2002;" horiz-adv-x="734" />
<glyph unicode="&#x2003;" horiz-adv-x="1468" />
<glyph unicode="&#x2004;" horiz-adv-x="489" />
<glyph unicode="&#x2005;" horiz-adv-x="367" />
<glyph unicode="&#x2006;" horiz-adv-x="244" />
<glyph unicode="&#x2007;" horiz-adv-x="244" />
<glyph unicode="&#x2008;" horiz-adv-x="183" />
<glyph unicode="&#x2009;" horiz-adv-x="293" />
<glyph unicode="&#x200a;" horiz-adv-x="81" />
<glyph unicode="&#x2010;" d="M100 415v55h354v-55h-354z" />
<glyph unicode="&#x2011;" d="M100 415v55h354v-55h-354z" />
<glyph unicode="&#x2012;" d="M100 415v55h354v-55h-354z" />
<glyph unicode="&#x2013;" horiz-adv-x="1221" d="M100 415v55h1024v-55h-1024z" />
<glyph unicode="&#x2014;" horiz-adv-x="2245" d="M100 415v55h2048v-55h-2048z" />
<glyph unicode="&#x202f;" horiz-adv-x="293" />
<glyph unicode="&#x205f;" horiz-adv-x="367" />
<glyph unicode="&#x25fc;" horiz-adv-x="840" d="M0 0v840h840v-840h-840z" />
</font>
</defs>
</svg>
