<?xml version="1.0" standalone="no"?>
<!DOCTYPE svg PUBLIC "-//W3C//DTD SVG 1.1//EN" "http://www.w3.org/Graphics/SVG/1.1/DTD/svg11.dtd" >
<svg xmlns="http://www.w3.org/2000/svg" xmlns:xlink="http://www.w3.org/1999/xlink" version="1.1">
<metadata></metadata>
<defs>
<font id="gotham-mediumgotham-medium" horiz-adv-x="1024" >
<font-face units-per-em="2048" ascent="1638" descent="-410" />
<missing-glyph horiz-adv-x="614" />
<glyph horiz-adv-x="0" />
<glyph horiz-adv-x="682" />
<glyph d="M162 1518h170q18 -59 60 -94t120 -35t120 34.5t60 94.5h170q-10 -145 -106.5 -224.5t-243.5 -79.5t-243.5 79t-106.5 225z" />
<glyph d="M383 1219v243h258v-243h-258z" />
<glyph d="M279 1438v4q0 45 19 86t51 71.5t75 48t88 17.5q47 0 89 -17.5t74 -48t51 -71.5t19 -86v-4q0 -45 -19 -86t-51 -72t-74 -48.5t-89 -17.5q-45 0 -88 17.5t-75 48.5t-51 72t-19 86zM385 1438q0 -51 37 -88t90 -37t90 36.5t37 88.5v4q0 51 -37 88t-90 37t-90 -37t-37 -88v-4z " />
<glyph unicode="&#xa;" d="M115 1219l213 335l217 -100l-246 -235h-184zM487 1219l218 335l217 -100l-250 -235h-185z" />
<glyph d="M360 -115q0 35 9.5 71t21.5 64h176q-12 -47 -12 -90q0 -70 45 -107.5t150 -43.5v-115q-190 -12 -290 47.5t-100 173.5z" />
<glyph d="M160 1518h196l158 -136l158 136h192l-237 -299h-230z" />
<glyph unicode="&#xd;" horiz-adv-x="614" />
<glyph horiz-adv-x="940" d="M-143 -201l956 1753h225l-956 -1753h-225z" />
<glyph horiz-adv-x="1355" d="M74 868v207h137v78q0 180 88 268q86 86 244 86q66 0 112.5 -8t87.5 -20v-209q-37 12 -70.5 19t-74.5 7q-143 0 -143 -163v-60h286v-205h-282v-868h-248v868h-137zM930 1247v236h266v-236h-266zM940 0v1081h248v-1081h-248z" />
<glyph horiz-adv-x="1355" d="M74 868v207h137v78q0 180 88 268q86 86 244 86q66 0 112.5 -8t87.5 -20v-209q-37 12 -70.5 19t-74.5 7q-143 0 -143 -163v-60h286v-205h-282v-868h-248v868h-137zM940 0v1495h248v-1495h-248z" />
<glyph horiz-adv-x="1329" d="M92 524v234l154 47v629h250v-553l413 123v-234l-413 -125v-416h755v-229h-1005v569z" />
<glyph horiz-adv-x="708" d="M76 561v236l155 47v651h246v-580l156 48v-236l-156 -47v-680h-246v608z" />
<glyph horiz-adv-x="1437" d="M133 0v186l846 1024h-819v224h1147v-187l-846 -1024h846v-223h-1174zM375 1851h196l158 -135l158 135h192l-237 -299h-230z" />
<glyph horiz-adv-x="1146" d="M106 0v170l625 709h-602v202h918v-170l-625 -708h625v-203h-941zM238 1518h196l158 -136l158 136h192l-237 -299h-230z" />
<glyph unicode=" "  horiz-adv-x="614" />
<glyph unicode="&#x09;" horiz-adv-x="614" />
<glyph unicode="&#xa0;" horiz-adv-x="614" />
<glyph unicode="!" horiz-adv-x="618" d="M164 1362v72h291v-72l-76 -909h-137zM174 0v281h272v-281h-272z" />
<glyph unicode="&#x22;" horiz-adv-x="997" d="M123 821l47 613h281v-11l-199 -602h-129zM571 821l50 613h280v-11l-201 -602h-129z" />
<glyph unicode="#" horiz-adv-x="1433" d="M80 330v213h221l59 356h-204v213h241l56 322h219l-56 -322h336l54 322h219l-56 -322h183v-213h-219l-60 -356h205v-213h-242l-57 -330h-219l57 330h-336l-55 -330h-219l57 330h-184zM518 543h336l61 356h-335z" />
<glyph unicode="$" horiz-adv-x="1314" d="M100 207l131 186q88 -72 174.5 -116t186.5 -60v401q-113 29 -195 66t-136 87t-80.5 115.5t-26.5 151.5v4q0 84 30.5 153t88 119t136 80.5t175.5 39.5v118h178v-122q113 -14 206 -53.5t179 -102.5l-115 -193q-133 100 -278 131v-389q233 -57 338.5 -157.5t105.5 -264.5v-4 q0 -84 -31.5 -152.5t-89 -119.5t-137.5 -83t-178 -40v-203h-178v205q-135 16 -257 67.5t-227 135.5zM395 1053q0 -63 39 -107.5t158 -79.5v361q-98 -8 -147.5 -55.5t-49.5 -114.5v-4zM754 209q98 8 150 54t52 120v4q0 35 -9 62.5t-31.5 50t-62.5 42t-99 38.5v-371z" />
<glyph unicode="%" horiz-adv-x="1738" d="M98 1079v4q0 74 24.5 140.5t70 117t107.5 80t138 29.5t137.5 -28.5t105.5 -79t68.5 -116t24.5 -139.5v-4q0 -74 -24.5 -140t-69.5 -116.5t-107.5 -80t-138.5 -29.5t-137 28.5t-105.5 78.5t-69 116t-24.5 139zM244 0l1048 1434h203l-1049 -1434h-202zM281 1083 q0 -88 43.5 -148.5t113.5 -60.5q72 0 113 60.5t41 144.5v4q0 86 -44 147.5t-114 61.5q-72 0 -112.5 -60.5t-40.5 -144.5v-4zM965 346v4q0 74 24.5 140.5t69.5 116.5t107.5 80t138.5 30t137 -29t105 -79t68.5 -115.5t24.5 -139.5v-4q0 -74 -24.5 -140.5t-69.5 -116.5 t-107.5 -79.5t-138.5 -29.5t-137 28.5t-105 78.5t-68.5 115.5t-24.5 139.5zM1147 350q0 -88 44 -148.5t114 -60.5q72 0 112.5 60.5t40.5 144.5v4q0 86 -44 147.5t-114 61.5q-72 0 -112.5 -60.5t-40.5 -144.5v-4z" />
<glyph unicode="&#x26;" horiz-adv-x="1425" d="M80 389v4q0 139 79 238.5t226 163.5q-61 78 -90 149.5t-29 149.5v4q0 72 29 137t82 114.5t129 79t172 29.5q86 0 155.5 -26.5t120 -73.5t78 -110.5t27.5 -135.5v-4q0 -141 -86 -230.5t-230 -142.5l246 -250q41 61 80 131t74 146l190 -100q-43 -86 -91 -169t-103 -159 l225 -230l-186 -133l-191 195q-92 -86 -200.5 -136t-239.5 -50q-100 0 -185.5 28.5t-147.5 82.5t-98 130t-36 168zM334 397q0 -92 67.5 -150.5t171.5 -58.5q74 0 141.5 33t129.5 92l-320 326q-100 -43 -145 -105.5t-45 -132.5v-4zM502 1083q0 -53 24.5 -100t83.5 -113 q111 41 168.5 93.5t57.5 130.5v4q0 72 -46.5 117t-117.5 45q-78 0 -124 -48.5t-46 -124.5v-4z" />
<glyph unicode="'" horiz-adv-x="550" d="M123 821l47 613h285v-11l-201 -602h-131z" />
<glyph unicode="(" horiz-adv-x="901" d="M129 588q0 293 143.5 508t423.5 368l109 -166q-109 -72 -189.5 -149.5t-134 -163.5t-79 -184.5t-25.5 -212.5q0 -229 105.5 -397t322.5 -314l-109 -166q-281 154 -424 369t-143 508z" />
<glyph unicode=")" horiz-adv-x="901" d="M98 -123q109 72 190 149.5t134 163.5t78.5 184.5t25.5 213.5q0 229 -104.5 398t-323.5 312l109 166q279 -154 423 -369.5t144 -506.5t-144.5 -507t-422.5 -370z" />
<glyph unicode="*" horiz-adv-x="880" d="M119 1008l233 102l-233 102l74 125l204 -149l-28 250h143l-29 -250l205 149l74 -125l-234 -102l234 -102l-74 -125l-205 149l29 -250h-143l28 250l-204 -149z" />
<glyph unicode="+" horiz-adv-x="1310" d="M145 608v226h394v391h233v-391h393v-226h-393v-391h-233v391h-394z" />
<glyph unicode="," horiz-adv-x="550" d="M70 -193q188 37 174 193h-105v281h273v-238q0 -172 -80 -250t-236 -90z" />
<glyph unicode="-" horiz-adv-x="835" d="M115 506v244h606v-244h-606z" />
<glyph unicode="." horiz-adv-x="550" d="M139 0v281h273v-281h-273z" />
<glyph unicode="/" horiz-adv-x="1067" d="M-51 -262l925 1896h216l-926 -1896h-215z" />
<glyph unicode="0" horiz-adv-x="1482" d="M117 713v4q0 154 45 289t127 235t197.5 158.5t256.5 58.5t256 -57.5t196 -157.5t126 -234.5t45 -287.5v-4q0 -154 -45 -289t-127 -235.5t-198 -159t-257 -58.5t-255.5 57.5t-196.5 158t-126 234.5t-44 288zM377 717q0 -106 25.5 -199.5t73.5 -163t115.5 -110.5t151.5 -41 t151 40t114 109.5t72.5 161.5t25.5 199v4q0 106 -26.5 199.5t-74 163t-115 110.5t-151.5 41q-82 0 -149.5 -40t-114.5 -108.5t-72.5 -162t-25.5 -199.5v-4z" />
<glyph unicode="1" horiz-adv-x="811" d="M53 1321l385 123h176v-1444h-249v1188l-259 -72z" />
<glyph unicode="2" horiz-adv-x="1255" d="M100 0v199l494 419q74 61 125 111.5t83 95.5t46 88t14 93q0 106 -66.5 164.5t-164.5 58.5t-173 -53.5t-159 -161.5l-178 139q51 72 104.5 128t115.5 95t137 58.5t171 19.5q104 0 191.5 -30.5t150 -87t97 -135.5t34.5 -175v-4q0 -84 -22.5 -152.5t-68.5 -132t-115.5 -128 t-165.5 -142.5l-295 -246h682v-221h-1037z" />
<glyph unicode="3" horiz-adv-x="1265" d="M88 227l176 164q78 -92 167 -140t210 -48q106 0 177 59.5t71 157.5v4q0 106 -89 163.5t-241 57.5h-117l-41 158l387 411h-620v220h948v-189l-399 -409q82 -10 157.5 -38t134 -75t94.5 -119t36 -172v-4q0 -98 -37 -182t-102.5 -143.5t-158.5 -93.5t-204 -34 q-188 0 -322.5 71t-226.5 181z" />
<glyph unicode="4" horiz-adv-x="1394" d="M74 502l796 942h215v-916h205v-206h-205v-322h-241v322h-723zM373 528h471v568z" />
<glyph unicode="5" horiz-adv-x="1273" d="M96 195l156 182q86 -80 177 -126t192 -46q129 0 206.5 67.5t77.5 180.5v4q0 111 -83 174t-214 63q-78 0 -143.5 -18.5t-120.5 -44.5l-151 100l40 703h857v-224h-639l-23 -336q51 18 103.5 29.5t123.5 11.5q104 0 195.5 -27.5t158 -83.5t105.5 -140t39 -199v-4 q0 -111 -38 -200t-107.5 -152.5t-167.5 -98.5t-217 -35q-166 0 -295 60.5t-232 159.5z" />
<glyph unicode="6" horiz-adv-x="1343" d="M117 674v4q0 164 39 306t115.5 247.5t192.5 166t267 60.5q139 0 241.5 -42t196.5 -118l-135 -194q-76 59 -146.5 92t-164.5 33q-80 0 -142.5 -34t-105.5 -95.5t-67.5 -144.5t-28.5 -181q29 29 61.5 54.5t74.5 45t92 32t114 12.5q104 0 195.5 -30t160 -88.5t107.5 -141.5 t39 -191v-4q0 -106 -41 -196.5t-113 -155t-169 -100.5t-210 -36q-133 0 -230.5 39t-168.5 111q-41 41 -73 91t-54.5 115.5t-34.5 149.5t-12 193zM387 451q0 -55 21.5 -102.5t59.5 -82.5t93 -54t123 -19t121 19t90 55t56.5 83t19.5 103v4q0 109 -79 179.5t-214 70.5 q-68 0 -121 -20.5t-91 -54.5t-58.5 -80t-20.5 -97v-4z" />
<glyph unicode="7" horiz-adv-x="1247" d="M139 1212v222h1008v-191l-647 -1243h-283l643 1212h-721z" />
<glyph unicode="8" horiz-adv-x="1290" d="M98 389v4q0 131 67.5 215t190.5 135q-92 47 -150.5 123t-58.5 197v4q0 82 38 152.5t103.5 123t158 82t198.5 29.5q109 0 200 -29.5t156.5 -81t103.5 -122t38 -154.5v-4q0 -121 -58.5 -196.5t-150.5 -123.5q117 -53 187.5 -134t70.5 -210v-4q0 -96 -41 -173t-114.5 -131 t-174 -82.5t-217.5 -28.5t-217 29.5t-174 82.5t-115 129t-41 168zM344 406q0 -88 80 -152t221 -64t221 62.5t80 153.5v4q0 49 -23.5 89t-63.5 68.5t-95 44t-119 15.5q-63 0 -118.5 -15.5t-95.5 -44t-63.5 -68.5t-23.5 -89v-4zM389 1040q0 -94 72.5 -153.5t183.5 -59.5 t183.5 59.5t72.5 151.5v4q0 84 -69.5 142.5t-186.5 58.5t-186.5 -58.5t-69.5 -140.5v-4z" />
<glyph unicode="9" horiz-adv-x="1343" d="M121 958v5q0 104 39 195t109.5 157.5t169 104.5t216.5 38q135 0 228.5 -38t169.5 -113q41 -39 72.5 -90.5t54 -117t35 -149.5t12.5 -190v-4q0 -172 -42 -316.5t-121 -247t-193 -160t-259 -57.5q-150 0 -258 48.5t-200 123.5l137 193q82 -70 158.5 -102.5t168.5 -32.5 q80 0 142.5 32.5t106.5 93t70 143.5t28 181q-53 -66 -136.5 -108.5t-199.5 -42.5q-115 0 -208 31.5t-159.5 91t-103.5 143.5t-37 188zM373 971q0 -113 79 -184.5t214 -71.5q68 0 122 20.5t92 56t57 83t19 98.5v4q0 113 -80.5 188.5t-218.5 75.5q-68 0 -120 -20.5 t-88.5 -57.5t-56 -85t-19.5 -103v-4z" />
<glyph unicode=":" horiz-adv-x="571" d="M150 0v281h272v-281h-272zM150 801v280h272v-280h-272z" />
<glyph unicode=";" horiz-adv-x="571" d="M80 -193q188 37 174 193h-104v281h272v-238q0 -172 -80 -250t-236 -90zM150 801v280h272v-280h-272z" />
<glyph unicode="&#x3c;" horiz-adv-x="1310" d="M143 610v221l977 453v-235l-731 -326l731 -328v-237z" />
<glyph unicode="=" horiz-adv-x="1310" d="M176 350v230h959v-230h-959zM176 862v230h959v-230h-959z" />
<glyph unicode="&#x3e;" horiz-adv-x="1310" d="M190 158v235l732 326l-732 328v237l977 -453v-221z" />
<glyph unicode="?" horiz-adv-x="1107" d="M49 1225q90 102 209 164.5t285 62.5q109 0 196.5 -28.5t150 -83t97.5 -131t35 -173.5v-4q0 -96 -33 -167.5t-88 -121t-130 -80t-161 -45.5l-20 -165h-166l-41 331l10 11q197 8 288 67.5t91 161.5v4q0 86 -62.5 140.5t-172.5 54.5q-98 0 -179.5 -42t-154.5 -120zM365 0 v281h274v-281h-274z" />
<glyph unicode="@" horiz-adv-x="2007" d="M109 561q0 184 69.5 347t190 285t284.5 193.5t353 71.5q188 0 351 -67.5t283.5 -179t189 -258t68.5 -306.5q0 -129 -32.5 -225t-87 -158.5t-126 -94.5t-151.5 -32q-121 0 -194.5 43t-108.5 101q-55 -57 -132 -100.5t-185 -43.5q-76 0 -143.5 28t-119 78t-80 121.5 t-28.5 159.5q0 109 39 202t104.5 162.5t149.5 108.5t172 39q111 0 179.5 -45t109.5 -106l24 123l199 -31l-90 -516q-4 -29 -7.5 -51.5t-3.5 -36.5q0 -66 42 -106t118 -40q55 0 104.5 27t86.5 79t58.5 131t21.5 183q0 141 -61.5 273.5t-170 234.5t-257 163.5t-322.5 61.5 t-324 -64.5t-259.5 -176t-171 -260t-61.5 -318.5t61.5 -318.5t172.5 -259t263.5 -174t334.5 -63.5q152 0 270.5 35t235.5 102l37 -61q-119 -72 -251 -113t-292 -41q-197 0 -363.5 71t-289.5 192.5t-191.5 283.5t-68.5 346zM719 537q0 -106 60.5 -164t156.5 -58 q55 0 106.5 26t90 70t62.5 102t24 126q0 98 -61.5 159.5t-153.5 61.5q-55 0 -107.5 -24.5t-91.5 -67.5t-62.5 -102.5t-23.5 -128.5z" />
<glyph unicode="A" horiz-adv-x="1617" d="M61 0l631 1444h234l630 -1444h-266l-145 346h-678l-148 -346h-258zM559 569h494l-248 574z" />
<glyph unicode="B" horiz-adv-x="1478" d="M184 0v1434h643q248 0 375 -127q96 -96 96 -238v-4q0 -63 -17 -114.5t-45 -89.5t-64.5 -66.5t-77.5 -49.5q127 -43 205.5 -122.5t78.5 -225.5v-4q0 -96 -37.5 -169.5t-107.5 -123t-167 -75t-218 -25.5h-664zM432 223h418q129 0 202.5 49.5t73.5 147.5v4q0 92 -72.5 142 t-222.5 50h-399v-393zM432 829h344q123 0 197 48.5t74 146.5v4q0 86 -64.5 134t-187.5 48h-363v-381z" />
<glyph unicode="C" horiz-adv-x="1511" d="M121 713v4q0 154 54 288t152.5 235t234.5 159.5t298 58.5q98 0 179 -16.5t148.5 -46t125 -70.5t108.5 -90l-161 -186q-86 80 -182.5 129t-219.5 49q-102 0 -189 -40t-149.5 -108.5t-98.5 -161t-36 -196.5v-4q0 -104 36 -197.5t98.5 -163t149.5 -109.5t189 -40 q66 0 121 13t104.5 37t95.5 58.5t91 77.5l162 -164q-55 -57 -116 -104t-130.5 -81t-152.5 -51.5t-183 -17.5q-156 0 -290 57.5t-231.5 157t-152.5 234.5t-55 289z" />
<glyph unicode="D" horiz-adv-x="1601" d="M184 0v1434h535q170 0 309 -54.5t240.5 -150.5t157 -226.5t55.5 -281.5v-4q0 -152 -55.5 -283t-157 -227t-240.5 -151.5t-309 -55.5h-535zM436 229h283q113 0 205 36t156.5 100.5t100.5 153.5t36 194v4q0 104 -36 194t-100.5 154.5t-157 101.5t-204.5 37h-283v-975z" />
<glyph unicode="E" horiz-adv-x="1372" d="M184 0v1434h1063v-226h-811v-372h719v-226h-719v-385h821v-225h-1073z" />
<glyph unicode="F" horiz-adv-x="1343" d="M184 0v1434h1067v-230h-815v-391h723v-229h-723v-584h-252z" />
<glyph unicode="G" horiz-adv-x="1605" d="M121 713v4q0 152 54 286t152.5 235t234.5 160.5t298 59.5q94 0 171 -13t143.5 -38t124 -60.5t112.5 -82.5l-160 -191q-41 35 -84 63.5t-90 49t-103 31t-124 10.5q-98 0 -183 -40t-147.5 -109.5t-98.5 -162t-36 -194.5v-4q0 -111 35 -205t99.5 -161.5t153.5 -106.5 t199 -39q102 0 191.5 29.5t155.5 78.5v269h-367v219h610v-602q-53 -45 -117.5 -86t-139.5 -72t-160 -48.5t-181 -17.5q-168 0 -305 56.5t-234.5 156t-150.5 234.5t-53 291z" />
<glyph unicode="H" horiz-adv-x="1556" d="M184 0v1434h252v-596h684v596h252v-1434h-252v604h-684v-604h-252z" />
<glyph unicode="I" horiz-adv-x="649" d="M199 0v1434h252v-1434h-252z" />
<glyph unicode="J" horiz-adv-x="1144" d="M43 211l166 170q63 -80 130 -124t159 -44q102 0 164.5 68.5t62.5 212.5v940h258v-947q0 -129 -35 -223t-98 -158q-63 -63 -151 -94.5t-197 -31.5q-166 0 -276.5 66.5t-182.5 164.5z" />
<glyph unicode="K" horiz-adv-x="1484" d="M184 0v1434h252v-721l682 721h309l-596 -617l623 -817h-305l-490 645l-223 -229v-416h-252z" />
<glyph unicode="L" horiz-adv-x="1267" d="M184 0v1434h252v-1205h754v-229h-1006z" />
<glyph unicode="M" horiz-adv-x="1777" d="M184 0v1434h269l436 -678l436 678h268v-1434h-252v1028l-452 -676h-8l-449 672v-1024h-248z" />
<glyph unicode="N" horiz-adv-x="1617" d="M184 0v1434h234l768 -992v992h248v-1434h-211l-791 1020v-1020h-248z" />
<glyph unicode="O" horiz-adv-x="1740" d="M121 713v4q0 152 55 286t155.5 235t238 160.5t302.5 59.5q166 0 303.5 -58.5t235.5 -158.5t153.5 -234.5t55.5 -285.5v-4q0 -152 -55.5 -286t-155.5 -235.5t-237.5 -161t-303.5 -59.5t-303 58.5t-235.5 159t-153.5 234.5t-55 286zM385 717q0 -104 36 -197.5t100.5 -162 t154.5 -109.5t196 -41t195.5 40t153 108.5t99.5 160.5t36 197v4q0 104 -36 197.5t-100.5 162t-154.5 109.5t-197 41q-106 0 -195 -40t-152.5 -108.5t-99.5 -161t-36 -196.5v-4z" />
<glyph unicode="P" horiz-adv-x="1368" d="M184 0v1434h566q125 0 226 -34t172 -97.5t108.5 -151.5t37.5 -197v-4q0 -121 -45 -212t-122.5 -152.5t-182 -93t-223.5 -31.5h-285v-461h-252zM436 688h293q143 0 226 71.5t83 184.5v4q0 127 -84 191.5t-225 64.5h-293v-516z" />
<glyph unicode="Q" horiz-adv-x="1740" d="M121 713v4q0 152 55 286t155.5 235t238 160.5t302.5 59.5q166 0 303.5 -58.5t235.5 -158.5t153.5 -234.5t55.5 -285.5v-4q0 -123 -37 -234.5t-108 -206.5l163 -139l-161 -180l-172 154q-92 -66 -201 -101t-236 -35q-166 0 -303 58.5t-235.5 159t-153.5 234.5t-55 286z M385 717q0 -104 36 -197.5t100.5 -162t154.5 -109.5t196 -41q72 0 133.5 18.5t112.5 50.5l-246 209l162 185l248 -226q74 115 74 269v4q0 104 -36 197.5t-100.5 162t-154.5 109.5t-197 41q-106 0 -195 -40t-152.5 -108.5t-99.5 -161t-36 -196.5v-4z" />
<glyph unicode="R" horiz-adv-x="1480" d="M184 0v1434h639q135 0 239.5 -38t174.5 -106q57 -59 88 -137t31 -172v-4q0 -176 -95.5 -283.5t-246.5 -150.5l387 -543h-297l-352 500h-4h-312v-500h-252zM436 723h369q135 0 215 64.5t80 175.5v4q0 117 -78 177t-219 60h-367v-481z" />
<glyph unicode="S" horiz-adv-x="1310" d="M88 209l152 180q104 -90 210.5 -138t241.5 -48q117 0 185.5 49t68.5 131v4q0 39 -13 68.5t-49 56.5t-98.5 49.5t-162.5 44.5q-115 29 -204 61.5t-149.5 81t-92.5 118t-32 167.5v4q0 92 37 169t101.5 131.5t154.5 85t197 30.5q158 0 283.5 -46t236.5 -134l-135 -191 q-98 72 -194.5 110t-194.5 38q-111 0 -172.5 -49t-61.5 -121v-4q0 -41 14.5 -73t52.5 -57.5t104.5 -48t168.5 -47.5q115 -27 201 -62.5t143.5 -85.5t87 -115.5t29.5 -155.5v-4q0 -100 -38 -180.5t-105.5 -135.5t-161.5 -83.5t-207 -28.5q-166 0 -317.5 56t-280.5 173z" />
<glyph unicode="T" horiz-adv-x="1327" d="M82 1200v234h1163v-234h-454v-1200h-254v1200h-455z" />
<glyph unicode="U" horiz-adv-x="1550" d="M162 608v826h252v-816q0 -201 96 -305t266 -104q168 0 264.5 100.5t96.5 298.5v826h252v-813q0 -160 -44.5 -281t-124 -202t-193.5 -121t-255 -40q-139 0 -251.5 40t-192.5 120t-123 198t-43 273z" />
<glyph unicode="V" horiz-adv-x="1536" d="M61 1434h279l432 -1102l430 1102h273l-596 -1444h-222z" />
<glyph unicode="W" horiz-adv-x="2285" d="M74 1434h272l342 -1063l352 1067h213l353 -1067l342 1063h264l-500 -1444h-217l-352 1030l-352 -1030h-218z" />
<glyph unicode="X" horiz-adv-x="1492" d="M76 0l522 729l-502 705h297l357 -514l358 514h289l-500 -701l520 -733h-297l-377 543l-378 -543h-289z" />
<glyph unicode="Y" horiz-adv-x="1466" d="M37 1434h297l401 -635l406 635h289l-570 -863v-571h-254v565z" />
<glyph unicode="Z" horiz-adv-x="1437" d="M133 0v186l846 1024h-819v224h1147v-187l-846 -1024h846v-223h-1174z" />
<glyph unicode="[" horiz-adv-x="929" d="M180 -266v1700h629v-195h-393v-1311h393v-194h-629z" />
<glyph unicode="\" horiz-adv-x="1067" d="M-23 1634h216l925 -1896h-215z" />
<glyph unicode="]" horiz-adv-x="929" d="M121 -72h393v1311h-393v195h631v-1700h-631v194z" />
<glyph unicode="^" d="M115 1010l309 426h176l309 -426h-190l-209 270l-209 -270h-186z" />
<glyph unicode="_" horiz-adv-x="1228" d="M-4 -135h1237v-193h-1237v193z" />
<glyph unicode="`" d="M254 1454l225 100l217 -335h-192z" />
<glyph unicode="a" horiz-adv-x="1202" d="M82 311v4q0 90 32.5 157t91 111t139.5 65.5t175 21.5q98 0 167 -12.5t132 -32.5v20q0 113 -68.5 172.5t-197.5 59.5q-92 0 -164 -18.5t-145 -49.5l-68 199q90 41 184.5 65.5t227.5 24.5q242 0 358.5 -120t116.5 -337v-641h-246v133q-55 -66 -141 -111t-209 -45 q-76 0 -146.5 21.5t-123 63.5t-84 104.5t-31.5 144.5zM328 324q0 -78 60.5 -119t148.5 -41q61 0 113 16.5t91 46t60.5 71.5t21.5 93v62q-47 18 -111.5 30.5t-136.5 12.5q-117 0 -182 -45t-65 -123v-4z" />
<glyph unicode="b" horiz-adv-x="1372" d="M156 0v1495h247v-594q59 86 147.5 144.5t219.5 58.5q96 0 186.5 -37t161 -108.5t113.5 -176t43 -239.5v-4q0 -135 -42 -239.5t-112.5 -176.5t-162 -109t-187.5 -37q-133 0 -221 57.5t-146 133.5v-168h-247zM397 539q0 -78 26 -142.5t69 -109.5t100.5 -69.5t120.5 -24.5 t119.5 24.5t98.5 68.5t66.5 108.5t24.5 144.5v4q0 78 -24.5 142.5t-66.5 109.5t-98.5 69.5t-119.5 24.5t-120.5 -24.5t-100.5 -70.5t-69 -109.5t-26 -141.5v-4z" />
<glyph unicode="c" horiz-adv-x="1169" d="M96 535v4q0 115 42 218t117 180t178.5 122t223.5 45q154 0 255.5 -51.5t177.5 -134.5l-154 -166q-57 59 -121.5 97t-159.5 38q-68 0 -125 -28t-98 -74t-64.5 -108.5t-23.5 -133.5v-4q0 -72 23.5 -135.5t66.5 -110.5t102.5 -75t131.5 -28q88 0 154.5 38t125.5 98l150 -148 q-39 -45 -84 -82t-98.5 -63.5t-117 -42t-143.5 -15.5q-121 0 -223 44t-177 120t-117 178.5t-42 217.5z" />
<glyph unicode="d" horiz-adv-x="1372" d="M100 539v4q0 135 42 239.5t112 176t161 108.5t187 37q133 0 222 -57.5t147 -133.5v582h248v-1495h-248v180q-59 -84 -147.5 -143.5t-221.5 -59.5q-94 0 -185 37t-161 109t-113 176t-43 240zM350 539q0 -78 24.5 -142.5t67.5 -109.5t100 -69.5t120 -24.5q61 0 118.5 24.5 t100.5 70.5t68.5 109.5t25.5 141.5v4q0 78 -25.5 142.5t-68.5 109.5t-100.5 69.5t-118.5 24.5q-63 0 -120 -23.5t-100 -68.5t-67.5 -109.5t-24.5 -144.5v-4z" />
<glyph unicode="e" horiz-adv-x="1236" d="M96 537v4q0 117 39 219t109.5 179t167 121t213.5 44q129 0 226 -47t161.5 -127t97.5 -185.5t33 -222.5q0 -16 -1 -33.5t-3 -35.5h-795q20 -133 105.5 -204t205.5 -71q92 0 160 33t133 96l146 -129q-78 -92 -185.5 -147.5t-257.5 -55.5q-117 0 -218 41t-176 115 t-118 177.5t-43 228.5zM342 616h555q-6 59 -26.5 111.5t-55.5 91.5t-83 60.5t-109 21.5q-115 0 -190 -79t-91 -206z" />
<glyph unicode="f" horiz-adv-x="770" d="M74 868v207h137v78q0 180 88 268q86 86 244 86q66 0 112.5 -8t87.5 -20v-209q-37 12 -70.5 19t-74.5 7q-143 0 -143 -163v-60h286v-205h-282v-868h-248v868h-137z" />
<glyph unicode="g" horiz-adv-x="1372" d="M100 592v4q0 121 41 215t109.5 158.5t158 99.5t183.5 35q137 0 226 -54.5t153 -129.5v161h248v-860q0 -270 -138 -407q-74 -74 -185.5 -110t-258.5 -36q-270 0 -483 129l92 187q86 -53 180 -84t205 -31q166 0 254 84t88 248v84q-68 -88 -158 -143.5t-223 -55.5 q-94 0 -183.5 35t-158 99.5t-109.5 158.5t-41 213zM350 594q0 -68 24.5 -122t65.5 -94t97.5 -61.5t119.5 -21.5q66 0 123.5 21.5t100.5 61.5t68.5 94t25.5 120v4q0 68 -25.5 122t-68.5 94t-100.5 61.5t-123.5 21.5q-63 0 -119.5 -21.5t-98.5 -60.5t-65.5 -93t-23.5 -122v-4z " />
<glyph unicode="h" horiz-adv-x="1269" d="M156 0v1495h247v-582q53 78 133 134.5t205 56.5q184 0 284.5 -112.5t100.5 -303.5v-688h-247v614q0 127 -60.5 196t-171.5 69q-109 0 -176.5 -71t-67.5 -198v-610h-247z" />
<glyph unicode="i" horiz-adv-x="585" d="M160 1247v236h266v-236h-266zM170 0v1081h248v-1081h-248z" />
<glyph unicode="j" horiz-adv-x="585" d="M-16 -125q37 -6 69 -6q53 0 85 29.5t32 101.5v1081h248v-1095q0 -166 -81 -243t-235 -77q-35 0 -62.5 3t-55.5 7v199zM160 1247v236h266v-236h-266z" />
<glyph unicode="k" horiz-adv-x="1191" d="M156 0v1495h247v-893l449 479h301l-430 -440l444 -641h-286l-326 467l-152 -158v-309h-247z" />
<glyph unicode="l" horiz-adv-x="585" d="M170 0v1495h248v-1495h-248z" />
<glyph unicode="m" horiz-adv-x="1945" d="M156 0v1081h247v-163q27 37 58 69.5t70.5 59t90 42t111.5 15.5q117 0 198 -52.5t124 -138.5q66 86 154.5 138.5t211.5 52.5q178 0 278.5 -107.5t100.5 -306.5v-690h-248v614q0 129 -57 197t-162 68q-102 0 -166.5 -69t-64.5 -200v-610h-248v616q0 127 -57.5 195 t-161.5 68t-168 -72t-64 -199v-608h-247z" />
<glyph unicode="n" horiz-adv-x="1269" d="M156 0v1081h247v-168q53 78 133 134.5t205 56.5q184 0 284.5 -112.5t100.5 -303.5v-688h-247v614q0 127 -60.5 196t-171.5 69q-109 0 -176.5 -71t-67.5 -198v-610h-247z" />
<glyph unicode="o" horiz-adv-x="1345" d="M96 535v4q0 117 44 219t121 179t182.5 122t230.5 45t230.5 -44t182 -121t119.5 -178.5t43 -217.5v-4q0 -115 -44 -217.5t-120.5 -179t-183 -122t-231.5 -45.5q-123 0 -228.5 44t-182.5 120t-120 178.5t-43 217.5zM344 539q0 -70 24.5 -133.5t68.5 -111.5t104.5 -76 t132.5 -28q76 0 136 28t103 75t65.5 109.5t22.5 132.5v4q0 72 -24.5 135t-68.5 110t-104.5 75t-133.5 28q-74 0 -134.5 -28t-103.5 -74t-65.5 -108.5t-22.5 -133.5v-4z" />
<glyph unicode="p" horiz-adv-x="1372" d="M156 -328v1409h247v-180q59 86 147.5 144.5t219.5 58.5q96 0 186.5 -37t161 -108.5t113.5 -176t43 -239.5v-4q0 -135 -42 -239.5t-112.5 -176.5t-162 -109t-187.5 -37q-133 0 -221 57.5t-146 133.5v-496h-247zM397 539q0 -78 26 -142.5t69 -109.5t100.5 -69.5 t120.5 -24.5t119.5 24.5t98.5 68.5t66.5 108.5t24.5 144.5v4q0 78 -24.5 142.5t-66.5 109.5t-98.5 69.5t-119.5 24.5t-120.5 -24.5t-100.5 -70.5t-69 -109.5t-26 -141.5v-4z" />
<glyph unicode="q" horiz-adv-x="1372" d="M100 539v4q0 135 42 239.5t112 176t161 108.5t187 37q133 0 222 -57.5t147 -133.5v168h248v-1409h-248v508q-59 -84 -147.5 -143.5t-221.5 -59.5q-94 0 -185 37t-161 109t-113 176t-43 240zM350 539q0 -78 24.5 -142.5t67.5 -109.5t100 -69.5t120 -24.5q61 0 118.5 24.5 t100.5 70.5t68.5 109.5t25.5 141.5v4q0 78 -25.5 142.5t-68.5 109.5t-100.5 69.5t-118.5 24.5q-63 0 -120 -23.5t-100 -68.5t-67.5 -109.5t-24.5 -144.5v-4z" />
<glyph unicode="r" horiz-adv-x="845" d="M156 0v1081h247v-243q51 122 145 196q87 68 217 68h21v-262h-14q-82 0 -149.5 -27t-116.5 -80t-76 -133t-27 -188v-412h-247z" />
<glyph unicode="s" d="M68 141l110 168q88 -66 179.5 -99.5t174.5 -33.5q80 0 124 32t44 85v4q0 31 -19 53.5t-53 40t-78 30.5t-91 28q-59 16 -119.5 38.5t-109 58.5t-79 89t-30.5 131v4q0 78 29.5 138.5t82 103.5t123 65.5t150.5 22.5q102 0 206.5 -33t190.5 -90l-98 -176q-78 47 -158 74.5 t-147 27.5q-72 0 -112 -30.5t-40 -77.5v-4q0 -29 20.5 -50.5t54.5 -39t78 -32t91 -30.5q59 -18 118.5 -43t107.5 -60.5t79 -87t31 -124.5v-5q0 -86 -31 -149.5t-85 -105t-128 -63t-158 -21.5q-117 0 -236.5 40.5t-221.5 120.5z" />
<glyph unicode="t" horiz-adv-x="839" d="M70 868v213h137v297h248v-297h290v-213h-290v-530q0 -72 34.5 -103.5t98.5 -31.5q80 0 153 37v-203q-47 -27 -100 -41t-123 -14q-68 0 -125 16t-99 53t-64.5 98.5t-22.5 149.5v569h-137z" />
<glyph unicode="u" horiz-adv-x="1269" d="M143 393v688h248v-614q0 -127 60.5 -195.5t171.5 -68.5q109 0 176 70.5t67 197.5v610h248v-1081h-248v168q-27 -39 -58.5 -73t-73.5 -60.5t-92.5 -42t-113.5 -15.5q-184 0 -284.5 113t-100.5 303z" />
<glyph unicode="v" horiz-adv-x="1218" d="M53 1081h266l291 -794l293 794h260l-442 -1089h-223z" />
<glyph unicode="w" horiz-adv-x="1763" d="M66 1081h253l218 -741l239 745h211l242 -745l221 741h248l-355 -1089h-221l-241 739l-244 -739h-221z" />
<glyph unicode="x" horiz-adv-x="1187" d="M61 0l398 549l-383 532h270l250 -356l250 356h264l-383 -526l399 -555h-270l-266 379l-264 -379h-265z" />
<glyph unicode="y" horiz-adv-x="1220" d="M53 1081h264l308 -802l280 802h258l-430 -1112q-33 -84 -67.5 -141t-77.5 -93t-94 -52.5t-117 -16.5q-78 0 -138.5 17.5t-117.5 48.5l84 184q35 -18 70.5 -29.5t74.5 -11.5q53 0 88 26.5t66 98.5z" />
<glyph unicode="z" horiz-adv-x="1146" d="M106 0v170l625 709h-602v202h918v-170l-625 -708h625v-203h-941z" />
<glyph unicode="{" horiz-adv-x="997" d="M106 494v188h54q129 0 180 52t51 173q0 12 -1 33t-1 41q0 23 -1 42t-1 32q0 80 20.5 144.5t72.5 114.5t142.5 88t229.5 62l43 -164q-92 -25 -147.5 -51t-84 -58t-38 -74t-9.5 -97q0 -31 2.5 -75t2.5 -77q0 -121 -55.5 -184t-157.5 -96q104 -35 158.5 -97.5t54.5 -183.5 q0 -33 -2.5 -77t-2.5 -74q0 -55 9.5 -97.5t38 -74t84 -58t147.5 -51.5l-43 -164q-139 25 -229.5 63t-142.5 88t-72.5 114.5t-20.5 144.5q0 12 1 31.5t1 40.5q0 23 1 43t1 32q0 121 -51 173.5t-180 52.5h-54z" />
<glyph unicode="|" horiz-adv-x="677" d="M240 -262v1896h198v-1896h-198z" />
<glyph unicode="}" horiz-adv-x="997" d="M102 -125q92 25 147.5 51.5t84 58t38 73.5t9.5 98q0 31 -2 74.5t-2 76.5q0 121 55 184.5t158 96.5q-104 35 -158.5 97.5t-54.5 182.5q0 33 2 77t2 75q0 55 -9.5 97t-38 74t-83.5 58.5t-148 50.5l43 164q139 -25 229.5 -62.5t142.5 -87.5t72.5 -114.5t20.5 -144.5 q0 -12 -1 -31.5t-1 -42.5q0 -20 -1 -40.5t-1 -33.5q0 -121 51.5 -173t180.5 -52h53v-188h-53q-129 0 -180.5 -52.5t-51.5 -173.5q0 -12 1 -32.5t1 -42.5q0 -20 1 -40t1 -32q0 -80 -20.5 -144.5t-72.5 -114.5t-142 -88t-230 -63z" />
<glyph unicode="~" horiz-adv-x="1013" d="M121 512q35 123 85 188.5t144 65.5q43 0 84 -12.5t78 -27.5t70.5 -28.5t60.5 -13.5q45 0 67.5 24.5t45.5 77.5l137 -41q-35 -125 -85 -190.5t-144 -65.5q-43 0 -84 13.5t-78 29t-71 27.5t-60 12q-45 0 -67.5 -24.5t-45.5 -77.5z" />
<glyph unicode="&#xa1;" horiz-adv-x="618" d="M164 0v72l78 909h137l76 -909v-72h-291zM174 1153v281h272v-281h-272z" />
<glyph unicode="&#xa2;" horiz-adv-x="1189" d="M106 723v4q0 117 42 219.5t117 179t177.5 120.5t223.5 44h18l31 156h180l-37 -182q76 -23 134.5 -65t107.5 -95l-150 -160q-33 33 -67.5 59.5t-73.5 43.5l-133 -668q86 2 154.5 39t127.5 94l144 -141q-80 -90 -186.5 -148.5t-258.5 -58.5h-12l-35 -176h-180l41 209 q-80 29 -147.5 80t-115.5 120.5t-75 152.5t-27 173zM348 727q0 -104 46 -187t128 -126l129 661q-66 -2 -121 -29.5t-96 -73.5t-63.5 -107.5t-22.5 -133.5v-4z" />
<glyph unicode="&#xa3;" horiz-adv-x="1318" d="M129 0v160l162 49v360h-162v213h162v189q0 113 32.5 204t94.5 152q123 127 344 127q86 0 153.5 -17.5t122 -48t97.5 -72.5t79 -91l-192 -154q-55 72 -113.5 111t-144.5 39q-47 0 -84 -14.5t-66 -43.5q-33 -35 -51 -84t-18 -114v-183h510v-213h-510v-350h665v-219h-1081z " />
<glyph unicode="&#xa4;" horiz-adv-x="1474" d="M106 461v174h158q-2 20 -2 39v39v4v45q0 25 4 47h-160v174h193q31 104 85 191.5t128 149.5t167 98t202 36q94 0 168.5 -20.5t134 -56t107.5 -85t89 -108.5l-190 -141q-66 90 -136.5 138t-179.5 48q-111 0 -191.5 -66.5t-123.5 -183.5h440v-174h-479q-2 -20 -3 -43t-1 -45 v-4q0 -23 1 -42.5t3 -39.5h479v-174h-442q41 -121 127 -190.5t207 -69.5q102 0 173 51t140 143l180 -131q-43 -63 -93 -116.5t-110.5 -91.5t-132 -59.5t-159.5 -21.5q-113 0 -210 35t-173 99.5t-130 153.5t-83 198h-187z" />
<glyph unicode="&#xa5;" horiz-adv-x="1404" d="M39 1434h293l375 -600l374 600h285l-475 -711h328v-182h-396v-150h396v-182h-396v-209h-241v209h-396v182h396v150h-396v182h326z" />
<glyph unicode="&#xa7;" horiz-adv-x="1294" d="M119 715v4q0 100 62.5 156.5t156.5 80.5q-55 35 -84 85.5t-29 109.5v4q0 137 106.5 218t295.5 81q152 0 269.5 -51t203.5 -143l-142 -140q-72 66 -151.5 106t-177.5 40q-82 0 -124 -28t-42 -73v-4q0 -20 11 -37.5t41 -35t83 -35t135 -35.5q119 -27 203 -55.5t137 -64.5 t78 -80t25 -99v-4q0 -98 -62.5 -155.5t-157.5 -82.5q53 -33 83 -84t30 -110v-4q0 -135 -105.5 -217t-295.5 -82q-152 0 -269.5 51t-203.5 143l141 139q72 -66 151.5 -105.5t178.5 -39.5q86 0 125.5 28.5t39.5 71.5v4q0 23 -12 41.5t-43 36t-83 32.5t-132 34 q-119 27 -203 56.5t-137 64t-77.5 78.5t-24.5 100zM342 750q0 -45 54.5 -78t185.5 -66q78 -20 128 -28.5t85 -8.5q70 0 113.5 32t43.5 79v4q0 45 -54 78t-185 65q-78 20 -128 28.5t-85 8.5q-70 0 -114 -31.5t-44 -78.5v-4z" />
<glyph unicode="&#xa8;" d="M182 1219v241h252v-241h-252zM590 1219v241h252v-241h-252z" />
<glyph unicode="&#xa9;" horiz-adv-x="1699" d="M109 713v4q0 152 57 286t157.5 235t236.5 160.5t292 59.5t291 -58.5t234.5 -158.5t156.5 -234.5t57 -285.5v-4q0 -152 -57 -286t-157.5 -235.5t-236.5 -161t-292 -59.5t-291 58.5t-234.5 159t-156.5 234.5t-57 286zM186 713q0 -137 50.5 -258t139.5 -211t210 -142.5 t262 -52.5t263 53.5t211 143.5t140 212t51 259v4q0 137 -50 258t-139 211t-210 142t-262 52t-263 -53t-211 -143t-140.5 -212t-51.5 -259v-4zM465 723v4q0 82 29.5 154.5t82 128t126 87t159.5 31.5q111 0 180.5 -33.5t124.5 -86.5l-96 -111q-45 41 -96 66.5t-113 25.5 q-51 0 -96 -20.5t-77 -55t-50 -83t-18 -101.5v-4q0 -53 18 -100t50 -83t77 -56.5t96 -20.5q70 0 118 25.5t95 70.5l99 -96q-61 -66 -133 -102.5t-183 -36.5q-84 0 -156.5 30.5t-125 85t-82 127t-29.5 154.5z" />
<glyph unicode="&#xaa;" horiz-adv-x="798" d="M109 578v118h553v-118h-553zM115 1010v4q0 96 68.5 143t176.5 47q49 0 85 -6t71 -16v10q0 125 -143 125q-47 0 -87 -11.5t-83 -27.5l-39 111q53 25 104 38t123 13q135 0 199 -68q33 -31 48 -78t15 -104v-352h-139v69q-33 -37 -77.5 -59.5t-110.5 -22.5q-43 0 -81 12.5 t-66.5 35t-46 57.5t-17.5 80zM256 1016q0 -41 29.5 -63.5t76.5 -22.5q66 0 110 34.5t44 88.5v37q-27 10 -57.5 16t-71.5 6q-61 0 -96 -24.5t-35 -67.5v-4z" />
<glyph unicode="&#xab;" horiz-adv-x="1241" d="M90 532v17l340 450l188 -96l-270 -360l270 -363l-188 -96zM606 532v17l338 450l189 -96l-271 -360l271 -363l-189 -96z" />
<glyph unicode="&#xad;" horiz-adv-x="835" d="M115 506v244h606v-244h-606z" />
<glyph unicode="&#xae;" horiz-adv-x="1699" d="M109 713v4q0 152 57 286t157.5 235t236.5 160.5t292 59.5t291 -58.5t234.5 -158.5t156.5 -234.5t57 -285.5v-4q0 -152 -57 -286t-157.5 -235.5t-236.5 -161t-292 -59.5t-291 58.5t-234.5 159t-156.5 234.5t-57 286zM186 713q0 -137 50.5 -258t139.5 -211t210 -142.5 t262 -52.5t263 53.5t211 143.5t140 212t51 259v4q0 137 -50 258t-139 211t-210 142t-262 52t-263 -53t-211 -143t-140.5 -212t-51.5 -259v-4zM551 350v776h346q152 0 236 -84q63 -59 63 -161v-4q0 -94 -50 -152.5t-130 -81.5l209 -293h-176l-189 268h-4h-158v-268h-147z M698 748h193q72 0 112.5 32.5t40.5 87.5v4q0 59 -40.5 90t-112.5 31h-193v-245z" />
<glyph unicode="&#xaf;" d="M162 1229v182h700v-182h-700z" />
<glyph unicode="&#xb0;" horiz-adv-x="964" d="M141 1112v4q0 68 28 127.5t75 104.5t108.5 71.5t128.5 26.5q68 0 129.5 -26.5t109.5 -71.5t75.5 -104.5t27.5 -127.5v-4q0 -68 -27.5 -127t-75.5 -105t-109.5 -73t-129.5 -27t-129 27t-108 73t-75 105t-28 127zM289 1112q0 -39 14 -75t40 -62.5t61.5 -43t76.5 -16.5 q43 0 78 16.5t61.5 43t41 62.5t14.5 75v4q0 39 -14.5 75t-41 62.5t-61.5 42t-78 15.5q-41 0 -76.5 -15.5t-61.5 -42t-40 -62.5t-14 -75v-4z" />
<glyph unicode="&#xb1;" horiz-adv-x="1249" d="M80 225l174 162q76 -86 169 -135t218 -49q119 0 187.5 56t68.5 151v4q0 98 -83 150t-232 52h-154v213h160q125 0 197.5 56.5t72.5 148.5v4q0 86 -65.5 139.5t-182.5 53.5q-104 0 -179 -48t-146 -132l-176 143q92 121 209.5 192.5t295.5 71.5q111 0 202 -28.5t155.5 -80 t100.5 -121t36 -153.5v-4q0 -135 -62.5 -214t-150.5 -122q53 -20 99 -49t80 -67.5t53.5 -90t19.5 -116.5v-4q0 -92 -35 -171t-100.5 -137.5t-159.5 -91.5t-215 -33q-176 0 -317.5 69t-239.5 181z" />
<glyph unicode="&#xb4;" d="M328 1219l217 335l225 -100l-250 -235h-192z" />
<glyph unicode="&#xb5;" horiz-adv-x="1740" d="M121 713v4q0 152 55 286t155.5 235t238 160.5t302.5 59.5q166 0 303.5 -58.5t235.5 -158.5t153.5 -234.5t55.5 -285.5v-4q0 -164 -64.5 -307.5t-181.5 -247.5l359 -352v-17h-369l-240 227q-59 -23 -122.5 -34t-133.5 -11q-166 0 -303 58.5t-235.5 159t-153.5 234.5 t-55 286zM385 717q0 -104 36 -197.5t100.5 -162t154.5 -109.5t196 -41t195.5 40t153 108.5t99.5 160.5t36 197v4q0 104 -36 197.5t-100.5 162t-154.5 109.5t-197 41q-106 0 -195 -40t-152.5 -108.5t-99.5 -161t-36 -196.5v-4z" />
<glyph unicode="&#xb6;" horiz-adv-x="1140" d="M82 965v4q0 109 41 195.5t113.5 146t175 91.5t225.5 32h326v-1434h-254v500h-37q-125 0 -233.5 29.5t-187.5 88t-124 145.5t-45 202z" />
<glyph unicode="&#xb7;" horiz-adv-x="550" d="M139 487v281h273v-281h-273z" />
<glyph unicode="&#xb8;" d="M268 -248l185 268h186l-154 -358z" />
<glyph unicode="&#xba;" horiz-adv-x="798" d="M90 1130v5q0 63 23.5 119.5t65.5 98.5t98.5 66.5t123.5 24.5q66 0 122.5 -24.5t97.5 -65.5t64.5 -97.5t23.5 -119.5v-4q0 -63 -23.5 -120t-65.5 -99t-98.5 -66.5t-124.5 -24.5q-66 0 -122 24.5t-97 65.5t-64.5 97.5t-23.5 119.5zM104 578v118h590v-118h-590zM233 1133 q0 -74 47 -128.5t121 -54.5q76 0 120 53.5t44 126.5v5q0 74 -47 128t-121 54q-76 0 -120 -53.5t-44 -126.5v-4z" />
<glyph unicode="&#xbb;" horiz-adv-x="1241" d="M109 178l270 361l-270 362l188 98l338 -450v-17l-338 -448zM623 178l270 361l-270 362l188 98l340 -450v-17l-340 -448z" />
<glyph unicode="&#xbf;" horiz-adv-x="1107" d="M86 397v4q0 96 33 168t88 121t130 80t161 45l20 166h166l41 -332l-10 -10q-197 -8 -288 -67.5t-91 -161.5v-4q0 -86 62.5 -140.5t172.5 -54.5q98 0 179 42t155 120l154 -164q-90 -102 -209 -164.5t-285 -62.5q-106 0 -195 28.5t-151.5 82.5t-97.5 131t-35 173zM469 1153 v281h274v-281h-274z" />
<glyph unicode="&#xc0;" horiz-adv-x="1617" d="M61 0l631 1444h234l630 -1444h-266l-145 346h-678l-148 -346h-258zM469 1788l225 100l217 -336h-192zM559 569h494l-248 574z" />
<glyph unicode="&#xc1;" horiz-adv-x="1617" d="M61 0l631 1444h234l630 -1444h-266l-145 346h-678l-148 -346h-258zM559 569h494l-248 574zM707 1552l217 336l225 -100l-250 -236h-192z" />
<glyph unicode="&#xc2;" horiz-adv-x="1617" d="M61 0l631 1444h234l630 -1444h-266l-145 346h-678l-148 -346h-258zM457 1550l237 299h230l237 -299h-196l-158 138l-158 -138h-192zM559 569h494l-248 574z" />
<glyph unicode="&#xc3;" horiz-adv-x="1617" d="M61 0l631 1444h234l630 -1444h-266l-145 346h-678l-148 -346h-258zM422 1573q35 125 85 190.5t144 65.5q43 0 84 -12.5t79 -27.5t72 -28.5t60 -13.5q45 0 67.5 24.5t45.5 77.5l137 -43q-35 -123 -85 -188.5t-144 -65.5q-43 0 -84 13.5t-79 29t-71 27.5t-61 12 q-45 0 -67.5 -24.5t-45.5 -77.5zM559 569h494l-248 574z" />
<glyph unicode="&#xc4;" horiz-adv-x="1617" d="M61 0l631 1444h234l630 -1444h-266l-145 346h-678l-148 -346h-258zM479 1552v242h252v-242h-252zM559 569h494l-248 574zM887 1552v242h252v-242h-252z" />
<glyph unicode="&#xc5;" horiz-adv-x="1617" d="M61 0l611 1401q-41 31 -69 77t-28 101v4q0 45 19.5 86t51.5 72t75 48t88 17q47 0 89 -17t74 -48t51 -72t19 -86v-4q0 -55 -27.5 -101t-68.5 -77l610 -1401h-266l-145 346h-678l-148 -346h-258zM559 569h494l-248 574zM682 1579q0 -51 37 -88t90 -37t90 37t37 88v4 q0 51 -37 88t-90 37t-90 -37t-37 -88v-4z" />
<glyph unicode="&#xc6;" horiz-adv-x="2140" d="M25 0l800 1434h1190v-226h-766v-372h674v-226h-674v-385h776v-225h-1028v346h-522l-190 -346h-260zM596 569h401v645h-41z" />
<glyph unicode="&#xc7;" horiz-adv-x="1511" d="M121 713v4q0 154 54 288t152.5 235t234.5 159.5t298 58.5q98 0 179 -16.5t148.5 -46t125 -70.5t108.5 -90l-161 -186q-86 80 -182.5 129t-219.5 49q-102 0 -189 -40t-149.5 -108.5t-98.5 -161t-36 -196.5v-4q0 -104 36 -197.5t98.5 -163t149.5 -109.5t189 -40 q66 0 121 13t104.5 37t95.5 58.5t91 77.5l162 -164q-51 -55 -107.5 -99t-121 -77t-140.5 -52t-168 -24l-135 -315l-215 90l162 238q-129 25 -237 89t-185.5 159.5t-120.5 217.5t-43 257z" />
<glyph unicode="&#xc8;" horiz-adv-x="1372" d="M184 0v1434h1063v-226h-811v-372h719v-226h-719v-385h821v-225h-1073zM420 1788l225 100l217 -336h-192z" />
<glyph unicode="&#xc9;" horiz-adv-x="1372" d="M184 0v1434h1063v-226h-811v-372h719v-226h-719v-385h821v-225h-1073zM567 1552l217 336l226 -100l-250 -236h-193z" />
<glyph unicode="&#xca;" horiz-adv-x="1372" d="M184 0v1434h1063v-226h-811v-372h719v-226h-719v-385h821v-225h-1073zM358 1552l238 299h229l238 -299h-197l-157 138l-158 -138h-193z" />
<glyph unicode="&#xcb;" horiz-adv-x="1372" d="M184 0v1434h1063v-226h-811v-372h719v-226h-719v-385h821v-225h-1073zM381 1552v242h252v-242h-252zM788 1552v242h252v-242h-252z" />
<glyph unicode="&#xcc;" horiz-adv-x="649" d="M-12 1788l225 100l217 -336h-192zM199 0v1434h252v-1434h-252z" />
<glyph unicode="&#xcd;" horiz-adv-x="649" d="M199 0v1434h252v-1434h-252zM221 1552l217 336l226 -100l-250 -236h-193z" />
<glyph unicode="&#xce;" horiz-adv-x="649" d="M-27 1552l238 299h229l238 -299h-197l-157 138l-158 -138h-193zM199 0v1434h252v-1434h-252z" />
<glyph unicode="&#xcf;" horiz-adv-x="649" d="M-4 1552v242h252v-242h-252zM199 0v1434h252v-1434h-252zM403 1552v242h252v-242h-252z" />
<glyph unicode="&#xd0;" horiz-adv-x="1662" d="M92 608v226h154v600h534q170 0 309.5 -54.5t241 -150.5t156.5 -226.5t55 -281.5v-4q0 -152 -55 -283t-156.5 -227t-241 -151.5t-309.5 -55.5h-534v608h-154zM496 229h284q113 0 205 36t156.5 100.5t100.5 153.5t36 194v4q0 104 -36 194t-100.5 154.5t-156.5 101.5 t-205 37h-284v-370h360v-226h-360v-379z" />
<glyph unicode="&#xd1;" horiz-adv-x="1617" d="M184 0v1434h234l768 -992v992h248v-1434h-211l-791 1020v-1020h-248zM422 1573q35 125 85 190.5t144 65.5q43 0 84 -12.5t79 -27.5t72 -28.5t60 -13.5q45 0 67.5 24.5t45.5 77.5l137 -43q-35 -123 -85 -188.5t-144 -65.5q-43 0 -84 13.5t-79 29t-71 27.5t-61 12 q-45 0 -67.5 -24.5t-45.5 -77.5z" />
<glyph unicode="&#xd2;" horiz-adv-x="1740" d="M121 713v4q0 152 55 286t155.5 235t238 160.5t302.5 59.5q166 0 303.5 -58.5t235.5 -158.5t153.5 -234.5t55.5 -285.5v-4q0 -152 -55.5 -286t-155.5 -235.5t-237.5 -161t-303.5 -59.5t-303 58.5t-235.5 159t-153.5 234.5t-55 286zM385 717q0 -104 36 -197.5t100.5 -162 t154.5 -109.5t196 -41t195.5 40t153 108.5t99.5 160.5t36 197v4q0 104 -36 197.5t-100.5 162t-154.5 109.5t-197 41q-106 0 -195 -40t-152.5 -108.5t-99.5 -161t-36 -196.5v-4zM516 1788l225 100l217 -336h-192z" />
<glyph unicode="&#xd3;" horiz-adv-x="1740" d="M121 713v4q0 152 55 286t155.5 235t238 160.5t302.5 59.5q166 0 303.5 -58.5t235.5 -158.5t153.5 -234.5t55.5 -285.5v-4q0 -152 -55.5 -286t-155.5 -235.5t-237.5 -161t-303.5 -59.5t-303 58.5t-235.5 159t-153.5 234.5t-55 286zM385 717q0 -104 36 -197.5t100.5 -162 t154.5 -109.5t196 -41t195.5 40t153 108.5t99.5 160.5t36 197v4q0 104 -36 197.5t-100.5 162t-154.5 109.5t-197 41q-106 0 -195 -40t-152.5 -108.5t-99.5 -161t-36 -196.5v-4zM782 1552l217 336l226 -100l-250 -236h-193z" />
<glyph unicode="&#xd4;" horiz-adv-x="1740" d="M121 713v4q0 152 55 286t155.5 235t238 160.5t302.5 59.5q166 0 303.5 -58.5t235.5 -158.5t153.5 -234.5t55.5 -285.5v-4q0 -152 -55.5 -286t-155.5 -235.5t-237.5 -161t-303.5 -59.5t-303 58.5t-235.5 159t-153.5 234.5t-55 286zM385 717q0 -104 36 -197.5t100.5 -162 t154.5 -109.5t196 -41t195.5 40t153 108.5t99.5 160.5t36 197v4q0 104 -36 197.5t-100.5 162t-154.5 109.5t-197 41q-106 0 -195 -40t-152.5 -108.5t-99.5 -161t-36 -196.5v-4zM518 1552l238 299h229l238 -299h-197l-158 138l-157 -138h-193z" />
<glyph unicode="&#xd5;" horiz-adv-x="1740" d="M121 713v4q0 152 55 286t155.5 235t238 160.5t302.5 59.5q166 0 303.5 -58.5t235.5 -158.5t153.5 -234.5t55.5 -285.5v-4q0 -152 -55.5 -286t-155.5 -235.5t-237.5 -161t-303.5 -59.5t-303 58.5t-235.5 159t-153.5 234.5t-55 286zM385 717q0 -104 36 -197.5t100.5 -162 t154.5 -109.5t196 -41t195.5 40t153 108.5t99.5 160.5t36 197v4q0 104 -36 197.5t-100.5 162t-154.5 109.5t-197 41q-106 0 -195 -40t-152.5 -108.5t-99.5 -161t-36 -196.5v-4zM483 1573q35 125 85 190.5t145 65.5q43 0 84 -12.5t78.5 -27.5t71.5 -28.5t61 -13.5 q45 0 67.5 24.5t44.5 77.5l137 -43q-35 -123 -85 -188.5t-144 -65.5q-43 0 -84 13.5t-79 29t-70.5 27.5t-61.5 12q-45 0 -67.5 -24.5t-44.5 -77.5z" />
<glyph unicode="&#xd6;" horiz-adv-x="1740" d="M121 713v4q0 152 55 286t155.5 235t238 160.5t302.5 59.5q166 0 303.5 -58.5t235.5 -158.5t153.5 -234.5t55.5 -285.5v-4q0 -152 -55.5 -286t-155.5 -235.5t-237.5 -161t-303.5 -59.5t-303 58.5t-235.5 159t-153.5 234.5t-55 286zM385 717q0 -104 36 -197.5t100.5 -162 t154.5 -109.5t196 -41t195.5 40t153 108.5t99.5 160.5t36 197v4q0 104 -36 197.5t-100.5 162t-154.5 109.5t-197 41q-106 0 -195 -40t-152.5 -108.5t-99.5 -161t-36 -196.5v-4zM541 1552v242h252v-242h-252zM948 1552v242h252v-242h-252z" />
<glyph unicode="&#xd8;" horiz-adv-x="1740" d="M104 -10l203 227q-90 98 -138 226t-48 270v4q0 152 55 286t155.5 235t238 160.5t302.5 59.5q121 0 225.5 -31.5t192.5 -91.5l99 109h247l-202 -230q90 -98 138 -225t48 -268v-4q0 -152 -55.5 -286t-155.5 -235.5t-237.5 -161t-303.5 -59.5q-121 0 -225 32t-192 91 l-99 -108h-248zM381 717q0 -174 94 -305l655 737q-53 39 -119.5 60.5t-142.5 21.5q-106 0 -196 -40t-154.5 -109.5t-100.5 -163t-36 -197.5v-4zM610 285q53 -39 119.5 -60.5t142.5 -21.5q106 0 196.5 40t155 109.5t100.5 162.5t36 198v4q0 174 -94 305z" />
<glyph unicode="&#xd9;" horiz-adv-x="1550" d="M162 608v826h252v-816q0 -201 96 -305t266 -104q168 0 264.5 100.5t96.5 298.5v826h252v-813q0 -160 -44.5 -281t-124 -202t-193.5 -121t-255 -40q-139 0 -251.5 40t-192.5 120t-123 198t-43 273zM449 1778l225 100l217 -336h-193z" />
<glyph unicode="&#xda;" horiz-adv-x="1550" d="M162 608v826h252v-816q0 -201 96 -305t266 -104q168 0 264.5 100.5t96.5 298.5v826h252v-813q0 -160 -44.5 -281t-124 -202t-193.5 -121t-255 -40q-139 0 -251.5 40t-192.5 120t-123 198t-43 273zM659 1542l218 336l225 -100l-250 -236h-193z" />
<glyph unicode="&#xdb;" horiz-adv-x="1550" d="M162 608v826h252v-816q0 -201 96 -305t266 -104q168 0 264.5 100.5t96.5 298.5v826h252v-813q0 -160 -44.5 -281t-124 -202t-193.5 -121t-255 -40q-139 0 -251.5 40t-192.5 120t-123 198t-43 273zM424 1550l238 299h229l237 -299h-196l-158 138l-158 -138h-192z" />
<glyph unicode="&#xdc;" horiz-adv-x="1550" d="M162 608v826h252v-816q0 -201 96 -305t266 -104q168 0 264.5 100.5t96.5 298.5v826h252v-813q0 -160 -44.5 -281t-124 -202t-193.5 -121t-255 -40q-139 0 -251.5 40t-192.5 120t-123 198t-43 273zM446 1550v242h252v-242h-252zM854 1550v242h252v-242h-252z" />
<glyph unicode="&#xdd;" horiz-adv-x="1466" d="M37 1434h297l401 -635l406 635h289l-570 -863v-571h-254v565zM637 1542l217 336l225 -100l-250 -236h-192z" />
<glyph unicode="&#xde;" horiz-adv-x="1378" d="M184 0v1434h252v-226h314q125 0 226 -33.5t172 -97t108.5 -150.5t37.5 -196v-4q0 -121 -45 -213t-122.5 -153.5t-182 -92t-223.5 -30.5h-285v-238h-252zM436 463h293q143 0 226 72.5t83 185.5v4q0 127 -84 191.5t-225 64.5h-293v-518z" />
<glyph unicode="&#xdf;" horiz-adv-x="1269" d="M156 0v1028q0 111 33.5 200t97 151.5t153.5 96t203 33.5q104 0 186 -29.5t138.5 -81.5t86 -123t29.5 -151v-4q0 -70 -18 -124t-49 -96t-72 -73.5t-86 -56.5q59 -20 115.5 -51t99.5 -75t69.5 -102.5t26.5 -135.5v-5q0 -98 -39.5 -176t-112.5 -130t-177.5 -77.5 t-233.5 -21.5v190q150 4 233 60.5t83 161.5v4q0 100 -87 158.5t-229 74.5v168q98 47 165 114.5t67 170.5v4q0 90 -56.5 143t-150.5 53q-102 0 -166 -70.5t-64 -191.5v-1036h-245z" />
<glyph unicode="&#xe0;" horiz-adv-x="1202" d="M82 311v4q0 90 32.5 157t91 111t139.5 65.5t175 21.5q98 0 167 -12.5t132 -32.5v20q0 113 -68.5 172.5t-197.5 59.5q-92 0 -164 -18.5t-145 -49.5l-68 199q90 41 184.5 65.5t227.5 24.5q242 0 358.5 -120t116.5 -337v-641h-246v133q-55 -66 -141 -111t-209 -45 q-76 0 -146.5 21.5t-123 63.5t-84 104.5t-31.5 144.5zM276 1454l226 100l217 -335h-193zM328 324q0 -78 60.5 -119t148.5 -41q61 0 113 16.5t91 46t60.5 71.5t21.5 93v62q-47 18 -111.5 30.5t-136.5 12.5q-117 0 -182 -45t-65 -123v-4z" />
<glyph unicode="&#xe1;" horiz-adv-x="1202" d="M82 311v4q0 90 32.5 157t91 111t139.5 65.5t175 21.5q98 0 167 -12.5t132 -32.5v20q0 113 -68.5 172.5t-197.5 59.5q-92 0 -164 -18.5t-145 -49.5l-68 199q90 41 184.5 65.5t227.5 24.5q242 0 358.5 -120t116.5 -337v-641h-246v133q-55 -66 -141 -111t-209 -45 q-76 0 -146.5 21.5t-123 63.5t-84 104.5t-31.5 144.5zM328 324q0 -78 60.5 -119t148.5 -41q61 0 113 16.5t91 46t60.5 71.5t21.5 93v62q-47 18 -111.5 30.5t-136.5 12.5q-117 0 -182 -45t-65 -123v-4zM481 1219l217 335l226 -100l-250 -235h-193z" />
<glyph unicode="&#xe2;" horiz-adv-x="1202" d="M82 311v4q0 90 32.5 157t91 111t139.5 65.5t175 21.5q98 0 167 -12.5t132 -32.5v20q0 113 -68.5 172.5t-197.5 59.5q-92 0 -164 -18.5t-145 -49.5l-68 199q90 41 184.5 65.5t227.5 24.5q242 0 358.5 -120t116.5 -337v-641h-246v133q-55 -66 -141 -111t-209 -45 q-76 0 -146.5 21.5t-123 63.5t-84 104.5t-31.5 144.5zM248 1219l237 299h230l237 -299h-196l-158 137l-158 -137h-192zM328 324q0 -78 60.5 -119t148.5 -41q61 0 113 16.5t91 46t60.5 71.5t21.5 93v62q-47 18 -111.5 30.5t-136.5 12.5q-117 0 -182 -45t-65 -123v-4z" />
<glyph unicode="&#xe3;" horiz-adv-x="1202" d="M82 311v4q0 90 32.5 157t91 111t139.5 65.5t175 21.5q98 0 167 -12.5t132 -32.5v20q0 113 -68.5 172.5t-197.5 59.5q-92 0 -164 -18.5t-145 -49.5l-68 199q90 41 184.5 65.5t227.5 24.5q242 0 358.5 -120t116.5 -337v-641h-246v133q-55 -66 -141 -111t-209 -45 q-76 0 -146.5 21.5t-123 63.5t-84 104.5t-31.5 144.5zM215 1239q35 125 85 190.5t144 65.5q43 0 84 -12.5t79 -27.5t72 -28.5t60 -13.5q45 0 67.5 24.5t45.5 78.5l137 -43q-35 -123 -85 -188.5t-144 -65.5q-43 0 -84 13t-79 28.5t-70.5 27.5t-61.5 12q-45 0 -67.5 -24.5 t-45.5 -77.5zM328 324q0 -78 60.5 -119t148.5 -41q61 0 113 16.5t91 46t60.5 71.5t21.5 93v62q-47 18 -111.5 30.5t-136.5 12.5q-117 0 -182 -45t-65 -123v-4z" />
<glyph unicode="&#xe4;" horiz-adv-x="1202" d="M82 311v4q0 90 32.5 157t91 111t139.5 65.5t175 21.5q98 0 167 -12.5t132 -32.5v20q0 113 -68.5 172.5t-197.5 59.5q-92 0 -164 -18.5t-145 -49.5l-68 199q90 41 184.5 65.5t227.5 24.5q242 0 358.5 -120t116.5 -337v-641h-246v133q-55 -66 -141 -111t-209 -45 q-76 0 -146.5 21.5t-123 63.5t-84 104.5t-31.5 144.5zM270 1219v241h252v-241h-252zM328 324q0 -78 60.5 -119t148.5 -41q61 0 113 16.5t91 46t60.5 71.5t21.5 93v62q-47 18 -111.5 30.5t-136.5 12.5q-117 0 -182 -45t-65 -123v-4zM678 1219v241h252v-241h-252z" />
<glyph unicode="&#xe5;" horiz-adv-x="1202" d="M82 311v4q0 90 32.5 157t91 111t139.5 65.5t175 21.5q98 0 167 -12.5t132 -32.5v20q0 113 -68.5 172.5t-197.5 59.5q-92 0 -164 -18.5t-145 -49.5l-68 199q90 41 184.5 65.5t227.5 24.5q242 0 358.5 -120t116.5 -337v-641h-246v133q-55 -66 -141 -111t-209 -45 q-76 0 -146.5 21.5t-123 63.5t-84 104.5t-31.5 144.5zM328 324q0 -78 60.5 -119t148.5 -41q61 0 113 16.5t91 46t60.5 71.5t21.5 93v62q-47 18 -111.5 30.5t-136.5 12.5q-117 0 -182 -45t-65 -123v-4zM367 1438v4q0 45 19.5 86t51 71.5t74.5 48t88 17.5q47 0 89 -17.5 t74 -48t51.5 -71.5t19.5 -86v-4q0 -45 -19.5 -86t-51.5 -72t-74 -48.5t-89 -17.5q-45 0 -88 17.5t-74.5 48.5t-51 72t-19.5 86zM473 1438q0 -51 37 -88t90 -37t90 36.5t37 88.5v4q0 51 -37 88t-90 37t-90 -37t-37 -88v-4z" />
<glyph unicode="&#xe6;" horiz-adv-x="1949" d="M82 311v4q0 90 32.5 157t91 111t138.5 65.5t172 21.5q102 0 168 -12.5t129 -32.5v20q0 231 -264 232q-88 0 -160 -18.5t-145 -49.5l-68 199q90 41 184.5 65.5t223.5 24.5q133 0 231 -46t148 -132q66 86 162 135t216 49q127 0 222.5 -47t160 -127t97 -185.5t32.5 -222.5 v-35q0 -16 -2 -34h-794q23 -133 106.5 -204t202.5 -71q92 0 160.5 33t134.5 96l145 -129q-78 -92 -185.5 -147.5t-258.5 -55.5q-127 0 -235.5 49.5t-182.5 135.5q-92 -76 -203.5 -129.5t-248.5 -53.5q-84 0 -159 21.5t-130.5 63.5t-88 104.5t-32.5 144.5zM328 324 q0 -78 59 -119t145 -41q90 0 169 37t151 102q-14 35 -24.5 74t-14.5 82q-47 16 -106.5 26.5t-135.5 10.5q-115 0 -179 -45t-64 -123v-4zM1053 616h557q-6 59 -26.5 111.5t-55.5 91.5t-83 60.5t-110 21.5q-117 0 -191.5 -79t-90.5 -206z" />
<glyph unicode="&#xe7;" horiz-adv-x="1169" d="M96 535v4q0 115 42 218t117 180t178.5 122t223.5 45q154 0 255.5 -51.5t177.5 -134.5l-154 -166q-57 59 -121.5 97t-159.5 38q-68 0 -125 -28t-98 -74t-64.5 -108.5t-23.5 -133.5v-4q0 -72 23.5 -135.5t66.5 -110.5t102.5 -75t131.5 -28q88 0 154.5 38t125.5 98l150 -148 q-76 -82 -168 -137t-232 -64l-133 -315l-217 90l164 242q-92 23 -169 74t-131 121.5t-85 158.5t-31 187z" />
<glyph unicode="&#xe8;" horiz-adv-x="1236" d="M96 537v4q0 117 39 219t109.5 179t167 121t213.5 44q129 0 226 -47t161.5 -127t97.5 -185.5t33 -222.5q0 -16 -1 -33.5t-3 -35.5h-795q20 -133 105.5 -204t205.5 -71q92 0 160 33t133 96l146 -129q-78 -92 -185.5 -147.5t-257.5 -55.5q-117 0 -218 41t-176 115 t-118 177.5t-43 228.5zM285 1454l225 100l217 -335h-192zM342 616h555q-6 59 -26.5 111.5t-55.5 91.5t-83 60.5t-109 21.5q-115 0 -190 -79t-91 -206z" />
<glyph unicode="&#xe9;" horiz-adv-x="1236" d="M96 537v4q0 117 39 219t109.5 179t167 121t213.5 44q129 0 226 -47t161.5 -127t97.5 -185.5t33 -222.5q0 -16 -1 -33.5t-3 -35.5h-795q20 -133 105.5 -204t205.5 -71q92 0 160 33t133 96l146 -129q-78 -92 -185.5 -147.5t-257.5 -55.5q-117 0 -218 41t-176 115 t-118 177.5t-43 228.5zM342 616h555q-6 59 -26.5 111.5t-55.5 91.5t-83 60.5t-109 21.5q-115 0 -190 -79t-91 -206zM510 1219l217 335l225 -100l-250 -235h-192z" />
<glyph unicode="&#xea;" horiz-adv-x="1236" d="M96 537v4q0 117 39 219t109.5 179t167 121t213.5 44q129 0 226 -47t161.5 -127t97.5 -185.5t33 -222.5q0 -16 -1 -33.5t-3 -35.5h-795q20 -133 105.5 -204t205.5 -71q92 0 160 33t133 96l146 -129q-78 -92 -185.5 -147.5t-257.5 -55.5q-117 0 -218 41t-176 115 t-118 177.5t-43 228.5zM268 1219l238 299h229l238 -299h-197l-158 137l-157 -137h-193zM342 616h555q-6 59 -26.5 111.5t-55.5 91.5t-83 60.5t-109 21.5q-115 0 -190 -79t-91 -206z" />
<glyph unicode="&#xeb;" horiz-adv-x="1236" d="M96 537v4q0 117 39 219t109.5 179t167 121t213.5 44q129 0 226 -47t161.5 -127t97.5 -185.5t33 -222.5q0 -16 -1 -33.5t-3 -35.5h-795q20 -133 105.5 -204t205.5 -71q92 0 160 33t133 96l146 -129q-78 -92 -185.5 -147.5t-257.5 -55.5q-117 0 -218 41t-176 115 t-118 177.5t-43 228.5zM291 1219v241h252v-241h-252zM342 616h555q-6 59 -26.5 111.5t-55.5 91.5t-83 60.5t-109 21.5q-115 0 -190 -79t-91 -206zM698 1219v241h252v-241h-252z" />
<glyph unicode="&#xec;" horiz-adv-x="585" d="M-43 1454l225 100l217 -335h-192zM170 0v1081h248v-1081h-248z" />
<glyph unicode="&#xed;" horiz-adv-x="585" d="M170 0v1081h248v-1081h-248zM186 1219l217 335l226 -100l-250 -235h-193z" />
<glyph unicode="&#xee;" horiz-adv-x="585" d="M-59 1219l237 299h230l237 -299h-196l-158 137l-158 -137h-192zM170 0v1081h248v-1081h-248z" />
<glyph unicode="&#xef;" horiz-adv-x="585" d="M-37 1219v241h252v-241h-252zM170 0v1081h248v-1081h-248zM371 1219v241h252v-241h-252z" />
<glyph unicode="&#xf0;" horiz-adv-x="1314" d="M96 508v4q0 109 37 197t100.5 152.5t150.5 99t187 34.5q88 0 154 -21.5t131 -62.5l-215 293l-244 -108l-98 129l248 108l-119 162h285l49 -72l203 88l96 -129l-209 -90l182 -264q92 -129 136 -244.5t44 -253.5v-4q0 -111 -38.5 -211t-111.5 -174.5t-178.5 -120 t-238.5 -45.5q-119 0 -220 42t-175 114t-115 169t-41 208zM340 502q0 -63 23.5 -120.5t65.5 -100.5t100 -69t128 -26q72 0 129.5 26t98.5 69t63.5 100t22.5 121v4q0 63 -23.5 119.5t-65.5 97.5t-101.5 65.5t-131.5 24.5q-70 0 -127 -23.5t-98 -64.5t-62.5 -97.5 t-21.5 -121.5v-4z" />
<glyph unicode="&#xf1;" horiz-adv-x="1269" d="M156 0v1081h247v-168q53 78 133 134.5t205 56.5q184 0 284.5 -112.5t100.5 -303.5v-688h-247v614q0 127 -60.5 196t-171.5 69q-109 0 -176.5 -71t-67.5 -198v-610h-247zM256 1239q35 125 85 190.5t144 65.5q43 0 84 -12.5t80 -27.5t73 -28.5t60 -13.5q45 0 67.5 24.5 t45.5 78.5l137 -43q-35 -123 -85 -188.5t-144 -65.5q-43 0 -84 13t-79 28.5t-71.5 27.5t-62.5 12q-45 0 -67.5 -24.5t-45.5 -77.5z" />
<glyph unicode="&#xf2;" horiz-adv-x="1345" d="M96 535v4q0 117 44 219t121 179t182.5 122t230.5 45t230.5 -44t182 -121t119.5 -178.5t43 -217.5v-4q0 -115 -44 -217.5t-120.5 -179t-183 -122t-231.5 -45.5q-123 0 -228.5 44t-182.5 120t-120 178.5t-43 217.5zM326 1454l225 100l217 -335h-193zM344 539 q0 -70 24.5 -133.5t68.5 -111.5t104.5 -76t132.5 -28q76 0 136 28t103 75t65.5 109.5t22.5 132.5v4q0 72 -24.5 135t-68.5 110t-104.5 75t-133.5 28q-74 0 -134.5 -28t-103.5 -74t-65.5 -108.5t-22.5 -133.5v-4z" />
<glyph unicode="&#xf3;" horiz-adv-x="1345" d="M96 535v4q0 117 44 219t121 179t182.5 122t230.5 45t230.5 -44t182 -121t119.5 -178.5t43 -217.5v-4q0 -115 -44 -217.5t-120.5 -179t-183 -122t-231.5 -45.5q-123 0 -228.5 44t-182.5 120t-120 178.5t-43 217.5zM344 539q0 -70 24.5 -133.5t68.5 -111.5t104.5 -76 t132.5 -28q76 0 136 28t103 75t65.5 109.5t22.5 132.5v4q0 72 -24.5 135t-68.5 110t-104.5 75t-133.5 28q-74 0 -134.5 -28t-103.5 -74t-65.5 -108.5t-22.5 -133.5v-4zM575 1219l218 335l225 -100l-250 -235h-193z" />
<glyph unicode="&#xf4;" horiz-adv-x="1345" d="M96 535v4q0 117 44 219t121 179t182.5 122t230.5 45t230.5 -44t182 -121t119.5 -178.5t43 -217.5v-4q0 -115 -44 -217.5t-120.5 -179t-183 -122t-231.5 -45.5q-123 0 -228.5 44t-182.5 120t-120 178.5t-43 217.5zM319 1219l238 299h229l238 -299h-197l-157 137l-158 -137 h-193zM344 539q0 -70 24.5 -133.5t68.5 -111.5t104.5 -76t132.5 -28q76 0 136 28t103 75t65.5 109.5t22.5 132.5v4q0 72 -24.5 135t-68.5 110t-104.5 75t-133.5 28q-74 0 -134.5 -28t-103.5 -74t-65.5 -108.5t-22.5 -133.5v-4z" />
<glyph unicode="&#xf5;" horiz-adv-x="1345" d="M96 535v4q0 117 44 219t121 179t182.5 122t230.5 45t230.5 -44t182 -121t119.5 -178.5t43 -217.5v-4q0 -115 -44 -217.5t-120.5 -179t-183 -122t-231.5 -45.5q-123 0 -228.5 44t-182.5 120t-120 178.5t-43 217.5zM285 1239q35 125 85 190.5t144 65.5q43 0 84 -12.5 t79 -27.5t71.5 -28.5t60.5 -13.5q45 0 67.5 24.5t45.5 78.5l137 -43q-35 -123 -85 -188.5t-145 -65.5q-43 0 -83.5 13t-78.5 28.5t-71 27.5t-61 12q-45 0 -68 -24.5t-45 -77.5zM344 539q0 -70 24.5 -133.5t68.5 -111.5t104.5 -76t132.5 -28q76 0 136 28t103 75t65.5 109.5 t22.5 132.5v4q0 72 -24.5 135t-68.5 110t-104.5 75t-133.5 28q-74 0 -134.5 -28t-103.5 -74t-65.5 -108.5t-22.5 -133.5v-4z" />
<glyph unicode="&#xf6;" horiz-adv-x="1345" d="M96 535v4q0 117 44 219t121 179t182.5 122t230.5 45t230.5 -44t182 -121t119.5 -178.5t43 -217.5v-4q0 -115 -44 -217.5t-120.5 -179t-183 -122t-231.5 -45.5q-123 0 -228.5 44t-182.5 120t-120 178.5t-43 217.5zM342 1219v241h252v-241h-252zM344 539q0 -70 24.5 -133.5 t68.5 -111.5t104.5 -76t132.5 -28q76 0 136 28t103 75t65.5 109.5t22.5 132.5v4q0 72 -24.5 135t-68.5 110t-104.5 75t-133.5 28q-74 0 -134.5 -28t-103.5 -74t-65.5 -108.5t-22.5 -133.5v-4zM750 1219v241h251v-241h-251z" />
<glyph unicode="&#xf8;" horiz-adv-x="1345" d="M66 -10l163 182q-63 74 -98 166t-35 197v4q0 117 44 219t121 179t182.5 122t230.5 45q88 0 166 -23.5t143 -64.5l72 78h225q-29 -33 -59 -68q-27 -29 -55.5 -60.5t-51.5 -58.5q66 -72 100.5 -165t34.5 -199v-4q0 -115 -44 -217.5t-120.5 -179t-183 -122t-231.5 -45.5 q-86 0 -165 24t-145 64l-69 -73h-225zM338 539q0 -102 51 -187l447 492q-35 23 -77 36t-89 13q-76 0 -137.5 -27.5t-104.5 -76t-66.5 -112t-23.5 -134.5v-4zM508 233q72 -47 166 -47q78 0 139 28t104.5 76t67 111.5t23.5 133.5v4q0 53 -14.5 100t-37.5 88z" />
<glyph unicode="&#xf9;" horiz-adv-x="1269" d="M143 393v688h248v-614q0 -127 60.5 -195.5t171.5 -68.5q109 0 176 70.5t67 197.5v610h248v-1081h-248v168q-27 -39 -58.5 -73t-73.5 -60.5t-92.5 -42t-113.5 -15.5q-184 0 -284.5 113t-100.5 303zM313 1452l226 100l217 -335h-193z" />
<glyph unicode="&#xfa;" horiz-adv-x="1269" d="M143 393v688h248v-614q0 -127 60.5 -195.5t171.5 -68.5q109 0 176 70.5t67 197.5v610h248v-1081h-248v168q-27 -39 -58.5 -73t-73.5 -60.5t-92.5 -42t-113.5 -15.5q-184 0 -284.5 113t-100.5 303zM510 1217l217 335l225 -100l-250 -235h-192z" />
<glyph unicode="&#xfb;" horiz-adv-x="1269" d="M143 393v688h248v-614q0 -127 60.5 -195.5t171.5 -68.5q109 0 176 70.5t67 197.5v610h248v-1081h-248v168q-27 -39 -58.5 -73t-73.5 -60.5t-92.5 -42t-113.5 -15.5q-184 0 -284.5 113t-100.5 303zM283 1219l237 299h230l237 -299h-196l-158 137l-158 -137h-192z" />
<glyph unicode="&#xfc;" horiz-adv-x="1269" d="M143 393v688h248v-614q0 -127 60.5 -195.5t171.5 -68.5q109 0 176 70.5t67 197.5v610h248v-1081h-248v168q-27 -39 -58.5 -73t-73.5 -60.5t-92.5 -42t-113.5 -15.5q-184 0 -284.5 113t-100.5 303zM305 1219v241h252v-241h-252zM713 1219v241h252v-241h-252z" />
<glyph unicode="&#xfd;" horiz-adv-x="1220" d="M53 1081h264l308 -802l280 802h258l-430 -1112q-33 -84 -67.5 -141t-77.5 -93t-94 -52.5t-117 -16.5q-78 0 -138.5 17.5t-117.5 48.5l84 184q35 -18 70.5 -29.5t74.5 -11.5q53 0 88 26.5t66 98.5zM500 1217l217 335l225 -100l-250 -235h-192z" />
<glyph unicode="&#xfe;" horiz-adv-x="1372" d="M156 -328v1823h247v-594q59 86 147.5 144.5t219.5 58.5q96 0 186.5 -37t161 -108.5t113.5 -176t43 -239.5v-4q0 -135 -42 -239.5t-112.5 -176.5t-162 -109t-187.5 -37q-133 0 -221 57.5t-146 133.5v-496h-247zM397 539q0 -78 26 -142.5t69 -109.5t100.5 -69.5 t120.5 -24.5t119.5 24.5t98.5 68.5t66.5 108.5t24.5 144.5v4q0 78 -24.5 142.5t-66.5 109.5t-98.5 69.5t-119.5 24.5t-120.5 -24.5t-100.5 -70.5t-69 -109.5t-26 -141.5v-4z" />
<glyph unicode="&#xff;" horiz-adv-x="1220" d="M53 1081h264l308 -802l280 802h258l-430 -1112q-33 -84 -67.5 -141t-77.5 -93t-94 -52.5t-117 -16.5q-78 0 -138.5 17.5t-117.5 48.5l84 184q35 -18 70.5 -29.5t74.5 -11.5q53 0 88 26.5t66 98.5zM281 1219v241h251v-241h-251zM688 1219v241h252v-241h-252z" />
<glyph unicode="&#x152;" horiz-adv-x="2248" d="M121 713v4q0 152 55 282.5t156.5 227t242 152t308.5 55.5h1241v-226h-766v-372h674v-226h-674v-385h776v-225h-1251q-168 0 -308.5 54.5t-242 150.5t-156.5 226t-55 282zM385 717q0 -104 36 -194.5t100.5 -155t156.5 -101.5t205 -37h223v975h-223q-113 0 -205 -35.5 t-156.5 -100t-100.5 -154t-36 -193.5v-4z" />
<glyph unicode="&#x153;" horiz-adv-x="2129" d="M96 535v4q0 117 44 219t121 179t181.5 122t225.5 45q139 0 250.5 -61.5t181.5 -161.5q68 102 175 162.5t243 60.5q129 0 225 -47t160.5 -127t97.5 -185.5t33 -222.5q0 -16 -1 -33.5t-3 -35.5h-795q23 -133 107.5 -204t203.5 -71q92 0 161 33t134 96l146 -129 q-78 -92 -186.5 -147.5t-256.5 -55.5q-141 0 -258 60.5t-188 167.5q-72 -104 -186 -166t-255 -62q-117 0 -219 44t-178 120t-120 178.5t-44 217.5zM344 539q0 -70 24.5 -133.5t67.5 -111.5t102.5 -76t129.5 -28q74 0 132 28t100 75t64.5 109.5t22.5 132.5v4q0 72 -23.5 135 t-66.5 110t-102.5 75t-130.5 28q-74 0 -132.5 -28t-100.5 -75t-64.5 -109.5t-22.5 -131.5v-4zM1233 616h557q-6 59 -27.5 111.5t-55.5 91.5t-82 60.5t-109 21.5q-117 0 -192 -79t-91 -206z" />
<glyph unicode="&#x178;" horiz-adv-x="1466" d="M37 1434h297l401 -635l406 635h289l-570 -863v-571h-254v565zM403 1550v242h252v-242h-252zM811 1550v242h252v-242h-252z" />
<glyph unicode="&#x2c6;" d="M160 1219l237 299h230l237 -299h-196l-158 137l-158 -137h-192z" />
<glyph unicode="&#x2dc;" d="M125 1239q35 125 85 190.5t144 65.5q43 0 84 -12.5t79 -27.5t72 -28.5t60 -13.5q45 0 67.5 24.5t45.5 78.5l137 -43q-35 -123 -85 -188.5t-144 -65.5q-43 0 -84 13t-79 28.5t-71 27.5t-61 12q-45 0 -67.5 -24.5t-45.5 -77.5z" />
<glyph unicode="&#x2000;" horiz-adv-x="944" />
<glyph unicode="&#x2001;" horiz-adv-x="1888" />
<glyph unicode="&#x2002;" horiz-adv-x="944" />
<glyph unicode="&#x2003;" horiz-adv-x="1888" />
<glyph unicode="&#x2004;" horiz-adv-x="629" />
<glyph unicode="&#x2005;" horiz-adv-x="472" />
<glyph unicode="&#x2006;" horiz-adv-x="314" />
<glyph unicode="&#x2007;" horiz-adv-x="314" />
<glyph unicode="&#x2008;" horiz-adv-x="236" />
<glyph unicode="&#x2009;" horiz-adv-x="377" />
<glyph unicode="&#x200a;" horiz-adv-x="104" />
<glyph unicode="&#x2010;" horiz-adv-x="835" d="M115 506v244h606v-244h-606z" />
<glyph unicode="&#x2011;" horiz-adv-x="835" d="M115 506v244h606v-244h-606z" />
<glyph unicode="&#x2012;" horiz-adv-x="835" d="M115 506v244h606v-244h-606z" />
<glyph unicode="&#x2013;" horiz-adv-x="1081" d="M115 510v235h852v-235h-852z" />
<glyph unicode="&#x2014;" horiz-adv-x="1839" d="M115 510v235h1609v-235h-1609z" />
<glyph unicode="&#x2018;" horiz-adv-x="550" d="M129 864v240q0 172 80 250t235 90l27 -107q-188 -35 -174 -190h104v-283h-272z" />
<glyph unicode="&#x2019;" horiz-adv-x="550" d="M80 961q188 35 174 192h-104v281h272v-240q0 -172 -80 -250t-236 -90z" />
<glyph unicode="&#x201a;" horiz-adv-x="550" d="M70 -193q188 37 174 193h-105v281h273v-238q0 -172 -80 -250t-236 -90z" />
<glyph unicode="&#x201c;" horiz-adv-x="1026" d="M129 864v240q0 172 80 250t235 90l27 -107q-188 -35 -174 -190h104v-283h-272zM604 864v240q0 172 80 250t236 90l26 -107q-188 -35 -176 -190h107v-283h-273z" />
<glyph unicode="&#x201d;" horiz-adv-x="1026" d="M80 961q188 35 174 192h-104v281h272v-240q0 -172 -80 -250t-236 -90zM555 961q188 35 174 192h-104v281h272v-240q0 -172 -80 -250t-235 -90z" />
<glyph unicode="&#x201e;" horiz-adv-x="1026" d="M70 -193q188 37 174 193h-105v281h273v-238q0 -172 -80 -250t-236 -90zM545 -193q188 37 174 193h-105v281h273v-238q0 -172 -80 -250t-236 -90z" />
<glyph unicode="&#x2022;" horiz-adv-x="1005" d="M213 719v4q0 59 23.5 111.5t62.5 91.5t92 61.5t111 22.5q59 0 111.5 -22.5t92 -61.5t63.5 -91.5t24 -111.5v-4q0 -59 -22.5 -111.5t-62.5 -91.5t-93.5 -61.5t-112.5 -22.5t-111.5 22.5t-92.5 61.5t-62.5 91t-22.5 112z" />
<glyph unicode="&#x2026;" horiz-adv-x="1622" d="M139 0v274h267v-274h-267zM678 0v274h266v-274h-266zM1217 0v274h266v-274h-266z" />
<glyph unicode="&#x202f;" horiz-adv-x="377" />
<glyph unicode="&#x2039;" horiz-adv-x="724" d="M90 532v17l340 450l188 -96l-270 -360l270 -363l-188 -96z" />
<glyph unicode="&#x203a;" horiz-adv-x="724" d="M109 178l270 361l-270 362l188 98l338 -450v-17l-338 -448z" />
<glyph unicode="&#x205f;" horiz-adv-x="472" />
<glyph unicode="&#x2122;" horiz-adv-x="1413" d="M53 1323v111h510v-111h-194v-520h-121v520h-195zM698 803v631h129l191 -299l190 299h125v-631h-116v448l-195 -303h-12l-195 303v-448h-117z" />
<glyph unicode="&#x25fc;" horiz-adv-x="1085" d="M0 0v1085h1085v-1085h-1085z" />
</font>
</defs>
</svg>
