<?xml version="1.0" standalone="no"?> <!DOCTYPE svg PUBLIC "-//W3C//DTD SVG 1.0//EN" "http://www.w3.org/TR/2001/REC-SVG-20010904/DTD/svg10.dtd" > <svg xmlns="http://www.w3.org/2000/svg" width="100%" height="100%">
<defs >
<font id="futuraltcondensedbold" horiz-adv-x="362" ><font-face
    font-family="Futura LT Condensed"
    units-per-em="1000"
    panose-1="2 0 8 6 4 0 0 2 0 3"
    ascent="990"
    descent="-261"
    alphabetic="0" />
<missing-glyph horiz-adv-x="245" />
<glyph unicode=" " glyph-name="space" horiz-adv-x="245" />
<glyph unicode="!" glyph-name="exclam" horiz-adv-x="246" d="M123 178Q142 178 159 171T190 150T210 120T218 83Q218 63 211 46T190 16T160 -4T123 -12Q103 -12 86 -5T56 16T36 46T28 83Q28 102 35 119T56 150T86 170T123 178ZM197 226H50V754H197V226Z" />
<glyph unicode="&quot;" glyph-name="quotedbl" horiz-adv-x="360" d="M34 463L19 754H158L143 463H34ZM217 463L202 754H341L326 463H217Z" />
<glyph unicode="#" glyph-name="numbersign" horiz-adv-x="490" d="M219 432L208 338H281L293 432H219ZM440 238H354L325 0H242L270 238H196L167 0H83L111 238H26V338H124L135 432H51V532H146L173 754H256L230 532H305L331 754H415L388 532H464V432H376L365 338H440V238Z" />
<glyph unicode="$" glyph-name="dollar" horiz-adv-x="490" d="M209 831H282V760Q331 752 371 732T443 672L361 582Q338 608 310 624T246 640Q208 640 185 621T161 561Q161 523 184 505T240 473Q284 455 326 435T400 388T452 321T472 226Q472 182 459 143T421
72T361 18T282 -12V-98H209V-12Q155 -4 107 16T21 76L91 187Q123 156 157 132T239 108Q279 108 304 136T330 206Q330 228 322 244T301 273T272 294T238 311Q197 330 158 349T87 395T38 458T19 547Q19 638 70 692T209 760V831Z" />
<glyph unicode="%" glyph-name="percent" horiz-adv-x="858" d="M662 313Q648 313 641 300T630 270T626 236T625 210Q625 202 626 185T630 151T641 120T662 107Q675 107 682 120T693 150T698 184T699 210Q699 218 698 235T694 269T683 300T662 313ZM195 647Q181
647 174 634T163 604T159 570T158 544Q158 536 159 519T163 485T174 454T195 441Q208 441 215 454T226 484T231 518T232 544Q232 552 231 569T227 603T216 634T195 647ZM661 754L304 0H197L554 754H661ZM662 427Q709 427 739 408T787 358T812 288T819 210Q819 171
812 132T788 63T740 13T662 -7Q615 -7 585 12T537 62T512 132T505 210Q505 249 512 288T536 357T584 407T662 427ZM195 761Q242 761 272 742T320 692T345 622T352 544Q352 505 345 466T321 397T273 347T195 327Q148 327 118 346T70 396T45 466T38 544Q38 583 45
622T69 691T117 741T195 761Z" />
<glyph unicode="&amp;" glyph-name="ampersand" horiz-adv-x="590" d="M243 497Q266 509 280 530T295 577Q295 594 285 606T257 618Q237 618 224 606T211 573Q211 551 221 533T243 497ZM207 297Q191 285 181 264T171 223Q171 182 194 154T254 125Q271 125 282
130T306 146L207 297ZM373 44Q345 20 309 5T235 -10Q189 -10 151 8T85 57T42 128T26 213Q26 279 55 326T135 412Q115 447 99 486T82 568Q82 606 95 636T133 688T189 721T258 733Q291 733 322 723T378 694T416 647T431 583Q431 551 421 523T393 469T355 421T310
379L410 224Q429 244 448 263T485 306L564 199Q547 178 528 160T487 125L481 120L560 0H402L373 44Z" />
<glyph unicode="&apos;" glyph-name="quotesingle" horiz-adv-x="250" d="M71 463L56 754H195L180 463H71Z" />
<glyph unicode="(" glyph-name="parenleft" horiz-adv-x="300" d="M282 738Q233 636 208 528T182 308Q182 199 208 96T282 -107L153 -136Q98 -30 70 81T42 311Q42 425 69 544T153 766L282 738Z" />
<glyph unicode=")" glyph-name="parenright" horiz-adv-x="300" d="M18 -108Q67 -6 92 102T118 322Q118 431 92 534T18 737L147 766Q202 660 230 549T258 319Q258 205 230 86T147 -136L18 -108Z" />
<glyph unicode="*" glyph-name="asterisk" horiz-adv-x="376" d="M222 754V635L321 698L353 642L248 584L353 525L321 468L222 533V410H158V533L55 468L23 525L127 584L23 642L55 698L158 635V754H222Z" />
<glyph unicode="+" glyph-name="plus" horiz-adv-x="490" d="M190 499H300V311H470V201H300V7H190V201H21V311H190V499Z" />
<glyph unicode="," glyph-name="comma" horiz-adv-x="245" d="M218 162L67 -144H-33L67 162H218Z" />
<glyph unicode="-" glyph-name="hyphen" horiz-adv-x="318" d="M284 397V264H34V397H284Z" />
<glyph unicode="." glyph-name="period" horiz-adv-x="245" d="M122 178Q142 178 159 171T189 150T209 120T217 83Q217 63 210 46T190 16T160 -4T122 -12Q102 -12 85 -5T55 16T35 46T27 83Q27 102 34 119T54 150T84 170T122 178Z" />
<glyph unicode="/" glyph-name="slash" horiz-adv-x="547" d="M538 807L145 -166H31L424 807H538Z" />
<glyph unicode="0" glyph-name="zero" horiz-adv-x="490" d="M245 630Q226 630 214 615T195 575T184 522T179 464T178 412Q178 389 178 377Q178 365 178 341Q178 318 179 290T183 233T194 179T214 140T245 124Q263 124 275 139T295 179T306 232T311 290T312 341Q312
365 312 377Q312 389 312 412Q312 436 311 464T307 521T296 575T276 614T245 630ZM245 766Q290 766 323 747T380 695T419 622T442 537T454 452T457 377Q457 344 454 302T443 217T419 133T381 59T324 8T245 -12Q200 -12 167 7T110 59T71 132T48 217T36 302T33 377Q33
410 36 452T47 537T71 621T109 695T166 746T245 766Z" />
<glyph unicode="1" glyph-name="one" horiz-adv-x="490" d="M327 754V0H182V624H110V754H327Z" />
<glyph unicode="2" glyph-name="two" horiz-adv-x="490" d="M52 492L50 533Q50 585 58 628T89 702T150 750T247 767Q341 767 395 720T450 574Q450 516 432 468T388 369L262 130H437V0H41L211 312Q226 339 243 371T274 436T298 504T308 569Q308 584 306 600T296
630T278 653T248 662Q227 662 215 649T197 616T190 576T188 540L190 492H52Z" />
<glyph unicode="3" glyph-name="three" horiz-adv-x="490" d="M174 177Q174 168 177 158T187 138T204 124T230 118Q253 118 266 128T285 154T293 189T295 225Q295 256 289 277T270 310T235 326T182 330V460Q212 460 234 464T269 478T289 508T296 559Q296 572 294
585T287 610T272 628T245 636Q229 636 219 629T204 610T197 584T195 558V543H66Q64 588 71 628T99 699T155 748T242 766Q334 766 383 713T433 569Q433 542 429 515T414 464T385 421T340 391V389Q371 381 393 364T429 322T449 269T456 210Q456 106 397 47T233 -12Q185
-12 148 3T84 45T46 112T35 198H175L174 177Z" />
<glyph unicode="4" glyph-name="four" horiz-adv-x="490" d="M247 582H245L133 296H247V582ZM392 754V296H453V182H392V0H247V182H28V294L228 754H392Z" />
<glyph unicode="5" glyph-name="five" horiz-adv-x="490" d="M133 754H421V624H237L217 502Q332 496 387 431T442 253Q442 193 427 144T381 61T304 7T194 -12Q154 -12 119 -4T49 22L74 153Q94 137 117 128T166 118Q196 118 218 129T254 160T276 203T283 255Q283
325 240 357T131 389Q117 389 103 387T74 383L133 754Z" />
<glyph unicode="6" glyph-name="six" horiz-adv-x="490" d="M249 367Q228 367 215 352T195 316T185 273T182 237Q182 223 185 203T195 163T214 129T245 115Q266 115 279 130T298 167T307 212T309 249Q309 263 307 283T299 322T280 354T249 367ZM350 754L206 460L208
458Q229 477 250 488T302 499Q345 499 374 475T421 416T446 340T454 265Q454 214 443 165T408 76T343 13T243 -12Q187 -12 148 11T84 71T48 155T37 253Q37 304 45 352T69 445T103 536T144 626L206 754H350Z" />
<glyph unicode="7" glyph-name="seven" horiz-adv-x="490" d="M480 754L196 0H41L276 624H73V754H480Z" />
<glyph unicode="8" glyph-name="eight" horiz-adv-x="490" d="M202 570Q202 559 203 545T208 517T221 494T243 484Q260 484 269 493T283 516T288 543T289 569Q289 579 288 593T282 619T268 640T243 649Q229 649 221 641T209 620T204 594T202 570ZM244 334Q225
334 213 323T194 294T185 259T182 225Q182 210 184 192T194 157T213 129T245 118Q264 118 276 129T296 157T306 192T309 225Q309 239 306 257T295 293T275 322T244 334ZM160 408Q109 425 83 469T57 567Q57 609 70 645T108 708T168 750T246 766Q289 766 323 751T382
708T420 645T434 567Q434 513 409 470T331 407V406Q402 383 432 331T462 206Q462 159 446 120T402 51T333 5T246 -12Q199 -12 159 4T90 50T45 119T29 206Q29 279 59 331T160 406V408Z" />
<glyph unicode="9" glyph-name="nine" horiz-adv-x="490" d="M246 637Q225 637 212 622T193 585T184 542T182 505Q182 491 184 471T192 433T211 401T242 387Q263 387 276 402T297 438T306 481T309 518Q309 531 307 551T297 591T278 623T246 637ZM141 0L285 295L283
297Q262 278 241 267T189 255Q146 255 117 279T70 338T45 415T37 490Q37 541 47 590T83 679T148 742T248 766Q305 766 344 744T407 684T443 599T454 501Q454 450 446 403T422 309T388 219T347 129L285 0H141Z" />
<glyph unicode=":" glyph-name="colon" horiz-adv-x="245" d="M122 515Q142 515 159 508T189 487T209 457T217 420Q217 400 210 383T190 353T160 333T122 325Q102 325 85 332T55 353T35 383T27 420Q27 439 34 456T54 487T84 507T122 515ZM122 178Q142 178 159
171T189 150T209 120T217 83Q217 63 210 46T190 16T160 -4T122 -12Q102 -12 85 -5T55 16T35 46T27 83Q27 102 34 119T54 150T84 170T122 178Z" />
<glyph unicode=";" glyph-name="semicolon" horiz-adv-x="245" d="M123 515Q143 515 160 508T190 487T210 457T218 420Q218 400 211 383T191 353T161 333T123 325Q103 325 86 332T56 353T36 383T28 420Q28 439 35 456T55 487T85 507T123 515ZM217 162L67 -144H-33L67
162H217Z" />
<glyph unicode="&lt;" glyph-name="less" horiz-adv-x="490" d="M470 94V-17L20 208V307L470 534V423L140 256L470 94Z" />
<glyph unicode="=" glyph-name="equal" horiz-adv-x="490" d="M470 103H21V213H470V103ZM470 298H21V408H470V298Z" />
<glyph unicode="&gt;" glyph-name="greater" horiz-adv-x="490" d="M350 256L21 423V534L470 307V208L21 -17V94L350 256Z" />
<glyph unicode="?" glyph-name="question" horiz-adv-x="454" d="M138 83Q138 102 145 119T166 150T196 170T232 178Q252 178 269 171T300 150T320 120T328 83Q328 63 321 46T300 16T270 -4T232 -12Q213 -12 196 -5T166 16T146 46T138 83ZM167 546H26Q24 594 35
634T70 703T131 749T218 766Q268 766 307 749T373 702T414 630T428 541Q428 510 422 477T400 415T362 365T306 334V236H157V422Q170 419 182 419Q207 419 224 430T251 458T265 496T269 538Q269 550 267 567T260 599T244 625T216 636Q202 636 193 629T178 612T170
589T167 564V546Z" />
<glyph unicode="@" glyph-name="at" horiz-adv-x="833" d="M504 373Q506 395 502 416T489 454T463 479T422 486Q399 484 379 473T344 445T320 406T309 360Q306 311 327 284T380 252Q408 248 430 258T468 287T493 329T504 373ZM549 571H647L594 265Q589 241 607
243T649 269T694 332T717 426Q719 488 699 537T640 621T549 674T432 693Q363 693 305 670T205 605T140 506T116 381Q116 306 140 247T209 146T314 83T449 61Q509 61 560 87T654 153H750Q694 76 616 32T441 -12Q348 -12 274 16T147 97T66 221T38 381Q38 417 46 459T73
545T122 628T197 698T300 747T435 766Q512 766 578 743T692 679T767 581T795 454Q795 395 780 350T739 271T684 216T625 181T572 162T535 156Q516 156 502 172T493 218L491 220Q459 190 429 175T368 160Q328 160 297 174T244 213T211 271T199 342Q199 387 214 429T256
505T323 558T411 578Q451 578 483 564T538 518L549 571Z" />
<glyph unicode="A" glyph-name="A" horiz-adv-x="528" d="M274 446L257 560H255L239 446L207 245H312L274 446ZM340 754L521 0H362L334 127H183L156 0H8L183 754H340Z" />
<glyph unicode="B" glyph-name="B" horiz-adv-x="479" d="M291 540Q291 582 268 606T202 629V445Q244 445 267 471T291 540ZM297 229Q297 273 272 301T202 329V125Q247 123 272 152T297 229ZM53 0V754H199Q243 754 281 748T355 713Q393 683 412 637T432 543Q432
492 413 454T351 387Q374 376 391 357T420 313T438 263T444 212Q444 156 425 116T372 50T294 12T198 0H53Z" />
<glyph unicode="C" glyph-name="C" horiz-adv-x="452" d="M429 612Q399 620 373 620Q324 620 289 600T230 546T196 471T185 385Q185 343 196 299T230 218T288 159T372 135Q386 135 400 138T429 146V5Q397 -8 360 -8Q279 -8 217 25T113 114T48 239T26 384Q26 454
48 522T113 643T216 730T353 763Q390 763 429 749V612Z" />
<glyph unicode="D" glyph-name="D" horiz-adv-x="530" d="M202 134Q247 132 276 155T323 215T348 294T355 372Q355 408 349 451T325 531T278 594T202 620V134V134ZM53 0V754H166Q172 754 200 755T265 749T345 721T422 658T481 546T504 371Q504 290 488 222T434
105T335 28T186 0H53Z" />
<glyph unicode="E" glyph-name="E" horiz-adv-x="392" d="M353 754V614H202V450H335V310H202V140H355V0H53V754H353Z" />
<glyph unicode="F" glyph-name="F" horiz-adv-x="394" d="M354 754V614H202V453H339V313H202V0H53V754H354Z" />
<glyph unicode="G" glyph-name="G" horiz-adv-x="563" d="M537 420V361Q537 301 528 235T492 115T419 24T295 -12Q244 -12 205 5T135 51T85 118T51 199T32 286T26 373Q26 438 38 507T80 634T163 729T295 766Q381 766 437 717T517 587L372 531Q369 545 365 562T353
593T331 618T296 628Q271 629 253 616T223 581T203 531T191 475T186 421T185 377Q185 348 187 305T201 222T235 154T300 126Q328 126 345 142T372 183T385 233T388 280H293V420H537Z" />
<glyph unicode="H" glyph-name="H" horiz-adv-x="555" d="M202 754V459H353V754H502V0H353V319H202V0H53V754H202Z" />
<glyph unicode="I" glyph-name="I" horiz-adv-x="255" d="M202 754V0H53V754H202Z" />
<glyph unicode="J" glyph-name="J" horiz-adv-x="352" d="M304 244Q304 229 304 204T299 151T284 93T254 41T203 3T124 -12Q96 -12 66 -7T12 11V160Q26 142 46 130T90 118Q116 118 129 130T148 162T154 203T155 244V754H304V244Z" />
<glyph unicode="K" glyph-name="K" horiz-adv-x="513" d="M202 754V417H204L328 754H480L341 406L498 0H341L204 384H202V0H53V754H202Z" />
<glyph unicode="L" glyph-name="L" horiz-adv-x="373" d="M202 754V140H358V0H53V754H202Z" />
<glyph unicode="M" glyph-name="M" horiz-adv-x="722" d="M285 754L358 309H360L420 754H620L699 0H546L510 543H508L484 357L420 0H305L232 361L207 529V543H205L183 0H23L89 754H285Z" />
<glyph unicode="N" glyph-name="N" horiz-adv-x="573" d="M196 754L382 299L384 301Q377 328 375 357T372 415V754H521V0H380L196 455L194 453L201 377L202 346V0H53V754H196Z" />
<glyph unicode="O" glyph-name="O" horiz-adv-x="582" d="M185 377Q185 362 186 338T190 285T201 229T219 178T248 141T291 126Q316 126 333 140T362 178T381 229T391 285T396 337T397 377Q397 394 396 419T392 472T381 528T363 578T334 614T291 628Q266 628 249
614T220 578T201 528T191 472T186 419T185 377ZM291 766Q341 766 388 745T473 678T533 557T556 377Q556 271 534 197T474 77T389 9T291 -12Q241 -12 194 9T109 76T49 197T26 377Q26 483 48 557T108 677T193 745T291 766Z" />
<glyph unicode="P" glyph-name="P" horiz-adv-x="487" d="M202 432Q256 430 285 452T315 533Q315 574 297 602T230 631H202V432ZM53 0V754H208Q216 754 238 754T288 751T348 734T405 697T447 632T464 531Q464 478 448 437T401 368T329 324T235 309L202 311V0H53Z" />
<glyph unicode="Q" glyph-name="Q" horiz-adv-x="582" d="M383 232Q392 264 394 299T397 377Q397 394 396 419T392 472T381 528T363 578T334 614T291 628Q266 628 249 614T220 578T201 528T191 472T186 419T185 377Q185 362 186 338T190 285T201 229T219 178T248
141T291 126Q310 126 327 139L238 232L315 307L383 232ZM565 45L487 -29L429 34Q370 -12 291 -12Q241 -12 194 9T109 76T49 197T26 377Q26 483 48 557T108 677T193 745T291 766Q341 766 388 745T473 678T533 557T556 377Q556 310 545 239T500 111L565 45Z" />
<glyph unicode="R" glyph-name="R" horiz-adv-x="530" d="M202 430L228 429Q279 429 301 459T323 537Q323 557 318 575T301 606T270 625T222 631H202V430ZM53 0V754H203Q239 754 284 749T371 723T440 659T468 538Q468 475 443 425T361 343L492 0H335L204 348H202V0H53Z" />
<glyph unicode="S" glyph-name="S" horiz-adv-x="440" d="M363 584Q340 604 313 618T255 632Q220 632 200 613T180 558Q180 527 197 505T239 462T293 421T348 373T390 310T407 223Q407 173 393 130T351 56T283 6T190 -12Q158 -12 123 -3T62 26V168Q88 150 115
139T175 128Q211 128 236 150T261 210Q261 232 253 247T233 275T205 298T173 320Q141 342 115 364T71 412T44 471T34 544Q34 589 47 629T84 699T146 748T231 766Q267 766 299 757T363 729V584Z" />
<glyph unicode="T" glyph-name="T" horiz-adv-x="414" d="M399 754V614H281V0H132V614H15V754H399Z" />
<glyph unicode="U" glyph-name="U" horiz-adv-x="544" d="M198 754V266Q198 245 198 220Q198 195 204 174T226 138T272 123Q299 123 314 132T336 157T344 193T346 234V754H495V204Q495 174 490 137T464 66T397 11T271 -12Q166 -12 108 38T49 194V754H198Z" />
<glyph unicode="V" glyph-name="V" horiz-adv-x="565" d="M168 754L258 392Q268 360 273 328T285 263H287Q293 296 297 328T310 394L401 754H557L348 0H226L8 754H168Z" />
<glyph unicode="W" glyph-name="W" horiz-adv-x="793" d="M160 754L224 394Q231 354 233 314T240 234H242Q247 274 251 314T264 394L339 754H457L553 234H555Q559 274 561 313T570 392L629 754H785L629 0H500L423 398Q419 433 413 467T402 536H400Q394 501 389
467T376 398L290 0H160L8 754H160Z" />
<glyph unicode="X" glyph-name="X" horiz-adv-x="545" d="M190 754L233 649Q243 621 253 592T269 534H271Q277 563 285 591T305 649L350 754H511L350 389L523 0H350L302 120Q291 149 284 176T269 233H267Q259 204 252 177T234 120L190 0H22L182 389L22 754H190Z" />
<glyph unicode="Y" glyph-name="Y" horiz-adv-x="514" d="M168 754L246 549L257 512H259L276 568L343 754H510L334 361V0H185V361L4 754H168Z" />
<glyph unicode="Z" glyph-name="Z" horiz-adv-x="508" d="M493 754L235 140H472V0H18L269 614H50V754H493Z" />
<glyph unicode="[" glyph-name="bracketleft" horiz-adv-x="320" d="M304 754V656H183V-26H306V-124H53V754H304Z" />
<glyph unicode="\" glyph-name="backslash" horiz-adv-x="250" d="M-14 807L379 -166H265L-128 807H-14Z" />
<glyph unicode="]" glyph-name="bracketright" horiz-adv-x="320" d="M267 754V-124H14V-26H137V656H16V754H267Z" />
<glyph unicode="^" glyph-name="asciicircum" horiz-adv-x="490" d="M21 377L185 754H305L470 377L370 330L245 621L121 330L21 377Z" />
<glyph unicode="_" glyph-name="underscore" horiz-adv-x="500" d="M500 -75V-125H0V-75H500Z" />
<glyph unicode="`" glyph-name="grave" horiz-adv-x="300" d="M249 610L180 570L51 708L153 754L249 610Z" />
<glyph unicode="a" glyph-name="a" horiz-adv-x="433" d="M219 119Q236 119 245 136T260 177T266 222T268 255Q268 265 267 287T261 333T245 373T217 390Q199 390 189 373T174 334T168 289T167 255Q167 243 168 220T174 175T189 136T219 119ZM258 57H256Q242 28
220 9T163 -10Q135 -10 114 4T77 40T52 91T36 149T28 205T26 253Q26 275 28 302T35 359T49 417T74 466T110 501T161 515Q196 515 220 495T256 443H258V505H399V0H258V57Z" />
<glyph unicode="b" glyph-name="b" horiz-adv-x="433" d="M215 119Q233 119 243 135T258 174T265 220T266 255Q266 266 265 288T258 333T243 373T216 390Q198 390 188 373T173 333T167 288T166 255Q166 245 167 223T173 177T188 137T215 119ZM35 807H176V443H178Q190
474 213 494T272 515Q317 515 343 487T384 417T402 331T407 253Q407 233 405 206T398 149T382 92T357 41T321 4T271 -10Q236 -10 214 9T178 57H176V0H35V807Z" />
<glyph unicode="c" glyph-name="c" horiz-adv-x="315" d="M292 8Q253 -10 211 -10Q160 -10 125 14T67 76T36 160T26 249Q26 297 36 344T69 430T129 491T222 515Q257 515 292 500V376Q282 385 273 388T251 392Q225 392 209 378T183 344T171 300T167 257Q167 237
170 213T181 169T206 136T249 122Q261 122 271 126T292 137V8Z" />
<glyph unicode="d" glyph-name="d" horiz-adv-x="433" d="M219 119Q236 119 245 136T260 177T266 222T268 255Q268 265 267 287T261 333T245 373T217 390Q199 390 189 373T174 334T168 289T167 255Q167 243 168 220T174 175T189 136T219 119ZM258 57H256Q242 28
220 9T163 -10Q135 -10 114 4T77 40T52 91T36 149T28 205T26 253Q26 275 28 302T35 359T49 417T74 466T110 501T161 515Q196 515 220 495T256 443H258V807H399V0H258V57Z" />
<glyph unicode="e" glyph-name="e" horiz-adv-x="414" d="M266 314Q266 326 264 342T257 373T242 397T215 407Q199 407 189 398T173 374T165 345T163 317V302H266V314ZM385 215H162Q162 201 163 181T168 143T184 111T215 98Q242 98 251 115T260 156H380Q375 121
364 91T334 39T287 3T220 -10Q166 -10 129 12T69 69T36 150T26 242Q26 287 35 335T66 424T125 489T217 515Q252 515 284 500T340 454T377 378T388 273L385 215Z" />
<glyph unicode="f" glyph-name="f" horiz-adv-x="299" d="M71 505V647Q71 683 76 714T96 768T140 804T216 817Q232 817 247 814T277 805V669Q270 673 265 675T252 677Q235 677 227 669T215 648T212 621Q212 607 212 595V505H277V389H212V0H71V389H19V505H71Z" />
<glyph unicode="g" glyph-name="g" horiz-adv-x="437" d="M220 119Q237 119 246 136T261 177T267 222T268 255Q268 265 267 287T261 333T246 373T218 390Q200 390 190 373T175 334T168 289T167 255Q167 243 168 220T174 175T190 136T220 119ZM156 -67Q157 -79
159 -92T167 -115T182 -132T207 -139Q231 -139 242 -124T257 -86T262 -41T261 -1V63H259Q252 49 244 36T225 13T200 -4T168 -10Q148 -10 132 -3T103 16T78 43T59 74Q40 112 33 157T26 245Q26 278 30 324T49 413T90 485T162 515Q197 515 222 495T259 444H261V505H402V-44Q402
-155 354 -203T213 -251Q123 -251 80 -202T31 -67H156Z" />
<glyph unicode="h" glyph-name="h" horiz-adv-x="424" d="M176 807V427H178Q192 463 222 489T295 515Q334 515 353 496T381 448T390 386Q390 353 390 326V0H249V277Q249 287 250 303T249 334T239 361T214 373Q202 373 195 368T183 354T178 335T176 315V0H35V807H176Z" />
<glyph unicode="i" glyph-name="i" horiz-adv-x="209" d="M104 565Q67 565 41 591T15 656Q15 694 42 719T107 745Q125 745 141 738T169 718T187 689T194 654Q194 636 187 620T168 592T139 572T104 565ZM175 505V0H34V505H175Z" />
<glyph unicode="j" glyph-name="j" horiz-adv-x="209" d="M104 565Q67 565 41 591T15 656Q15 694 42 719T107 745Q125 745 141 738T169 718T187 689T194 654Q194 636 187 620T168 592T139 572T104 565ZM175 505V-249H34V505H175Z" />
<glyph unicode="k" glyph-name="k" horiz-adv-x="440" d="M176 807V328H178L255 505H408L294 299L433 0H278L178 234H176V0H35V807H176Z" />
<glyph unicode="l" glyph-name="l" horiz-adv-x="210" d="M176 807V0H35V807H176Z" />
<glyph unicode="m" glyph-name="m" horiz-adv-x="639" d="M177 424H179Q197 461 227 488T303 515Q342 515 363 490T390 429H392Q409 463 440 489T513 515Q547 515 565 498T592 456T602 402T604 349V0H463V274Q463 284 463 300T462 333T452 362T428 374Q416 374
409 369T397 355T392 336T390 317V0H249V283Q249 292 249 307T248 337T238 361T216 372Q203 372 195 367T183 353T178 334T176 314V0H35V505H176L177 424Z" />
<glyph unicode="n" glyph-name="n" horiz-adv-x="424" d="M176 427H178Q192 463 222 489T295 515Q334 515 353 496T381 448T390 386Q390 353 390 326V0H249V277Q249 287 250 303T249 334T239 361T214 373Q202 373 195 368T183 354T178 335T176 315V0H35V505H176V427Z" />
<glyph unicode="o" glyph-name="o" horiz-adv-x="436" d="M218 388Q200 388 190 371T174 331T168 286T167 252Q167 241 168 219T174 173T189 133T218 116Q236 116 246 133T262 173T268 218T269 252Q269 263 268 285T262 331T247 371T218 388ZM218 515Q275 515
312 492T370 432T401 348T410 252Q410 204 401 157T371 73T312 13T218 -10Q161 -10 124 13T66 73T35 157T26 252Q26 300 35 347T65 432T124 492T218 515Z" />
<glyph unicode="p" glyph-name="p" horiz-adv-x="433" d="M215 119Q234 119 244 135T259 174T265 220T266 255Q266 266 265 288T258 333T243 373T216 390Q198 390 188 373T173 333T167 288T166 255Q166 245 167 223T173 177T188 137T215 119ZM176 443H178Q190
474 213 494T272 515Q317 515 343 487T384 417T402 331T407 253Q407 233 405 206T398 149T382 92T357 41T321 4T271 -10Q236 -10 214 9T178 57H176V-249H35V505H176V443Z" />
<glyph unicode="q" glyph-name="q" horiz-adv-x="433" d="M219 119Q236 119 245 136T260 177T266 222T268 255Q268 265 267 287T261 333T245 373T217 390Q199 390 189 373T174 334T168 289T167 255Q167 243 168 220T174 175T189 136T219 119ZM399 -249H258V57H256Q242
28 220 9T163 -10Q135 -10 114 4T77 40T52 91T36 149T28 205T26 253Q26 275 28 302T35 359T49 417T74 466T110 501T161 515Q196 515 220 495T256 443H258V505H399V-249Z" />
<glyph unicode="r" glyph-name="r" horiz-adv-x="315" d="M176 505V444H178Q198 477 224 498T293 524V387Q288 388 283 388T271 389Q236 389 217 378T188 349T178 305T176 252V0H35V505H176Z" />
<glyph unicode="s" glyph-name="s" horiz-adv-x="376" d="M289 369Q274 383 259 392T221 402Q202 402 193 392T183 365Q183 350 195 340T226 321T264 301T302 272T332 230T344 167Q344 129 334 97T302 41T251 4T182 -10Q141 -10 102 6T30 48L92 148Q108 134 124
125T162 115Q179 115 191 126T203 157Q203 174 192 185T162 206T123 227T84 256T54 300T42 367Q42 403 56 430T93 477T147 505T211 515Q249 515 282 505T346 472L289 369Z" />
<glyph unicode="t" glyph-name="t" horiz-adv-x="308" d="M220 645V505H278V389H220V0H79V389H30V505H79V645H220Z" />
<glyph unicode="u" glyph-name="u" horiz-adv-x="423" d="M176 505V228Q176 217 175 200T176 165T186 135T212 122Q226 122 233 130T244 150T247 175Q247 188 247 197L248 505H388V183Q388 95 345 43T208 -10Q148 -10 114 10T62 61T40 130T35 202V505H176Z" />
<glyph unicode="v" glyph-name="v" horiz-adv-x="452" d="M155 505L222 228L223 220H225L236 272L291 505H437L291 0H160L15 505H155Z" />
<glyph unicode="w" glyph-name="w" horiz-adv-x="694" d="M152 505L220 209H222L288 505H409L473 209H475L485 263L545 505H679L539 0H423L377 171L347 317H345L316 156L276 0H158L15 505H152Z" />
<glyph unicode="x" glyph-name="x" horiz-adv-x="489" d="M188 505L228 428L243 397L300 505H446L317 272L466 0H317L243 139L168 0H23L168 272L42 505H188Z" />
<glyph unicode="y" glyph-name="y" horiz-adv-x="452" d="M157 505L210 301L227 217H229L295 505H437L220 -249H81L162 10L15 505H157Z" />
<glyph unicode="z" glyph-name="z" horiz-adv-x="401" d="M378 505L222 117H361V0H23L183 388H39V505H378Z" />
<glyph unicode="{" glyph-name="braceleft" horiz-adv-x="300" d="M238 -124Q193 -124 165 -115T121 -86T99 -37T93 31V169Q93 215 77 245T18 275V351Q40 351 54 360T77 384T89 418T93 457V619Q93 688 120 721T216 754H303V678Q278 678 263 671T238 650T226 618T223
578V446Q223 391 208 359T141 315V313Q168 308 184 295T208 263T220 220T223 171V52Q223 32 226 14T238 -18T262 -40T303 -48V-124H238Z" />
<glyph unicode="|" glyph-name="bar" horiz-adv-x="250" d="M180 786V-214H70V786H180Z" />
<glyph unicode="}" glyph-name="braceright" horiz-adv-x="300" d="M-3 -124V-48Q22 -48 37 -40T62 -18T74 14T77 52V171Q77 196 80 219T91 262T116 295T159 313V315Q108 327 93 359T77 446V578Q77 600 74 618T62 649T38 670T-3 678V754H84Q153 754 180 721T207
619V457Q207 437 210 418T222 384T245 360T282 351V275Q260 275 246 267T223 245T211 212T207 169V31Q207 -8 201 -37T180 -85T136 -114T62 -124H-3Z" />
<glyph unicode="~" glyph-name="asciitilde" horiz-adv-x="490" d="M470 286Q458 266 446 245T419 207T385 180T341 169Q318 169 291 179T238 202T189 224T155 235Q140 235 129 227T108 207T92 181T78 153L21 227Q31 248 44 270T73 310T110 339T154 351Q178 351
204 341T256 318T303 296T341 285Q355 285 365 292T384 311T400 335T414 359L470 286Z" />
</font>
</defs>
</svg>
