<?xml version="1.0" standalone="no"?>
<!DOCTYPE svg PUBLIC "-//W3C//DTD SVG 1.1//EN" "http://www.w3.org/Graphics/SVG/1.1/DTD/svg11.dtd" >
<svg>
<metadata>
Created by FontForge 20120731 at Wed Jul  6 00:19:02 2016
 By ,,,
(c)2013-2015 Orkney is a trademark of Samuel Oakes and Alfredo Marco Pradil. All rights reserved.
</metadata>
<defs>
<font id="Orkney-Regular" horiz-adv-x="0" >
  <font-face 
    font-family="Orkney"
    font-weight="400"
    font-stretch="normal"
    units-per-em="1000"
    panose-1="0 0 5 0 0 0 0 0 0 0"
    ascent="750"
    descent="-250"
    x-height="500"
    cap-height="750"
    bbox="-749 -335 1167 1013"
    underline-thickness="37"
    underline-position="-64"
    unicode-range="U+0020-FB02"
  />
<missing-glyph horiz-adv-x="595" 
d="M90 0v750h415v-750h-415zM159 69h277v612h-277v-612z" />
    <glyph glyph-name="fi" unicode="fi" horiz-adv-x="597" 
d="M354 686q-64 0 -102.5 -36t-38.5 -98v-52h305v-500h-89v431h-216v-431h-89v431h-84v69h84v56q0 93 61 148.5t160 55.5q88 0 174 -43v-81q-90 50 -165 50z" />
    <glyph glyph-name="fl" unicode="fl" horiz-adv-x="688" 
d="M649 89l49 -60q-37 -39 -105 -39q-70 0 -111.5 41.5t-41.5 108.5v532q-44 14 -88 14q-62 0 -100.5 -36t-38.5 -98v-52h131v-69h-131v-431h-89v431h-84v69h84v56q0 93 61 148.5t157 55.5q54 0 98 -12v2h88v-40h1v-84h-1l1 -486q0 -74 66 -74q32 0 54 23z" />
    <glyph glyph-name=".notdef" horiz-adv-x="595" 
d="M90 0v750h415v-750h-415zM159 69h277v612h-277v-612z" />
    <glyph glyph-name=".null" 
 />
    <glyph glyph-name="nonmarkingreturn" horiz-adv-x="333" 
 />
    <glyph glyph-name="space" unicode=" " horiz-adv-x="260" 
 />
    <glyph glyph-name="exclam" unicode="!" horiz-adv-x="298" 
d="M114 219l-10 531h89l-10 -531h-69zM149 -10q-24 0 -41.5 17.5t-17.5 41.5t17.5 41t41.5 17t41 -17t17 -41t-17 -41.5t-41 -17.5z" />
    <glyph glyph-name="quotedbl" unicode="&#x22;" horiz-adv-x="436" 
d="M100 466l-10 284h84l-10 -284h-64zM271 466l-9 284h83l-9 -284h-65z" />
    <glyph glyph-name="numbersign" unicode="#" horiz-adv-x="776" 
d="M179 0l24 174h-141l9 66h141l34 229h-141l10 65h139l26 175h64l-24 -175h187l24 175h65l-24 -175h142l-11 -65h-140l-32 -229h140l-9 -66h-140l-26 -174h-65l25 174h-188l-24 -174h-65zM278 240h187l33 229h-188z" />
    <glyph glyph-name="dollar" unicode="$" horiz-adv-x="653" 
d="M572 204q0 -88 -60 -141.5t-146 -65.5v-83h-78v83q-73 9 -130.5 49t-84.5 96l66 38q22 -48 72.5 -79.5t115.5 -31.5q70 0 118 35.5t48 95.5q0 37 -21.5 64.5t-55.5 45t-75.5 32.5t-83 32.5t-75.5 39.5t-55.5 59.5t-21.5 87.5q0 83 53 132.5t130 59.5v86h78v-87
q97 -16 159 -87l-53 -45q-24 29 -62.5 47.5t-81.5 18.5q-59 0 -101.5 -32.5t-42.5 -88.5q0 -37 21.5 -64.5t55.5 -44.5t75.5 -32.5t83 -33t75.5 -40t55.5 -60t21.5 -86.5z" />
    <glyph glyph-name="percent" unicode="%" horiz-adv-x="752" 
d="M195 441q-58 0 -98.5 46.5t-40.5 112.5q0 67 40.5 113.5t98.5 46.5q57 0 97.5 -46.5t40.5 -113.5q0 -65 -40.5 -112t-97.5 -47zM73 0l513 750h92l-512 -750h-93zM195 510q28 0 49 26.5t21 63.5q0 38 -21 64.5t-49 26.5q-29 0 -49.5 -26t-20.5 -65q0 -37 20.5 -63.5
t49.5 -26.5zM558 -10q-58 0 -98.5 47t-40.5 113q0 65 40.5 112t98.5 47q57 0 97.5 -46.5t40.5 -112.5t-40 -113t-98 -47zM557 59q29 0 49 26.5t20 64.5q0 37 -20 63.5t-49 26.5q-28 0 -48.5 -26.5t-20.5 -63.5q0 -38 20.5 -64.5t48.5 -26.5z" />
    <glyph glyph-name="ampersand" unicode="&#x26;" horiz-adv-x="735" 
d="M695 52l-57 -57l-104 103l-43 -43q-67 -66 -162 -65.5t-161 65.5q-67 67 -66.5 161.5t66.5 160.5l44 43l-27 27q-54 54 -54 130q0 75 54 128t129 53q76 0 130 -53t54 -128h-80q0 43 -30.5 73t-72.5 30q-43 0 -74 -31t-31 -74q0 -40 31 -73l294 -291l103 102l56 -56
l-103 -102zM435 112l43 42l-211 210l-43 -43q-44 -44 -44 -104.5t44 -104.5t105.5 -44t105.5 44z" />
    <glyph glyph-name="quotesingle" unicode="'" horiz-adv-x="264" 
d="M100 466l-10 284h84l-10 -284h-64z" />
    <glyph glyph-name="parenleft" unicode="(" horiz-adv-x="404" 
d="M339 -321q-117 8 -193 159.5t-76 409.5q0 259 76 412t193 161v-64q-82 -9 -136 -146t-54 -363q0 -224 54 -360t136 -145v-64z" />
    <glyph glyph-name="parenright" unicode=")" horiz-adv-x="404" 
d="M65 -321v64q83 9 137 144.5t54 360.5q0 227 -54 363.5t-137 145.5v64q117 -8 193 -161t76 -412q0 -258 -76 -409.5t-193 -159.5z" />
    <glyph glyph-name="asterisk" unicode="*" horiz-adv-x="343" 
d="M132 510l-42 25l53 75l-93 -8v50l93 -9l-53 76l42 25l39 -83l40 83l43 -25l-54 -76l92 9v-50l-92 8l54 -75l-43 -25l-40 83z" />
    <glyph glyph-name="plus" unicode="+" horiz-adv-x="801" 
d="M366 0v275h-276v70h276v275h69v-275h275v-70h-275v-275h-69z" />
    <glyph glyph-name="comma" unicode="," horiz-adv-x="211" 
d="M47 -186v44q30 0 50 34t20 67q0 32 -19 32q-24 0 -41 17t-17 41t17 41t42 17q36 0 54.5 -31t18.5 -78q0 -68 -34.5 -126t-90.5 -58z" />
    <glyph glyph-name="hyphen" unicode="-" horiz-adv-x="531" 
d="M90 229v62h350v-62h-350z" />
    <glyph glyph-name="period" unicode="." horiz-adv-x="182" 
d="M91 -10q-24 0 -41 17.5t-17 41.5q0 23 17 40.5t41 17.5t41.5 -17.5t17.5 -40.5q0 -24 -17.5 -41.5t-41.5 -17.5z" />
    <glyph glyph-name="slash" unicode="/" horiz-adv-x="591" 
d="M-18 -250l529 1000h84l-527 -1000h-86z" />
    <glyph glyph-name="zero" unicode="0" horiz-adv-x="682" 
d="M341 -10q-116 0 -193.5 110t-77.5 275q0 166 77.5 275.5t193.5 109.5t193 -109.5t77 -275.5q0 -165 -77 -275t-193 -110zM342 69q77 0 129 88t52 218t-52 218.5t-129 88.5t-130 -88.5t-53 -218.5t53 -218t130 -88z" />
    <glyph glyph-name="one" unicode="1" horiz-adv-x="399" 
d="M189 0v643l-151 -120v107l158 120h82v-750h-89z" />
    <glyph glyph-name="two" unicode="2" horiz-adv-x="592" 
d="M43 0v61q267 274 311 324q69 79 78 126q3 14 3 31q0 66 -40 102t-100 38q-62 1 -102.5 -38t-40.5 -105l-86 1q-1 98 66 159.5t167 61.5q93 -1 155.5 -57.5t65.5 -149.5q3 -80 -47.5 -148t-247.5 -267q-38 -39 -59 -60h378v-79h-501z" />
    <glyph glyph-name="three" unicode="3" horiz-adv-x="599" 
d="M395 422q61 -28 97 -81t36 -119q0 -97 -68 -164.5t-166 -67.5q-97 0 -165.5 63.5t-68.5 154.5l88 1q0 -56 42.5 -96t103.5 -40q62 0 104.5 43.5t42.5 106.5t-42.5 106t-104.5 43h-59l-1 72h55h1q49 0 83.5 35t34.5 85q0 48 -34 81t-84 33q-47 0 -80.5 -31.5t-33.5 -76.5
l-85 2q0 79 57.5 133.5t141.5 54.5q83 0 140.5 -54.5t57.5 -133.5q0 -48 -25 -87.5t-68 -62.5z" />
    <glyph glyph-name="four" unicode="4" horiz-adv-x="605" 
d="M545 237v-79h-78v-158h-88v158h-361v57l340 535h109v-513h78zM120 237h259v420z" />
    <glyph glyph-name="five" unicode="5" horiz-adv-x="618" 
d="M301 -10q-67 0 -127 28t-99 77l57 60q28 -39 72 -61t93 -22q73 0 122.5 49t49.5 123q0 75 -49.5 125t-123.5 50q-83 0 -139 -59l-75 35l42 353h388v-78h-318l-30 -225q61 53 154 53q103 0 171 -71.5t68 -179.5q0 -112 -72.5 -184.5t-183.5 -72.5z" />
    <glyph glyph-name="six" unicode="6" horiz-adv-x="649" 
d="M589 258q4 -107 -70.5 -184.5t-182.5 -82.5q-110 -4 -190.5 68t-84.5 178q-4 96 65 179l261 334h104l-204 -252q20 4 50 4q102 -1 174.5 -72t77.5 -172zM334 68q76 4 124.5 59t43.5 129q-5 75 -58.5 124.5t-128.5 45.5t-123 -59t-43 -130q4 -75 57.5 -124t127.5 -45z" />
    <glyph glyph-name="seven" unicode="7" horiz-adv-x="556" 
d="M53 0l384 672h-399v78h500v-59l-386 -691h-99z" />
    <glyph glyph-name="eight" unicode="8" horiz-adv-x="573" 
d="M399 417q59 -28 94 -81t35 -118q0 -96 -69.5 -162t-172.5 -66q-102 0 -171.5 66t-69.5 162q0 65 34.5 118t93.5 81q-85 54 -85 155q0 79 57.5 133.5t141.5 54.5t141 -54.5t57 -133.5q0 -101 -86 -155zM287 688q-52 0 -87.5 -35t-35.5 -87t35.5 -87.5t87.5 -35.5
q51 0 86.5 35.5t35.5 87.5t-35.5 87t-86.5 35zM286 69q64 0 108.5 45t44.5 110q0 64 -44 108t-109 44q-64 0 -108 -44t-44 -108q0 -65 44 -110t108 -45z" />
    <glyph glyph-name="nine" unicode="9" horiz-adv-x="649" 
d="M589 513q4 -96 -64 -179l-262 -334h-104l208 256q-17 -8 -54 -8q-101 2 -174 73t-78 172q-4 106 70.5 183.5t183.5 82.5q110 4 190 -68t84 -178zM334 325q75 3 123.5 58t43.5 130q-4 74 -57.5 123.5t-128.5 45.5t-123.5 -58.5t-44.5 -129.5q5 -75 58.5 -124t128.5 -45z
" />
    <glyph glyph-name="colon" unicode=":" horiz-adv-x="298" 
d="M149 393q-24 0 -41.5 17.5t-17.5 41.5q0 23 17.5 40.5t41.5 17.5t41 -17.5t17 -40.5q0 -24 -17 -41.5t-41 -17.5zM149 -10q-24 0 -41.5 17.5t-17.5 41.5q0 23 17.5 40.5t41.5 17.5t41 -17.5t17 -40.5q0 -24 -17 -41.5t-41 -17.5z" />
    <glyph glyph-name="semicolon" unicode=";" horiz-adv-x="305" 
d="M150 393q-24 0 -41 17.5t-17 41.5q0 23 17 40.5t41 17.5t41.5 -17.5t17.5 -40.5q0 -24 -17.5 -41.5t-41.5 -17.5zM99 -186v44q33 1 53 56q19 49 6 71q-3 6 -9 6q-24 0 -40.5 17t-16.5 41t16.5 41t41.5 17q54 0 66 -72.5t-23 -146t-94 -74.5z" />
    <glyph glyph-name="less" unicode="&#x3c;" horiz-adv-x="733" 
d="M642 663v-76l-481 -242l481 -243v-76l-552 279v81z" />
    <glyph glyph-name="equal" unicode="=" horiz-adv-x="721" 
d="M60 331v59h600v-59h-600zM60 140v59h600v-59h-600z" />
    <glyph glyph-name="greater" unicode="&#x3e;" horiz-adv-x="733" 
d="M90 663l552 -277v-81l-552 -279v76l481 243l-481 242v76z" />
    <glyph glyph-name="question" unicode="?" horiz-adv-x="560" 
d="M239 211v62q0 44 13.5 74.5t33.5 44t43.5 27.5t43.5 26t33.5 38t13.5 64q0 57 -39.5 93.5t-101.5 36.5q-60 0 -99 -38t-40 -96h-80q0 91 62.5 151.5t156.5 60.5q95 0 157.5 -59.5t62.5 -148.5q0 -54 -18.5 -91t-44.5 -55t-52.5 -32.5t-45 -35t-18.5 -51.5v-71h-81z
M283 -10q-23 0 -40.5 17t-17.5 42q0 23 17.5 40.5t40.5 17.5q24 0 41.5 -17.5t17.5 -40.5q0 -25 -17.5 -42t-41.5 -17z" />
    <glyph glyph-name="at" unicode="@" horiz-adv-x="606" 
d="M516 149h-55v34q-40 -45 -98 -45q-53 0 -90 36.5t-37 89.5q0 52 37 88.5t90 36.5q27 0 54 -13.5t44 -34.5v25q0 53 -41 90t-100 37q-85 0 -144.5 -63t-59.5 -154q0 -93 66.5 -156.5t162.5 -63.5h171v-56h-171q-120 0 -202.5 80t-82.5 196q0 114 75.5 193.5t184.5 79.5
q83 0 139.5 -53t56.5 -130v-217zM383 186q27 0 48.5 15t29.5 39v48q-8 24 -29.5 38.5t-48.5 14.5q-35 0 -59 -22t-24 -55q0 -34 24 -56t59 -22z" />
    <glyph glyph-name="A" unicode="A" horiz-adv-x="743" 
d="M624 0l-61 157h-384l-61 -157h-99l301 750h102l301 -750h-99zM208 234h326l-163 422z" />
    <glyph glyph-name="B" unicode="B" horiz-adv-x="645" 
d="M444 386q69 -17 111 -66t42 -121q0 -88 -59.5 -143.5t-147.5 -55.5h-315v750h256q88 0 148.5 -56t60.5 -144q0 -113 -96 -164zM449 542q0 53 -37.5 90t-90.5 37h-155v-256h155q53 0 90.5 38t37.5 91zM378 81q53 0 90.5 38t37.5 91q0 52 -37.5 89.5t-90.5 37.5h-212v-256
h212z" />
    <glyph glyph-name="C" unicode="C" horiz-adv-x="668" 
d="M417 -10q-158 0 -262 111.5t-104 273.5t104 273.5t262 111.5q113 0 204 -70v-110q-86 93 -204 93q-123 0 -201.5 -85.5t-78.5 -212.5t78.5 -212.5t201.5 -85.5q120 0 204 93v-110q-91 -70 -204 -70z" />
    <glyph glyph-name="D" unicode="D" horiz-adv-x="711" 
d="M75 0v750h210q155 0 265 -110t110 -265t-110 -265t-265 -110h-210zM166 81h119q119 0 201.5 85.5t82.5 208.5t-82.5 208.5t-201.5 85.5h-119v-588z" />
    <glyph glyph-name="E" unicode="E" horiz-adv-x="542" 
d="M490 669h-324v-253h282v-82h-282v-253h324v-81h-415v750h415v-81z" />
    <glyph glyph-name="F" unicode="F" horiz-adv-x="528" 
d="M490 669h-324v-253h282v-82h-282v-334h-91v750h415v-81z" />
    <glyph glyph-name="G" unicode="G" horiz-adv-x="740" 
d="M452 673q-125 0 -210.5 -83t-85.5 -218t85.5 -218t210.5 -83q68 0 132 31v217h-174v82h255v-353q-102 -64 -214 -64q-160 0 -270 108.5t-110 279.5t109.5 279.5t268.5 108.5q114 0 216 -64v-114q-39 43 -95.5 67t-117.5 24z" />
    <glyph glyph-name="H" unicode="H" horiz-adv-x="731" 
d="M565 750h91v-750h-91v334h-399v-334h-91v750h91v-334h399v334z" />
    <glyph glyph-name="I" unicode="I" horiz-adv-x="241" 
d="M75 0v750h91v-750h-91z" />
    <glyph glyph-name="J" unicode="J" horiz-adv-x="379" 
d="M124 -10q-46 0 -74 10v93q36 -12 74 -12q34 0 59 24.5t25 59.5v585h91v-585q0 -73 -51.5 -124t-123.5 -51z" />
    <glyph glyph-name="K" unicode="K" horiz-adv-x="624" 
d="M595 90v-120l-429 415v-385h-91v750h91v-315l308 315h118l-332 -337z" />
    <glyph glyph-name="L" unicode="L" horiz-adv-x="475" 
d="M75 0v750h91v-669h275v-81h-366z" />
    <glyph glyph-name="M" unicode="M" horiz-adv-x="906" 
d="M735 750h96v-750h-90v618l-289 -434l-286 433v-617h-91v750h97l281 -418z" />
    <glyph glyph-name="N" unicode="N" horiz-adv-x="778" 
d="M613 750h90v-750h-87l-450 603v-603h-91v750h87l451 -604v604z" />
    <glyph glyph-name="O" unicode="O" horiz-adv-x="834" 
d="M417 -10q-158 0 -262 111.5t-104 273.5t104 273.5t262 111.5q157 0 261.5 -111.5t104.5 -273.5t-104.5 -273.5t-261.5 -111.5zM417 77q123 0 201 85.5t78 212.5t-78 212.5t-201 85.5t-201.5 -85.5t-78.5 -212.5t78.5 -212.5t201.5 -85.5z" />
    <glyph glyph-name="P" unicode="P" horiz-adv-x="588" 
d="M350 750q88 0 149.5 -62t61.5 -149q0 -88 -61.5 -148.5t-149.5 -60.5h-184v-330h-91v750h275zM345 406q55 0 93.5 37t38.5 95q0 56 -39 93.5t-93 37.5h-179v-263h179z" />
    <glyph glyph-name="Q" unicode="Q" horiz-adv-x="827" 
d="M777 86h31v-86h-35q-49 0 -95 46l-27 29q-99 -85 -234 -85q-158 0 -262 111.5t-104 273.5t104 273.5t262 111.5q157 0 261.5 -111.5t104.5 -273.5q0 -136 -76 -239l32 -34q16 -16 38 -16zM417 77q101 0 174 60l-121 127l58 58l118 -123q50 77 50 176q0 127 -78 212.5
t-201 85.5t-201.5 -85.5t-78.5 -212.5t78.5 -212.5t201.5 -85.5z" />
    <glyph glyph-name="R" unicode="R" horiz-adv-x="592" 
d="M391 340l189 -340h-102l-179 335h-133v-335h-91v750h275q87 0 149 -62t62 -150q0 -75 -48.5 -130.5t-121.5 -67.5zM166 410h182q54 0 91.5 38t37.5 92t-38 91.5t-91 37.5h-182v-259z" />
    <glyph glyph-name="S" unicode="S" horiz-adv-x="629" 
d="M325 -10q-91 0 -167 40t-116 105l66 67q23 -56 83 -90.5t137 -34.5q71 0 115 29.5t45 89.5q0 28 -11 51.5t-25.5 39t-43.5 31.5t-48.5 24t-56.5 22q-42 16 -63.5 25t-55 27.5t-50.5 37t-30.5 47.5t-13.5 64q0 92 66 143.5t165 51.5q84 0 149.5 -28.5t104.5 -75.5l-61 -62
q-58 87 -191 87q-61 0 -101 -28t-40 -81q0 -21 9.5 -39.5t22.5 -31.5t38 -26.5t44 -21.5t51 -20l48 -19.5t45.5 -20.5t45 -25t36.5 -29.5t31.5 -37.5t18.5 -45t8 -55q0 -104 -71 -157.5t-184 -53.5z" />
    <glyph glyph-name="T" unicode="T" horiz-adv-x="550" 
d="M526 750v-80h-205v-670h-91v670h-205v80h501z" />
    <glyph glyph-name="U" unicode="U" horiz-adv-x="730" 
d="M365 -10q-119 0 -202 74.5t-83 181.5v504h91v-489q0 -79 56.5 -134.5t137.5 -55.5t137.5 55.5t56.5 134.5v489h92v-504q0 -107 -83.5 -181.5t-202.5 -74.5z" />
    <glyph glyph-name="V" unicode="V" horiz-adv-x="718" 
d="M608 750h103l-301 -750h-103l-301 750h103l250 -645z" />
    <glyph glyph-name="W" unicode="W" horiz-adv-x="1083" 
d="M995 750h98l-316 -750h-99l-136 322l-136 -322h-98l-318 750h99l271 -642l136 322l-135 320h94l269 -642z" />
    <glyph glyph-name="X" unicode="X" horiz-adv-x="650" 
d="M630 0h-105l-201 306l-200 -306h-105l255 381l-248 369h105l193 -294l194 294h105l-249 -369z" />
    <glyph glyph-name="Y" unicode="Y" horiz-adv-x="653" 
d="M634 750l-261 -394v-356h-92v354l-262 396h103l205 -317l205 317h102z" />
    <glyph glyph-name="Z" unicode="Z" horiz-adv-x="659" 
d="M170 81h443v-81h-568v48l431 621h-420v81h545v-48z" />
    <glyph glyph-name="bracketleft" unicode="[" horiz-adv-x="275" 
d="M79 -335v1170h206v-68h-129v-1034h129v-68h-206z" />
    <glyph glyph-name="backslash" unicode="\" horiz-adv-x="591" 
d="M511 -250l-529 1000h86l527 -1000h-84z" />
    <glyph glyph-name="bracketright" unicode="]" horiz-adv-x="275" 
d="M79 -335v68h129v1034h-129v68h206v-1170h-206z" />
    <glyph glyph-name="asciicircum" unicode="^" horiz-adv-x="698" 
d="M667 198h-76l-242 481l-243 -481h-76l278 552h81z" />
    <glyph glyph-name="underscore" unicode="_" horiz-adv-x="681" 
d="M90 -61v61h500v-61h-500z" />
    <glyph glyph-name="grave" unicode="`" horiz-adv-x="50" 
d="M140 595l-110 155h91l90 -155h-71z" />
    <glyph glyph-name="a" unicode="a" horiz-adv-x="537" 
d="M259 510q91 0 149 -48.5t58 -141.5v-320h-78l-5 71q-91 -81 -185 -81q-67 0 -110 43t-43 110q0 75 60.5 117t182.5 22l91 -15v59q0 54 -34.5 81.5t-89.5 27.5q-88 0 -134 -69l-61 54q62 90 199 90zM135 147q0 -35 22.5 -56.5t60.5 -21.5q78 0 161 76v57l-82 14
q-87 16 -124.5 -5.5t-37.5 -63.5z" />
    <glyph glyph-name="b" unicode="b" horiz-adv-x="595" 
d="M325 510q104 0 167 -74.5t63 -185.5t-63 -185.5t-167 -74.5t-167 82l-4 -72h-79v750h87v-317q64 77 163 77zM311 69q72 0 115 51.5t43 129.5t-43 130t-115 52q-53 0 -94 -36t-55 -92v-108q14 -56 55 -91.5t94 -35.5z" />
    <glyph glyph-name="c" unicode="c" horiz-adv-x="445" 
d="M276 -10q-108 0 -172 73t-64 187t64 187t172 73q77 0 129 -40v-89q-49 54 -120 54q-73 0 -115.5 -52t-42.5 -133t42.5 -133t115.5 -52t120 54v-88q-52 -41 -129 -41z" />
    <glyph glyph-name="d" unicode="d" horiz-adv-x="595" 
d="M434 750h86v-750h-79l-4 72q-64 -82 -167 -82q-104 0 -167 74.5t-63 185.5t63 185.5t167 74.5q101 0 164 -78v318zM284 69q53 0 94.5 35.5t55.5 91.5v108q-14 56 -55.5 92t-94.5 36q-72 0 -114.5 -52t-42.5 -130t42.5 -129.5t114.5 -51.5z" />
    <glyph glyph-name="e" unicode="e" horiz-adv-x="545" 
d="M505 250q0 -19 -1 -29h-378q7 -71 47 -112.5t108 -41.5q46 0 77 18.5t61 64.5l62 -43q-65 -117 -203 -117q-109 0 -173.5 72.5t-64.5 186.5t65 187.5t173 73.5q105 0 166 -72t61 -188zM280 434q-64 0 -103 -39t-49 -105h297q-7 67 -44.5 105.5t-100.5 38.5z" />
    <glyph glyph-name="f" unicode="f" horiz-adv-x="368" 
d="M213 607v-107h131v-69h-131v-431h-89v431h-84v69h84v112q0 62 45 105t109 43q71 0 114 -52l-50 -54q-24 32 -63 32q-29 0 -47.5 -22.5t-18.5 -56.5z" />
    <glyph glyph-name="g" unicode="g" horiz-adv-x="596" 
d="M441 500h80v-494q0 -112 -64.5 -184t-171.5 -72q-86 0 -154 47v96q68 -65 160 -65q64 0 103.5 48.5t39.5 129.5v63q-64 -79 -164 -79q-104 0 -167 74.5t-63 185.5q0 112 63 186t167 74q102 0 167 -83zM284 69q52 0 93.5 36t56.5 92v106q-15 57 -56.5 93t-93.5 36
q-72 0 -114.5 -52t-42.5 -130q0 -77 42.5 -129t114.5 -52z" />
    <glyph glyph-name="h" unicode="h" horiz-adv-x="588" 
d="M322 510q84 0 139.5 -55t55.5 -139v-316h-89v306q0 54 -37 90t-93 36t-95.5 -38t-39.5 -92v-302h-88v750h88v-313q62 73 159 73z" />
    <glyph glyph-name="i" unicode="i" horiz-adv-x="273" 
d="M137 593q-24 0 -41.5 16.5t-17.5 40.5q0 25 17.5 42t41.5 17q23 0 40.5 -17.5t17.5 -41.5t-17 -40.5t-41 -16.5zM92 0v500h88v-500h-88z" />
    <glyph glyph-name="j" unicode="j" horiz-adv-x="265" 
d="M149 593q-24 0 -41.5 16.5t-17.5 40.5q0 25 17.5 42t41.5 17t41 -17t17 -42q0 -24 -17 -40.5t-41 -16.5zM40 -260q-42 0 -65 16v77q24 -19 55 -19q32 0 53.5 22.5t21.5 56.5v607h88v-612q0 -62 -44.5 -105t-108.5 -43z" />
    <glyph glyph-name="k" unicode="k" horiz-adv-x="507" 
d="M495 58v-108l-332 298v-248h-88v750h88v-445l212 195h112l-239 -220z" />
    <glyph glyph-name="l" unicode="l" horiz-adv-x="327" 
d="M232 -10q-70 0 -111.5 41.5t-41.5 108.5v610h88l1 -610q0 -74 66 -74q32 0 54 23l49 -60q-37 -39 -105 -39z" />
    <glyph glyph-name="m" unicode="m" horiz-adv-x="901" 
d="M644 510q81 0 133.5 -53t52.5 -135v-322h-89v312q0 51 -34 85.5t-85 34.5q-53 0 -89 -36.5t-36 -88.5v-307h-89v312q0 51 -34 85.5t-85 34.5q-52 0 -89 -36.5t-37 -88.5v-307h-88v500h81l4 -61q58 71 152 71q53 0 94.5 -24t65.5 -67q28 42 73 66.5t99 24.5z" />
    <glyph glyph-name="n" unicode="n" horiz-adv-x="588" 
d="M322 510q84 0 139.5 -55t55.5 -139v-316h-89v306q0 54 -37 90t-93 36t-95.5 -38t-39.5 -92v-302h-88v500h81l4 -66q63 76 162 76z" />
    <glyph glyph-name="o" unicode="o" horiz-adv-x="567" 
d="M284 -10q-108 0 -176 75t-68 185q0 111 68 185.5t176 74.5q107 0 175.5 -75t68.5 -185t-68.5 -185t-175.5 -75zM284 69q71 0 114 52t43 129q0 78 -43.5 130t-113.5 52q-72 0 -114.5 -52t-42.5 -130t42.5 -129.5t114.5 -51.5z" />
    <glyph glyph-name="p" unicode="p" horiz-adv-x="595" 
d="M325 510q104 0 167 -74.5t63 -185.5t-63 -185.5t-167 -74.5q-99 0 -163 77v-317h-87v750h87v-67q64 77 163 77zM311 69q72 0 115 51.5t43 129.5t-43 130t-115 52q-53 0 -94 -36t-55 -92v-108q14 -56 55 -91.5t94 -35.5z" />
    <glyph glyph-name="q" unicode="q" horiz-adv-x="595" 
d="M434 500h86v-750h-86v318q-63 -78 -164 -78q-104 0 -167 74.5t-63 185.5t63 185.5t167 74.5q101 0 164 -78v68zM284 69q53 0 94.5 35.5t55.5 91.5v108q-14 56 -55.5 92t-94.5 36q-72 0 -114.5 -52t-42.5 -130t42.5 -129.5t114.5 -51.5z" />
    <glyph glyph-name="r" unicode="r" horiz-adv-x="399" 
d="M308 510q69 0 109 -30l-43 -64q-29 16 -70 16q-56 0 -98.5 -43.5t-42.5 -108.5v-280h-88v500h81l4 -76q60 86 148 86z" />
    <glyph glyph-name="s" unicode="s" horiz-adv-x="474" 
d="M242 -10q-61 0 -119 22t-86 55l46 60q18 -26 63.5 -44.5t90.5 -19.5q47 -2 78.5 18t31.5 54q0 15 -7.5 27t-16 19.5t-29 16t-31.5 12t-38 11.5l-39 13t-36 13.5t-36 19t-26 24t-20 33t-6 40.5q0 65 54.5 105.5t129.5 40.5q47 0 94.5 -15.5t78.5 -40.5l-49 -60
q-43 40 -109 45q-42 3 -75.5 -14t-33.5 -50q0 -18 8.5 -32t28 -24t35 -15.5t45.5 -14.5q32 -9 48.5 -14.5t43 -18t40 -26t24.5 -36.5t11 -52q0 -66 -55.5 -109t-138.5 -43z" />
    <glyph glyph-name="t" unicode="t" horiz-adv-x="349" 
d="M297 89l49 -60q-37 -39 -105 -39q-69 0 -111 41.5t-42 108.5v291h-65v69h65v170h88v-170h136v-69h-135v-291q0 -74 66 -74q32 0 54 23z" />
    <glyph glyph-name="u" unicode="u" horiz-adv-x="594" 
d="M430 500h89v-500h-81l-5 67q-61 -77 -159 -77q-83 0 -140 58t-57 141v311h88v-302q0 -54 38 -91.5t93 -37.5q56 0 95 37.5t39 91.5v302z" />
    <glyph glyph-name="v" unicode="v" horiz-adv-x="501" 
d="M399 500h94l-200 -500h-85l-200 500h94l149 -396z" />
    <glyph glyph-name="w" unicode="w" horiz-adv-x="717" 
d="M610 500h98l-171 -500h-97l-83 238l-80 -238h-96l-172 500h100l125 -394l82 247l-51 147h87l131 -396z" />
    <glyph glyph-name="x" unicode="x" horiz-adv-x="512" 
d="M518 500l-209 -250l209 -250h-108l-154 185l-154 -185h-108l208 250l-208 250h106l156 -186l155 186h107z" />
    <glyph glyph-name="y" unicode="y" horiz-adv-x="594" 
d="M519 500v-513q0 -108 -62.5 -175.5t-178.5 -67.5q-100 0 -174 48v96q75 -65 181 -65q72 0 108.5 43t36.5 121v77q-60 -74 -156 -74q-83 0 -140 58t-57 141v311h88v-302q0 -54 38 -91.5t93 -37.5q56 0 95 37.5t39 91.5v302h89z" />
    <glyph glyph-name="z" unicode="z" horiz-adv-x="528" 
d="M48 0v62l308 364h-302v74h419v-60l-308 -366h315v-74h-432z" />
    <glyph glyph-name="braceleft" unicode="{" horiz-adv-x="330" 
d="M230 -323q-45 0 -75 39t-30 97v242q0 75 -13.5 108.5t-61.5 55.5v60q48 23 61.5 56.5t13.5 107.5v238q0 58 30 97t75 39h47v-62q-47 0 -64.5 -16t-17.5 -64v-247q0 -64 -13.5 -106.5t-54.5 -72.5q41 -30 54.5 -72.5t13.5 -106.5v-251q0 -41 17.5 -58t64.5 -17v-67h-47z
" />
    <glyph glyph-name="bar" unicode="|" horiz-adv-x="291" 
d="M116 -150v900h58v-900h-58z" />
    <glyph glyph-name="braceright" unicode="}" horiz-adv-x="330" 
d="M53 -323v67q47 0 64.5 17t17.5 58v251q0 64 13.5 106.5t53.5 72.5q-40 30 -53.5 72.5t-13.5 106.5v247q0 48 -17.5 64t-64.5 16v66h47q45 0 74.5 -39.5t29.5 -96.5v-242q0 -74 13.5 -107t61.5 -57v-60q-47 -22 -61 -55.5t-14 -108.5v-242q0 -58 -29.5 -97t-74.5 -39h-47z
" />
    <glyph glyph-name="asciitilde" unicode="~" horiz-adv-x="562" 
d="M388 179q-30 0 -57 13.5t-39.5 26t-31.5 34.5q-44 51 -83 51q-40 0 -64.5 -32.5t-22.5 -80.5h-49q-4 71 35 116.5t101 45.5q66 0 124 -73q42 -53 83 -53q40 0 65 31.5t22 81.5h49q6 -68 -32.5 -114.5t-99.5 -46.5z" />
    <glyph glyph-name="exclamdown" unicode="&#xa1;" horiz-adv-x="298" 
d="M149 383q-24 0 -41.5 17t-17.5 42q0 23 17.5 40.5t41.5 17.5t41 -17.5t17 -40.5q0 -25 -17 -42t-41 -17zM104 -250l10 531h69l10 -531h-89z" />
    <glyph glyph-name="cent" unicode="&#xa2;" horiz-adv-x="525" 
d="M321 532q-76 0 -129 -53t-53 -129t53 -128.5t129 -52.5q83 0 133 47v-88q-53 -35 -122 -38v-91h-56v94q-97 16 -161 88t-64 169t64 169t161 88v94h56v-91q66 -3 122 -37v-89q-51 48 -133 48z" />
    <glyph glyph-name="sterling" unicode="&#xa3;" horiz-adv-x="609" 
d="M185 64h380v-64h-449v337h-80v61h80v132q0 101 63 165.5t161 64.5q71 0 131.5 -44.5t79.5 -112.5l-66 -29q-10 50 -52 83t-93 33q-70 0 -112.5 -43.5t-42.5 -116.5v-132h186v-61h-186v-273z" />
    <glyph glyph-name="currency" unicode="&#xa4;" horiz-adv-x="605" 
d="M122 133l-48 51l51 50q-43 57 -43 129t43 129l-50 49l48 51l51 -52q57 44 129 44t129 -43l51 51l49 -49l-51 -50q43 -58 43 -130t-43 -130l51 -49l-48 -51l-52 52q-57 -43 -129.5 -43t-129.5 43zM194 255q46 -45 109 -45.5t108 45.5q44 45 44 108.5t-44 107.5
q-45 44 -108 44t-108 -45q-44 -44 -44.5 -107.5t43.5 -107.5z" />
    <glyph glyph-name="yen" unicode="&#xa5;" horiz-adv-x="674" 
d="M376 362v-8h202v-59h-202v-96h202v-55h-202v-144h-78v144h-200v55h200v96h-200v59h200v8l-258 388h85l211 -326l213 326h84z" />
    <glyph glyph-name="brokenbar" unicode="&#xa6;" horiz-adv-x="291" 
d="M116 390v360h58v-360h-58zM116 -150v360h58v-360h-58z" />
    <glyph glyph-name="section" unicode="&#xa7;" horiz-adv-x="619" 
d="M517 248q39 -36 39 -89q0 -70 -71 -113.5t-171 -43.5q-85 0 -153 32.5t-96 82.5l57 33q20 -38 71.5 -62t123.5 -24t122 25.5t50 70.5q0 37 -40 60.5t-97.5 38.5t-115 32.5t-97.5 53t-40 88.5t40 90q-39 36 -39 87q0 70 63 110t150 40q60 0 113.5 -19.5t86.5 -52.5
l-46 -38q-55 52 -150 52q-62 0 -106 -24t-44 -65q0 -37 40 -61t97.5 -39t115 -32.5t97.5 -53t40 -89.5q0 -50 -40 -90zM167 435q0 -41 45 -65.5t128.5 -46.5t121.5 -40q27 24 27 56q0 31 -31.5 54t-71.5 34t-99 28t-93 33q-27 -21 -27 -53z" />
    <glyph glyph-name="dieresis" unicode="&#xa8;" horiz-adv-x="50" 
d="M121 593q-24 0 -41.5 16.5t-17.5 40.5q0 25 17.5 42t41.5 17t41 -17t17 -42q0 -24 -17 -40.5t-41 -16.5zM308 593q-24 0 -41 16.5t-17 40.5t17 41.5t41 17.5t41 -17t17 -42q0 -24 -17 -40.5t-41 -16.5z" />
    <glyph glyph-name="copyright" unicode="&#xa9;" horiz-adv-x="872" 
d="M436 -10q-159 0 -272 113t-113 272t113 272t272 113t272 -113t113 -272t-113 -272t-272 -113zM436 42q139 0 236.5 97t97.5 236t-97 236.5t-237 97.5q-139 0 -236 -97.5t-97 -236.5t97 -236t236 -97zM449 174q-85 0 -144.5 57.5t-59.5 139.5q0 83 59.5 141t144.5 58
q59 0 106 -31v-58l-4 -2q-42 36 -99 36q-62 0 -104.5 -40.5t-42.5 -103.5q0 -62 42.5 -102.5t104.5 -40.5q58 0 98 34h5v-57q-47 -31 -106 -31z" />
    <glyph glyph-name="ordfeminine" unicode="&#xaa;" horiz-adv-x="409" 
d="M307 750h47v-300h-47v64q-42 -70 -123 -70q-63 0 -107.5 45.5t-44.5 110.5t44.5 110.5t107.5 45.5q39 0 71.5 -19t51.5 -52v65zM192 485q48 0 81.5 34t33.5 81t-33.5 80.5t-81.5 33.5q-47 0 -80 -33.5t-33 -80.5t33 -81t80 -34z" />
    <glyph glyph-name="guillemotleft" unicode="&#xab;" horiz-adv-x="638" 
d="M263 95l-152 184l152 184h75l-152 -184l152 -184h-75zM452 95l-152 184l152 184h76l-152 -184l152 -184h-76z" />
    <glyph glyph-name="logicalnot" unicode="&#xac;" horiz-adv-x="783" 
d="M633 117v256h-543v59h602v-315h-59z" />
    <glyph glyph-name="uni00AD" unicode="&#xad;" horiz-adv-x="595" 
d="M90 229v62h350v-62h-350z" />
    <glyph glyph-name="registered" unicode="&#xae;" horiz-adv-x="872" 
d="M436 760q159 0 272 -113t113 -272t-113 -272t-272 -113t-272 113t-113 272t113 272t272 113zM436 42q139 0 236.5 97t97.5 236t-97 236.5t-237 97.5q-139 0 -236 -97.5t-97 -236.5t97 -236t236 -97zM574 459q0 -37 -21.5 -66.5t-55.5 -40.5l94 -172h-53l-93 167h-64v-167
h-47v390h127q47 0 80 -32.5t33 -78.5zM381 522v-128h80q27 0 46 19t19 46q0 26 -19 44.5t-46 18.5h-80z" />
    <glyph glyph-name="macron" unicode="&#xaf;" horiz-adv-x="61" 
d="M30 601v59h310v-59h-310z" />
    <glyph glyph-name="degree" unicode="&#xb0;" horiz-adv-x="489" 
d="M244 492q-55 0 -94.5 39.5t-39.5 94.5t39.5 94.5t94.5 39.5q56 0 95 -39t39 -95t-39 -95t-95 -39zM244 539q37 0 62 25t25 62t-25 62t-62 25q-36 0 -61.5 -25t-25.5 -62t25.5 -62t61.5 -25z" />
    <glyph glyph-name="plusminus" unicode="&#xb1;" horiz-adv-x="790" 
d="M425 429h315v-59h-315v-180h-59v180h-316v59h316v180h59v-180zM50 0v55h690v-55h-690z" />
    <glyph glyph-name="uni00B2" unicode="&#xb2;" horiz-adv-x="341" 
d="M43 380v33q138 142 165.5 175t27.5 62q0 32 -19.5 50t-48.5 19q-31 0 -50.5 -19t-19.5 -51h-45q-1 49 33 80t84 31q47 0 78.5 -28t32.5 -74q1 -44 -27 -80t-147 -157h186v-41h-250z" />
    <glyph glyph-name="uni00B3" unicode="&#xb3;" horiz-adv-x="366" 
d="M230 591q65 -30 65 -99q0 -49 -34 -83t-83 -34t-83.5 31.5t-34.5 77.5l46 1q0 -28 21.5 -47t50.5 -19q30 0 50.5 21.5t20.5 51.5q0 31 -20.5 52t-50.5 21h-30v38h27q25 0 41 16.5t16 42.5q0 23 -16 38.5t-41 15.5q-23 0 -39 -15t-16 -36l-45 1q0 40 29.5 67t70.5 27
t70.5 -27t29.5 -67q0 -48 -45 -75z" />
    <glyph glyph-name="acute" unicode="&#xb4;" horiz-adv-x="50" 
d="M30 595l90 155h91l-109 -155h-72z" />
    <glyph glyph-name="uni00B5" unicode="&#xb5;" horiz-adv-x="595" 
d="M434 500h88v-500h-88v72q-61 -82 -158 -82q-74 0 -128 48v-288h-68v750h89v-302q0 -54 38 -91.5t92 -37.5q56 0 95.5 37.5t39.5 91.5v302z" />
    <glyph glyph-name="paragraph" unicode="&#xb6;" horiz-adv-x="621" 
d="M309 -150v565h-31q-84 0 -131 43.5t-47 124.5t47 124t131 43h80v-900h-49zM451 -150v900h50v-900h-50z" />
    <glyph glyph-name="periodcentered" unicode="&#xb7;" horiz-adv-x="274" 
d="M137 314q-19 0 -33 13t-14 33q0 19 14 33t33 14t33 -14t14 -33q0 -20 -14 -33t-33 -13z" />
    <glyph glyph-name="cedilla" unicode="&#xb8;" horiz-adv-x="50" 
d="M146 -260q-34 0 -67.5 18.5t-48.5 44.5l42 18q11 -15 32.5 -25.5t41.5 -10.5q24 0 40 16.5t16 40.5q0 35 -29 48.5t-71 -2.5l-36 24l44 88h46l-33 -67q52 10 88.5 -16.5t36.5 -74.5q0 -42 -29.5 -72t-72.5 -30z" />
    <glyph glyph-name="uni00B9" unicode="&#xb9;" horiz-adv-x="262" 
d="M94 375v334h-56v41h103v-375h-47z" />
    <glyph glyph-name="ordmasculine" unicode="&#xba;" horiz-adv-x="385" 
d="M192 444q-67 0 -113.5 45.5t-46.5 110.5t46.5 110.5t113.5 45.5t114.5 -45.5t47.5 -110.5t-47 -110.5t-115 -45.5zM192 485q48 0 81.5 34t33.5 81t-33.5 80.5t-81.5 33.5q-47 0 -80 -33.5t-33 -80.5t33 -81t80 -34z" />
    <glyph glyph-name="guillemotright" unicode="&#xbb;" horiz-adv-x="638" 
d="M110 95l152 184l-152 184h75l152 -184l-152 -184h-75zM299 95l152 184l-152 184h76l152 -184l-152 -184h-76z" />
    <glyph glyph-name="questiondown" unicode="&#xbf;" horiz-adv-x="556" 
d="M274 517q24 0 41.5 -17t17.5 -41t-17.5 -41.5t-41.5 -17.5t-41 17.5t-17 41.5t17 41t41 17zM318 296v-61q0 -44 -13.5 -74.5t-33.5 -44.5t-43.5 -28t-43.5 -26t-33.5 -38t-13.5 -64q0 -57 40 -93.5t101 -36.5q60 0 99 38t41 96h79q1 -91 -62 -151.5t-157 -60.5
t-156.5 59.5t-62.5 148.5q0 54 18.5 91t44.5 55t52 32.5t44.5 35.5t18.5 52v70h81z" />
    <glyph glyph-name="Agrave" unicode="&#xc0;" horiz-adv-x="743" 
d="M403 845h-71l-110 155h91zM624 0l-61 157h-384l-61 -157h-99l301 750h102l301 -750h-99zM208 234h326l-163 422z" />
    <glyph glyph-name="Aacute" unicode="&#xc1;" horiz-adv-x="743" 
d="M518 1000l-109 -155h-72l90 155h91zM624 0l-61 157h-384l-61 -157h-99l301 750h102l301 -750h-99zM208 234h326l-163 422z" />
    <glyph glyph-name="Acircumflex" unicode="&#xc2;" horiz-adv-x="743" 
d="M371 957l-77 -128h-72l102 171h94l102 -171h-72zM624 0l-61 157h-384l-61 -157h-99l301 750h102l301 -750h-99zM208 234h326l-163 422z" />
    <glyph glyph-name="Atilde" unicode="&#xc3;" horiz-adv-x="743" 
d="M263 845h-56q-8 56 19.5 92.5t74.5 36.5q57 0 93 -55q17 -29 45 -29q23 0 34.5 20.5t5.5 54.5h56q8 -55 -19 -92t-75 -37q-57 0 -93 54q-19 29 -45 29q-23 0 -34.5 -20.5t-5.5 -53.5zM624 0l-61 157h-384l-61 -157h-99l301 750h102l301 -750h-99zM208 234h326l-163 422z
" />
    <glyph glyph-name="Adieresis" unicode="&#xc4;" horiz-adv-x="743" 
d="M278 843q-24 0 -41.5 16.5t-17.5 40.5q0 25 17.5 42t41.5 17t41 -17t17 -42q0 -24 -17 -40.5t-41 -16.5zM465 843q-24 0 -41 16.5t-17 40.5t17.5 41.5t40.5 17.5q24 0 41 -17t17 -42q0 -24 -17 -40.5t-41 -16.5zM624 0l-61 157h-384l-61 -157h-99l301 750h102l301 -750
h-99zM208 234h326l-163 422z" />
    <glyph glyph-name="Aring" unicode="&#xc5;" horiz-adv-x="743" 
d="M624 0l-61 157h-384l-61 -157h-99l293 731q-43 31 -43 82q0 42 30.5 72.5t72.5 30.5t72 -30.5t30 -72.5q0 -54 -44 -83l293 -730h-99zM372 876q-25 0 -42.5 -18.5t-17.5 -44.5t17 -43.5t43 -17.5t43.5 17.5t17.5 43.5t-18 44.5t-43 18.5zM208 234h326l-163 422z" />
    <glyph glyph-name="AE" unicode="&#xc6;" horiz-adv-x="895" 
d="M19 0l301 750h524v-78h-326v-261h284v-71h-284v-261h326v-79h-415v164h-247l-61 -164h-102zM213 235h217v437h-46z" />
    <glyph glyph-name="Ccedilla" unicode="&#xc7;" horiz-adv-x="668" 
d="M417 673q-123 0 -201.5 -85.5t-78.5 -212.5t78.5 -212.5t201.5 -85.5q120 0 204 93v-110q-84 -65 -186 -69l-28 -58q52 10 88.5 -16.5t36.5 -74.5q0 -42 -29.5 -72t-72.5 -30q-34 0 -67.5 18.5t-48.5 44.5l42 18q11 -15 32.5 -25.5t41.5 -10.5q24 0 40 16.5t16 40.5
q0 35 -29 48.5t-71 -2.5l-36 24l39 79q-147 10 -242.5 120t-95.5 264q0 162 104 273.5t262 111.5q113 0 204 -70v-110q-86 93 -204 93z" />
    <glyph glyph-name="Egrave" unicode="&#xc8;" horiz-adv-x="542" 
d="M314 845h-71l-110 155h91zM490 669h-324v-253h282v-82h-282v-253h324v-81h-415v750h415v-81z" />
    <glyph glyph-name="Eacute" unicode="&#xc9;" horiz-adv-x="542" 
d="M429 1000l-109 -155h-72l90 155h91zM490 669h-324v-253h282v-82h-282v-253h324v-81h-415v750h415v-81z" />
    <glyph glyph-name="Ecircumflex" unicode="&#xca;" horiz-adv-x="542" 
d="M282 957l-77 -128h-72l102 171h94l102 -171h-72zM490 669h-324v-253h282v-82h-282v-253h324v-81h-415v750h415v-81z" />
    <glyph glyph-name="Edieresis" unicode="&#xcb;" horiz-adv-x="542" 
d="M189 843q-24 0 -41.5 16.5t-17.5 40.5q0 25 17.5 42t41.5 17t41 -17t17 -42q0 -24 -17 -40.5t-41 -16.5zM376 843q-24 0 -41 16.5t-17 40.5t17 41.5t41 17.5t41 -17t17 -42q0 -24 -17 -40.5t-41 -16.5zM490 669h-324v-253h282v-82h-282v-253h324v-81h-415v750h415v-81z
" />
    <glyph glyph-name="Igrave" unicode="&#xcc;" horiz-adv-x="241" 
d="M81 845l-110 155h91l90 -155h-71zM75 0v750h91v-750h-91z" />
    <glyph glyph-name="Iacute" unicode="&#xcd;" horiz-adv-x="241" 
d="M86 845l90 155h91l-109 -155h-72zM75 0v750h91v-750h-91z" />
    <glyph glyph-name="Icircumflex" unicode="&#xce;" horiz-adv-x="241" 
d="M-29 829l102 171h94l102 -171h-72l-77 128l-77 -128h-72zM75 0v750h91v-750h-91z" />
    <glyph glyph-name="Idieresis" unicode="&#xcf;" horiz-adv-x="241" 
d="M27 843q-24 0 -41.5 16.5t-17.5 40.5q0 25 17.5 42t41.5 17t41 -17t17 -42q0 -24 -17 -40.5t-41 -16.5zM214 843q-24 0 -41 16.5t-17 40.5t17 41.5t41 17.5t41 -17t17 -42q0 -24 -17 -40.5t-41 -16.5zM75 0v750h91v-750h-91z" />
    <glyph glyph-name="Eth" unicode="&#xd0;" horiz-adv-x="711" 
d="M285 750q155 0 265 -110t110 -265t-110 -265t-265 -110h-210v344h-77v63h77v343h210zM285 81q119 0 201.5 85.5t82.5 208.5t-82.5 208.5t-201.5 85.5h-119v-262h131v-63h-131v-263h119z" />
    <glyph glyph-name="Ntilde" unicode="&#xd1;" horiz-adv-x="778" 
d="M280 845h-56q-8 56 19.5 92.5t74.5 36.5q57 0 93 -55q17 -29 45 -29q23 0 34.5 20.5t5.5 54.5h56q8 -55 -19 -92t-75 -37q-57 0 -93 54q-19 29 -45 29q-23 0 -34.5 -20.5t-5.5 -53.5zM613 750h90v-750h-87l-450 603v-603h-91v750h87l451 -604v604z" />
    <glyph glyph-name="Ograve" unicode="&#xd2;" horiz-adv-x="834" 
d="M378 845l-110 155h91l90 -155h-71zM417 -10q-158 0 -262 111.5t-104 273.5t104 273.5t262 111.5q157 0 261.5 -111.5t104.5 -273.5t-104.5 -273.5t-261.5 -111.5zM417 77q123 0 201 85.5t78 212.5t-78 212.5t-201 85.5t-201.5 -85.5t-78.5 -212.5t78.5 -212.5
t201.5 -85.5z" />
    <glyph glyph-name="Oacute" unicode="&#xd3;" horiz-adv-x="834" 
d="M383 845l90 155h91l-109 -155h-72zM417 -10q-158 0 -262 111.5t-104 273.5t104 273.5t262 111.5q157 0 261.5 -111.5t104.5 -273.5t-104.5 -273.5t-261.5 -111.5zM417 77q123 0 201 85.5t78 212.5t-78 212.5t-201 85.5t-201.5 -85.5t-78.5 -212.5t78.5 -212.5
t201.5 -85.5z" />
    <glyph glyph-name="Ocircumflex" unicode="&#xd4;" horiz-adv-x="834" 
d="M268 829l102 171h94l102 -171h-72l-77 128l-77 -128h-72zM417 -10q-158 0 -262 111.5t-104 273.5t104 273.5t262 111.5q157 0 261.5 -111.5t104.5 -273.5t-104.5 -273.5t-261.5 -111.5zM417 77q123 0 201 85.5t78 212.5t-78 212.5t-201 85.5t-201.5 -85.5t-78.5 -212.5
t78.5 -212.5t201.5 -85.5z" />
    <glyph glyph-name="Otilde" unicode="&#xd5;" horiz-adv-x="834" 
d="M487 836q-57 0 -93 54q-19 29 -45 29q-23 0 -34.5 -20.5t-5.5 -53.5h-56q-8 56 19.5 92.5t74.5 36.5q57 0 93 -55q17 -29 45 -29q23 0 34.5 20.5t5.5 54.5h56q8 -55 -19 -92t-75 -37zM417 -10q-158 0 -262 111.5t-104 273.5t104 273.5t262 111.5q157 0 261.5 -111.5
t104.5 -273.5t-104.5 -273.5t-261.5 -111.5zM417 77q123 0 201 85.5t78 212.5t-78 212.5t-201 85.5t-201.5 -85.5t-78.5 -212.5t78.5 -212.5t201.5 -85.5z" />
    <glyph glyph-name="Odieresis" unicode="&#xd6;" horiz-adv-x="834" 
d="M324 843q-24 0 -41.5 16.5t-17.5 40.5q0 25 17.5 42t41.5 17t41 -17t17 -42q0 -24 -17 -40.5t-41 -16.5zM511 843q-24 0 -41 16.5t-17 40.5t17.5 41.5t40.5 17.5q24 0 41 -17t17 -42q0 -24 -17 -40.5t-41 -16.5zM417 -10q-158 0 -262 111.5t-104 273.5t104 273.5
t262 111.5q157 0 261.5 -111.5t104.5 -273.5t-104.5 -273.5t-261.5 -111.5zM417 77q123 0 201 85.5t78 212.5t-78 212.5t-201 85.5t-201.5 -85.5t-78.5 -212.5t78.5 -212.5t201.5 -85.5z" />
    <glyph glyph-name="multiply" unicode="&#xd7;" horiz-adv-x="736" 
d="M626 505l-196 -195l196 -195l-49 -48l-195 195l-195 -195l-49 48l195 195l-195 195l49 48l195 -195l195 195z" />
    <glyph glyph-name="Oslash" unicode="&#xd8;" horiz-adv-x="834" 
d="M651 675q62 -54 97 -132t35 -168q0 -162 -104.5 -273.5t-261.5 -111.5q-106 0 -190 53l-39 -58h-64l60 89q-63 54 -98 132t-35 169q0 162 104 273.5t262 111.5q105 0 191 -54l39 58h64zM137 375q0 -143 95 -229l328 489q-63 38 -143 38q-123 0 -201.5 -85.5t-78.5 -212.5
zM417 77q123 0 201 85.5t78 212.5q0 143 -93 228l-328 -489q62 -37 142 -37z" />
    <glyph glyph-name="Ugrave" unicode="&#xd9;" horiz-adv-x="730" 
d="M326 845l-110 155h91l90 -155h-71zM365 -10q-119 0 -202 74.5t-83 181.5v504h91v-489q0 -79 56.5 -134.5t137.5 -55.5t137.5 55.5t56.5 134.5v489h92v-504q0 -107 -83.5 -181.5t-202.5 -74.5z" />
    <glyph glyph-name="Uacute" unicode="&#xda;" horiz-adv-x="730" 
d="M331 845l90 155h91l-109 -155h-72zM365 -10q-119 0 -202 74.5t-83 181.5v504h91v-489q0 -79 56.5 -134.5t137.5 -55.5t137.5 55.5t56.5 134.5v489h92v-504q0 -107 -83.5 -181.5t-202.5 -74.5z" />
    <glyph glyph-name="Ucircumflex" unicode="&#xdb;" horiz-adv-x="730" 
d="M216 829l102 171h94l102 -171h-72l-77 128l-77 -128h-72zM365 -10q-119 0 -202 74.5t-83 181.5v504h91v-489q0 -79 56.5 -134.5t137.5 -55.5t137.5 55.5t56.5 134.5v489h92v-504q0 -107 -83.5 -181.5t-202.5 -74.5z" />
    <glyph glyph-name="Udieresis" unicode="&#xdc;" horiz-adv-x="730" 
d="M272 843q-24 0 -41.5 16.5t-17.5 40.5q0 25 17.5 42t41.5 17t41 -17t17 -42q0 -24 -17 -40.5t-41 -16.5zM459 843q-24 0 -41 16.5t-17 40.5t17.5 41.5t40.5 17.5q24 0 41 -17t17 -42q0 -24 -17 -40.5t-41 -16.5zM365 -10q-119 0 -202 74.5t-83 181.5v504h91v-489
q0 -79 56.5 -134.5t137.5 -55.5t137.5 55.5t56.5 134.5v489h92v-504q0 -107 -83.5 -181.5t-202.5 -74.5z" />
    <glyph glyph-name="Yacute" unicode="&#xdd;" horiz-adv-x="653" 
d="M474 1000l-109 -155h-72l90 155h91zM634 750l-261 -394v-356h-92v354l-262 396h103l205 -317l205 317h102z" />
    <glyph glyph-name="Thorn" unicode="&#xde;" horiz-adv-x="590" 
d="M348 646q88 0 149 -61.5t61 -150.5q0 -87 -61 -147.5t-149 -60.5h-185v-226h-88v646v101h88v-101h185zM345 304q55 0 94 38.5t39 93.5q0 54 -39 92t-94 38h-182v-262h182z" />
    <glyph glyph-name="germandbls" unicode="&#xdf;" horiz-adv-x="672" 
d="M482 384q54 -27 86.5 -77t32.5 -111q0 -86 -57.5 -146t-138.5 -60q-43 0 -90 17t-75 44l38 67q19 -19 50 -32.5t61 -13.5q50 2 86.5 38.5t36.5 89.5q0 56 -40.5 96t-98.5 40h-56v74h24q56 0 95 39t39 95t-40.5 92t-103.5 36q-65 0 -108.5 -39.5t-43.5 -98.5v-534h-89v534
q0 93 68.5 154.5t171.5 61.5q99 0 163.5 -58t64.5 -147q0 -100 -76 -161z" />
    <glyph glyph-name="agrave" unicode="&#xe0;" horiz-adv-x="537" 
d="M303 595h-71l-110 155h91zM259 510q91 0 149 -48.5t58 -141.5v-320h-78l-5 71q-91 -81 -185 -81q-67 0 -110 43t-43 110q0 75 60.5 117t182.5 22l91 -15v59q0 54 -34.5 81.5t-89.5 27.5q-88 0 -134 -69l-61 54q62 90 199 90zM135 147q0 -35 22.5 -56.5t60.5 -21.5
q78 0 161 76v57l-82 14q-87 16 -124.5 -5.5t-37.5 -63.5z" />
    <glyph glyph-name="aacute" unicode="&#xe1;" horiz-adv-x="537" 
d="M418 750l-109 -155h-72l90 155h91zM259 510q91 0 149 -48.5t58 -141.5v-320h-78l-5 71q-91 -81 -185 -81q-67 0 -110 43t-43 110q0 75 60.5 117t182.5 22l91 -15v59q0 54 -34.5 81.5t-89.5 27.5q-88 0 -134 -69l-61 54q62 90 199 90zM135 147q0 -35 22.5 -56.5
t60.5 -21.5q78 0 161 76v57l-82 14q-87 16 -124.5 -5.5t-37.5 -63.5z" />
    <glyph glyph-name="acircumflex" unicode="&#xe2;" horiz-adv-x="537" 
d="M271 707l-77 -128h-72l102 171h94l102 -171h-72zM259 510q91 0 149 -48.5t58 -141.5v-320h-78l-5 71q-91 -81 -185 -81q-67 0 -110 43t-43 110q0 75 60.5 117t182.5 22l91 -15v59q0 54 -34.5 81.5t-89.5 27.5q-88 0 -134 -69l-61 54q62 90 199 90zM135 147
q0 -35 22.5 -56.5t60.5 -21.5q78 0 161 76v57l-82 14q-87 16 -124.5 -5.5t-37.5 -63.5z" />
    <glyph glyph-name="atilde" unicode="&#xe3;" horiz-adv-x="537" 
d="M163 595h-56q-8 56 19.5 92.5t74.5 36.5q57 0 93 -55q17 -29 45 -29q23 0 34.5 20.5t5.5 54.5h56q8 -55 -19 -92t-75 -37q-57 0 -93 54q-19 29 -45 29q-23 0 -34.5 -20.5t-5.5 -53.5zM259 510q91 0 149 -48.5t58 -141.5v-320h-78l-5 71q-91 -81 -185 -81q-67 0 -110 43
t-43 110q0 75 60.5 117t182.5 22l91 -15v59q0 54 -34.5 81.5t-89.5 27.5q-88 0 -134 -69l-61 54q62 90 199 90zM135 147q0 -35 22.5 -56.5t60.5 -21.5q78 0 161 76v57l-82 14q-87 16 -124.5 -5.5t-37.5 -63.5z" />
    <glyph glyph-name="adieresis" unicode="&#xe4;" horiz-adv-x="537" 
d="M178 593q-24 0 -41.5 16.5t-17.5 40.5q0 25 17.5 42t41.5 17t41 -17t17 -42q0 -24 -17 -40.5t-41 -16.5zM365 593q-24 0 -41 16.5t-17 40.5t17.5 41.5t40.5 17.5q24 0 41 -17t17 -42q0 -24 -17 -40.5t-41 -16.5zM259 510q91 0 149 -48.5t58 -141.5v-320h-78l-5 71
q-91 -81 -185 -81q-67 0 -110 43t-43 110q0 75 60.5 117t182.5 22l91 -15v59q0 54 -34.5 81.5t-89.5 27.5q-88 0 -134 -69l-61 54q62 90 199 90zM135 147q0 -35 22.5 -56.5t60.5 -21.5q78 0 161 76v57l-82 14q-87 16 -124.5 -5.5t-37.5 -63.5z" />
    <glyph glyph-name="aring" unicode="&#xe5;" horiz-adv-x="537" 
d="M272 559q-43 0 -73 30t-30 72t30 72t73 30q42 0 71.5 -30t29.5 -72t-29.5 -72t-71.5 -30zM272 723q-25 0 -43 -18t-18 -44q0 -27 17.5 -44.5t43.5 -17.5t43 17.5t17 44.5q0 26 -17.5 44t-42.5 18zM259 510q91 0 149 -48.5t58 -141.5v-320h-78l-5 71q-91 -81 -185 -81
q-67 0 -110 43t-43 110q0 75 60.5 117t182.5 22l91 -15v59q0 54 -34.5 81.5t-89.5 27.5q-88 0 -134 -69l-61 54q62 90 199 90zM135 147q0 -35 22.5 -56.5t60.5 -21.5q78 0 161 76v57l-82 14q-87 16 -124.5 -5.5t-37.5 -63.5z" />
    <glyph glyph-name="ae" unicode="&#xe6;" horiz-adv-x="863" 
d="M823 250q0 -19 -1 -29h-378q7 -71 47 -112.5t108 -41.5q46 0 77 18.5t61 64.5l62 -43q-65 -117 -203 -117q-132 0 -196 103q-100 -103 -207 -103q-67 0 -110 43t-43 110q0 75 60.5 117t182.5 22l76 -12q1 38 13 76q-6 44 -39.5 66.5t-82.5 22.5q-88 0 -134 -69l-61 54
q62 90 199 90q131 0 171 -72q66 72 171 72t166 -72t61 -188zM598 434q-64 0 -103 -38.5t-49 -105.5h297q-8 67 -45.5 105.5t-99.5 38.5zM213 69q80 0 161 78q-8 24 -13 57l-69 12q-87 16 -124.5 -5.5t-37.5 -63.5q0 -35 22.5 -56.5t60.5 -21.5z" />
    <glyph glyph-name="ccedilla" unicode="&#xe7;" horiz-adv-x="445" 
d="M285 435q-73 0 -115.5 -52t-42.5 -133t42.5 -133t115.5 -52t120 54v-88q-45 -37 -117 -41l-28 -57q52 10 88.5 -16.5t36.5 -74.5q0 -42 -29.5 -72t-72.5 -30q-34 0 -67.5 18.5t-48.5 44.5l42 18q11 -15 32.5 -25.5t41.5 -10.5q24 0 40 16.5t16 40.5q0 35 -29 48.5
t-71 -2.5l-36 24l40 80q-94 11 -148.5 82t-54.5 176q0 114 64 187t172 73q77 0 129 -40v-89q-49 54 -120 54z" />
    <glyph glyph-name="egrave" unicode="&#xe8;" horiz-adv-x="545" 
d="M311 598h-71l-110 155h91zM505 250q0 -19 -1 -29h-378q7 -71 47 -112.5t108 -41.5q46 0 77 18.5t61 64.5l62 -43q-65 -117 -203 -117q-109 0 -173.5 72.5t-64.5 186.5t65 187.5t173 73.5q105 0 166 -72t61 -188zM280 434q-64 0 -103 -39t-49 -105h297q-7 67 -44.5 105.5
t-100.5 38.5z" />
    <glyph glyph-name="eacute" unicode="&#xe9;" horiz-adv-x="545" 
d="M426 753l-109 -155h-72l90 155h91zM505 250q0 -19 -1 -29h-378q7 -71 47 -112.5t108 -41.5q46 0 77 18.5t61 64.5l62 -43q-65 -117 -203 -117q-109 0 -173.5 72.5t-64.5 186.5t65 187.5t173 73.5q105 0 166 -72t61 -188zM280 434q-64 0 -103 -39t-49 -105h297
q-7 67 -44.5 105.5t-100.5 38.5z" />
    <glyph glyph-name="ecircumflex" unicode="&#xea;" horiz-adv-x="545" 
d="M279 710l-77 -128h-72l102 171h94l102 -171h-72zM505 250q0 -19 -1 -29h-378q7 -71 47 -112.5t108 -41.5q46 0 77 18.5t61 64.5l62 -43q-65 -117 -203 -117q-109 0 -173.5 72.5t-64.5 186.5t65 187.5t173 73.5q105 0 166 -72t61 -188zM280 434q-64 0 -103 -39t-49 -105
h297q-7 67 -44.5 105.5t-100.5 38.5z" />
    <glyph glyph-name="edieresis" unicode="&#xeb;" horiz-adv-x="545" 
d="M186 596q-24 0 -41.5 16.5t-17.5 40.5q0 25 17.5 42t41.5 17t41 -17t17 -42q0 -24 -17 -40.5t-41 -16.5zM373 596q-24 0 -41 16.5t-17 40.5q0 25 17.5 42t40.5 17q24 0 41 -17t17 -42q0 -24 -17 -40.5t-41 -16.5zM505 250q0 -19 -1 -29h-378q7 -71 47 -112.5t108 -41.5
q46 0 77 18.5t61 64.5l62 -43q-65 -117 -203 -117q-109 0 -173.5 72.5t-64.5 186.5t65 187.5t173 73.5q105 0 166 -72t61 -188zM280 434q-64 0 -103 -39t-49 -105h297q-7 67 -44.5 105.5t-100.5 38.5z" />
    <glyph glyph-name="igrave" unicode="&#xec;" horiz-adv-x="238" 
d="M80 595l-110 155h91l90 -155h-71zM75 0v500h88v-500h-88z" />
    <glyph glyph-name="iacute" unicode="&#xed;" horiz-adv-x="238" 
d="M85 595l90 155h91l-109 -155h-72zM75 0v500h88v-500h-88z" />
    <glyph glyph-name="icircumflex" unicode="&#xee;" horiz-adv-x="238" 
d="M-30 579l102 171h94l102 -171h-72l-77 128l-77 -128h-72zM75 0v500h88v-500h-88z" />
    <glyph glyph-name="idieresis" unicode="&#xef;" horiz-adv-x="238" 
d="M26 593q-24 0 -41.5 16.5t-17.5 40.5q0 25 17.5 42t41.5 17t41 -17t17 -42q0 -24 -17 -40.5t-41 -16.5zM213 593q-24 0 -41 16.5t-17 40.5t17.5 41.5t40.5 17.5q24 0 41 -17t17 -42q0 -24 -17 -40.5t-41 -16.5zM75 0v500h88v-500h-88z" />
    <glyph glyph-name="eth" unicode="&#xf0;" horiz-adv-x="620" 
d="M395 684q85 -69 134.5 -183.5t49.5 -250.5q0 -108 -78.5 -184t-190.5 -76t-191 76t-79 184q0 109 78.5 184.5t191.5 75.5q80 0 146 -41q-38 100 -108 155l-52 -66l-31 24l51 65q-67 41 -153 43l17 72q99 0 183 -56l45 57l31 -23zM310 69q75 0 127.5 52.5t52.5 128.5
t-52.5 129t-127.5 53q-76 0 -129 -53t-53 -129t53 -128.5t129 -52.5z" />
    <glyph glyph-name="ntilde" unicode="&#xf1;" horiz-adv-x="588" 
d="M188 595h-56q-8 56 19.5 92.5t74.5 36.5q57 0 93 -55q17 -29 45 -29q23 0 34.5 20.5t5.5 54.5h56q8 -55 -19 -92t-75 -37q-57 0 -93 54q-19 29 -45 29q-23 0 -34.5 -20.5t-5.5 -53.5zM322 510q84 0 139.5 -55t55.5 -139v-316h-89v306q0 54 -37 90t-93 36t-95.5 -38
t-39.5 -92v-302h-88v500h81l4 -66q63 76 162 76z" />
    <glyph glyph-name="ograve" unicode="&#xf2;" horiz-adv-x="567" 
d="M244 595l-110 155h91l90 -155h-71zM284 -10q-108 0 -176 75t-68 185q0 111 68 185.5t176 74.5q107 0 175.5 -75t68.5 -185t-68.5 -185t-175.5 -75zM284 69q71 0 114 52t43 129q0 78 -43.5 130t-113.5 52q-72 0 -114.5 -52t-42.5 -130t42.5 -129.5t114.5 -51.5z" />
    <glyph glyph-name="oacute" unicode="&#xf3;" horiz-adv-x="567" 
d="M249 595l90 155h91l-109 -155h-72zM284 -10q-108 0 -176 75t-68 185q0 111 68 185.5t176 74.5q107 0 175.5 -75t68.5 -185t-68.5 -185t-175.5 -75zM284 69q71 0 114 52t43 129q0 78 -43.5 130t-113.5 52q-72 0 -114.5 -52t-42.5 -130t42.5 -129.5t114.5 -51.5z" />
    <glyph glyph-name="ocircumflex" unicode="&#xf4;" horiz-adv-x="567" 
d="M134 579l102 171h94l102 -171h-72l-77 128l-77 -128h-72zM284 -10q-108 0 -176 75t-68 185q0 111 68 185.5t176 74.5q107 0 175.5 -75t68.5 -185t-68.5 -185t-175.5 -75zM284 69q71 0 114 52t43 129q0 78 -43.5 130t-113.5 52q-72 0 -114.5 -52t-42.5 -130t42.5 -129.5
t114.5 -51.5z" />
    <glyph glyph-name="otilde" unicode="&#xf5;" horiz-adv-x="567" 
d="M354 586q-57 0 -93 54q-19 29 -45 29q-23 0 -34.5 -20.5t-5.5 -53.5h-56q-8 56 19.5 92.5t74.5 36.5q57 0 93 -55q17 -29 45 -29q23 0 34.5 20.5t5.5 54.5h56q8 -55 -19 -92t-75 -37zM284 -10q-108 0 -176 75t-68 185q0 111 68 185.5t176 74.5q107 0 175.5 -75t68.5 -185
t-68.5 -185t-175.5 -75zM284 69q71 0 114 52t43 129q0 78 -43.5 130t-113.5 52q-72 0 -114.5 -52t-42.5 -130t42.5 -129.5t114.5 -51.5z" />
    <glyph glyph-name="odieresis" unicode="&#xf6;" horiz-adv-x="567" 
d="M190 593q-24 0 -41.5 16.5t-17.5 40.5q0 25 17.5 42t41.5 17t41 -17t17 -42q0 -24 -17 -40.5t-41 -16.5zM377 593q-24 0 -41 16.5t-17 40.5t17.5 41.5t40.5 17.5q24 0 41 -17t17 -42q0 -24 -17 -40.5t-41 -16.5zM284 -10q-108 0 -176 75t-68 185q0 111 68 185.5t176 74.5
q107 0 175.5 -75t68.5 -185t-68.5 -185t-175.5 -75zM284 69q71 0 114 52t43 129q0 78 -43.5 130t-113.5 52q-72 0 -114.5 -52t-42.5 -130t42.5 -129.5t114.5 -51.5z" />
    <glyph glyph-name="divide" unicode="&#xf7;" horiz-adv-x="721" 
d="M360 392q-21 0 -37 15.5t-16 37.5t16 37.5t37 15.5q22 0 38 -15.5t16 -37.5t-16 -37.5t-38 -15.5zM60 251v48h600v-48h-600zM360 52q-21 0 -37 15.5t-16 37.5t16 37.5t37 15.5q22 0 38 -15.5t16 -37.5t-16 -37.5t-38 -15.5z" />
    <glyph glyph-name="oslash" unicode="&#xf8;" horiz-adv-x="567" 
d="M443 451q85 -75 85 -201q0 -110 -68.5 -185t-175.5 -75q-71 0 -128 35l-37 -56h-47l53 79q-85 74 -85 202q0 111 68 185.5t176 74.5q72 0 128 -36l38 57h46zM127 250q0 -81 45 -132l195 289q-36 25 -83 25q-72 0 -114.5 -52t-42.5 -130zM284 69q71 0 114 52t43 129
q0 79 -45 132l-195 -290q35 -23 83 -23z" />
    <glyph glyph-name="ugrave" unicode="&#xf9;" horiz-adv-x="594" 
d="M329 595h-71l-110 155h91zM430 500h89v-500h-81l-5 67q-61 -77 -159 -77q-83 0 -140 58t-57 141v311h88v-302q0 -54 38 -91.5t93 -37.5q56 0 95 37.5t39 91.5v302z" />
    <glyph glyph-name="uacute" unicode="&#xfa;" horiz-adv-x="594" 
d="M444 750l-109 -155h-72l90 155h91zM430 500h89v-500h-81l-5 67q-61 -77 -159 -77q-83 0 -140 58t-57 141v311h88v-302q0 -54 38 -91.5t93 -37.5q56 0 95 37.5t39 91.5v302z" />
    <glyph glyph-name="ucircumflex" unicode="&#xfb;" horiz-adv-x="594" 
d="M297 707l-77 -128h-72l102 171h94l102 -171h-72zM430 500h89v-500h-81l-5 67q-61 -77 -159 -77q-83 0 -140 58t-57 141v311h88v-302q0 -54 38 -91.5t93 -37.5q56 0 95 37.5t39 91.5v302z" />
    <glyph glyph-name="udieresis" unicode="&#xfc;" horiz-adv-x="594" 
d="M204 593q-24 0 -41.5 16.5t-17.5 40.5q0 25 17.5 42t41.5 17t41 -17t17 -42q0 -24 -17 -40.5t-41 -16.5zM391 593q-24 0 -41 16.5t-17 40.5t17.5 41.5t40.5 17.5q24 0 41 -17t17 -42q0 -24 -17 -40.5t-41 -16.5zM430 500h89v-500h-81l-5 67q-61 -77 -159 -77
q-83 0 -140 58t-57 141v311h88v-302q0 -54 38 -91.5t93 -37.5q56 0 95 37.5t39 91.5v302z" />
    <glyph glyph-name="yacute" unicode="&#xfd;" horiz-adv-x="594" 
d="M444 750l-109 -155h-72l90 155h91zM519 500v-513q0 -108 -62.5 -175.5t-178.5 -67.5q-100 0 -174 48v96q75 -65 181 -65q72 0 108.5 43t36.5 121v77q-60 -74 -156 -74q-83 0 -140 58t-57 141v311h88v-302q0 -54 38 -91.5t93 -37.5q56 0 95 37.5t39 91.5v302h89z" />
    <glyph glyph-name="thorn" unicode="&#xfe;" horiz-adv-x="649" 
d="M357 510q106 0 179 -75.5t73 -184.5q0 -108 -73 -184t-179 -76q-60 0 -110.5 27t-83.5 74v-340h-88v999h88v-341q33 47 83.5 74t110.5 27zM345 69q76 0 128.5 52.5t52.5 128.5t-52.5 129t-128.5 53q-75 0 -128 -53t-53 -129t53 -128.5t128 -52.5z" />
    <glyph glyph-name="ydieresis" unicode="&#xff;" horiz-adv-x="594" 
d="M204 593q-24 0 -41.5 16.5t-17.5 40.5q0 25 17.5 42t41.5 17t41 -17t17 -42q0 -24 -17 -40.5t-41 -16.5zM391 593q-24 0 -41 16.5t-17 40.5t17.5 41.5t40.5 17.5q24 0 41 -17t17 -42q0 -24 -17 -40.5t-41 -16.5zM519 500v-513q0 -108 -62.5 -175.5t-178.5 -67.5
q-100 0 -174 48v96q75 -65 181 -65q72 0 108.5 43t36.5 121v77q-60 -74 -156 -74q-83 0 -140 58t-57 141v311h88v-302q0 -54 38 -91.5t93 -37.5q56 0 95 37.5t39 91.5v302h89z" />
    <glyph glyph-name="Amacron" unicode="&#x100;" horiz-adv-x="743" 
d="M526 910v-59h-310v59h310zM624 0l-61 157h-384l-61 -157h-99l301 750h102l301 -750h-99zM208 234h326l-163 422z" />
    <glyph glyph-name="amacron" unicode="&#x101;" horiz-adv-x="537" 
d="M426 660v-59h-310v59h310zM259 510q91 0 149 -48.5t58 -141.5v-320h-78l-5 71q-91 -81 -185 -81q-67 0 -110 43t-43 110q0 75 60.5 117t182.5 22l91 -15v59q0 54 -34.5 81.5t-89.5 27.5q-88 0 -134 -69l-61 54q62 90 199 90zM135 147q0 -35 22.5 -56.5t60.5 -21.5
q78 0 161 76v57l-82 14q-87 16 -124.5 -5.5t-37.5 -63.5z" />
    <glyph glyph-name="Abreve" unicode="&#x102;" horiz-adv-x="743" 
d="M371 815q-73 0 -120 42.5t-47 113.5h55q0 -42 32 -71.5t80 -29.5q49 0 81 29.5t32 71.5h54q0 -72 -46.5 -114t-120.5 -42zM624 0l-61 157h-384l-61 -157h-99l301 750h102l301 -750h-99zM208 234h326l-163 422z" />
    <glyph glyph-name="abreve" unicode="&#x103;" horiz-adv-x="537" 
d="M271 565q-73 0 -120 42.5t-47 113.5h55q0 -42 32 -71.5t80 -29.5q49 0 81 29.5t32 71.5h54q0 -72 -46.5 -114t-120.5 -42zM259 510q91 0 149 -48.5t58 -141.5v-320h-78l-5 71q-91 -81 -185 -81q-67 0 -110 43t-43 110q0 75 60.5 117t182.5 22l91 -15v59q0 54 -34.5 81.5
t-89.5 27.5q-88 0 -134 -69l-61 54q62 90 199 90zM135 147q0 -35 22.5 -56.5t60.5 -21.5q78 0 161 76v57l-82 14q-87 16 -124.5 -5.5t-37.5 -63.5z" />
    <glyph glyph-name="Aogonek" unicode="&#x104;" horiz-adv-x="743" 
d="M752 -165l29 -43q-56 -56 -137 -51q-52 2 -83 29.5t-31 75.5q0 90 118 154h-24l-61 157h-384l-61 -157h-99l301 750h102l301 -750q-49 -9 -90 -53t-41 -94q0 -29 17.5 -47t48.5 -18q58 0 94 47zM208 234h326l-163 422z" />
    <glyph glyph-name="aogonek" unicode="&#x105;" horiz-adv-x="537" 
d="M495 -165l29 -43q-56 -56 -137 -51q-52 2 -83 29.5t-31 75.5q0 90 118 154h-3l-5 71q-91 -81 -185 -81q-67 0 -110 43t-43 110q0 75 60.5 117t182.5 22l91 -15v59q0 54 -34.5 81.5t-89.5 27.5q-88 0 -134 -69l-61 54q62 90 199 90q91 0 149 -48.5t58 -141.5v-320
q-49 -9 -90 -53t-41 -94q0 -29 17.5 -47t48.5 -18q58 0 94 47zM135 147q0 -35 22.5 -56.5t60.5 -21.5q78 0 161 76v57l-82 14q-87 16 -124.5 -5.5t-37.5 -63.5z" />
    <glyph glyph-name="Cacute" unicode="&#x106;" horiz-adv-x="668" 
d="M383 845l90 155h91l-109 -155h-72zM417 -10q-158 0 -262 111.5t-104 273.5t104 273.5t262 111.5q113 0 204 -70v-110q-86 93 -204 93q-123 0 -201.5 -85.5t-78.5 -212.5t78.5 -212.5t201.5 -85.5q120 0 204 93v-110q-91 -70 -204 -70z" />
    <glyph glyph-name="cacute" unicode="&#x107;" horiz-adv-x="445" 
d="M235 595l90 155h91l-109 -155h-72zM276 -10q-108 0 -172 73t-64 187t64 187t172 73q77 0 129 -40v-89q-49 54 -120 54q-73 0 -115.5 -52t-42.5 -133t42.5 -133t115.5 -52t120 54v-88q-52 -41 -129 -41z" />
    <glyph glyph-name="Cdotaccent" unicode="&#x10a;" horiz-adv-x="668" 
d="M417 843q-24 0 -41.5 16.5t-17.5 40.5q0 25 17.5 42t41.5 17t41 -17t17 -42q0 -24 -17 -40.5t-41 -16.5zM417 -10q-158 0 -262 111.5t-104 273.5t104 273.5t262 111.5q113 0 204 -70v-110q-86 93 -204 93q-123 0 -201.5 -85.5t-78.5 -212.5t78.5 -212.5t201.5 -85.5
q120 0 204 93v-110q-91 -70 -204 -70z" />
    <glyph glyph-name="cdotaccent" unicode="&#x10b;" horiz-adv-x="445" 
d="M270 593q-24 0 -41.5 16.5t-17.5 40.5q0 25 17.5 42t41.5 17t41 -17t17 -42q0 -24 -17 -40.5t-41 -16.5zM276 -10q-108 0 -172 73t-64 187t64 187t172 73q77 0 129 -40v-89q-49 54 -120 54q-73 0 -115.5 -52t-42.5 -133t42.5 -133t115.5 -52t120 54v-88q-52 -41 -129 -41
z" />
    <glyph glyph-name="Ccaron" unicode="&#x10c;" horiz-adv-x="668" 
d="M370 829l-102 171h70l79 -126l80 126h69l-102 -171h-94zM417 -10q-158 0 -262 111.5t-104 273.5t104 273.5t262 111.5q113 0 204 -70v-110q-86 93 -204 93q-123 0 -201.5 -85.5t-78.5 -212.5t78.5 -212.5t201.5 -85.5q120 0 204 93v-110q-91 -70 -204 -70z" />
    <glyph glyph-name="ccaron" unicode="&#x10d;" horiz-adv-x="445" 
d="M222 579l-102 171h70l79 -126l80 126h69l-102 -171h-94zM276 -10q-108 0 -172 73t-64 187t64 187t172 73q77 0 129 -40v-89q-49 54 -120 54q-73 0 -115.5 -52t-42.5 -133t42.5 -133t115.5 -52t120 54v-88q-52 -41 -129 -41z" />
    <glyph glyph-name="Dcaron" unicode="&#x10e;" horiz-adv-x="711" 
d="M237 829l-102 171h70l79 -126l80 126h69l-102 -171h-94zM75 0v750h210q155 0 265 -110t110 -265t-110 -265t-265 -110h-210zM166 81h119q119 0 201.5 85.5t82.5 208.5t-82.5 208.5t-201.5 85.5h-119v-588z" />
    <glyph glyph-name="dcaron" unicode="&#x10f;" horiz-adv-x="768" 
d="M703 755q33 0 50 -30t17 -75q0 -69 -33 -128t-86 -60v43q27 1 45.5 37.5t18.5 69.5q0 26 -13 26q-24 0 -41 17t-17 42t17 41.5t42 16.5zM434 432v318h86v-750h-79l-4 72q-64 -82 -167 -82q-104 0 -167 74.5t-63 185.5t63 185.5t167 74.5q101 0 164 -78zM284 69
q53 0 94.5 35.5t55.5 91.5v108q-14 56 -55.5 92t-94.5 36q-72 0 -114.5 -52t-42.5 -130t42.5 -129.5t114.5 -51.5z" />
    <glyph glyph-name="Dcroat" unicode="&#x110;" horiz-adv-x="711" 
d="M285 750q155 0 265 -110t110 -265t-110 -265t-265 -110h-210v344h-77v63h77v343h210zM285 81q119 0 201.5 85.5t82.5 208.5t-82.5 208.5t-201.5 85.5h-119v-262h131v-63h-131v-263h119z" />
    <glyph glyph-name="dcroat" unicode="&#x111;" horiz-adv-x="595" 
d="M594 651v-63h-74v-588h-79l-4 72q-64 -82 -167 -82q-104 0 -167 74.5t-63 185.5t63 185.5t167 74.5q101 0 164 -78v156h-139v63h139v99h86v-99h74zM284 69q53 0 94.5 35.5t55.5 91.5v108q-14 56 -55.5 92t-94.5 36q-72 0 -114.5 -52t-42.5 -130t42.5 -129.5t114.5 -51.5z
" />
    <glyph glyph-name="Emacron" unicode="&#x112;" horiz-adv-x="542" 
d="M437 910v-59h-310v59h310zM490 669h-324v-253h282v-82h-282v-253h324v-81h-415v750h415v-81z" />
    <glyph glyph-name="emacron" unicode="&#x113;" horiz-adv-x="545" 
d="M434 663v-59h-310v59h310zM505 250q0 -19 -1 -29h-378q7 -71 47 -112.5t108 -41.5q46 0 77 18.5t61 64.5l62 -43q-65 -117 -203 -117q-109 0 -173.5 72.5t-64.5 186.5t65 187.5t173 73.5q105 0 166 -72t61 -188zM280 434q-64 0 -103 -39t-49 -105h297q-7 67 -44.5 105.5
t-100.5 38.5z" />
    <glyph glyph-name="Edotaccent" unicode="&#x116;" horiz-adv-x="542" 
d="M283 843q-24 0 -41.5 16.5t-17.5 40.5q0 25 17.5 42t41.5 17t41 -17t17 -42q0 -24 -17 -40.5t-41 -16.5zM490 669h-324v-253h282v-82h-282v-253h324v-81h-415v750h415v-81z" />
    <glyph glyph-name="edotaccent" unicode="&#x117;" horiz-adv-x="545" 
d="M279 596q-24 0 -41.5 16.5t-17.5 40.5q0 25 17.5 42t41.5 17t41 -17t17 -42q0 -24 -17 -40.5t-41 -16.5zM505 250q0 -19 -1 -29h-378q7 -71 47 -112.5t108 -41.5q46 0 77 18.5t61 64.5l62 -43q-65 -117 -203 -117q-109 0 -173.5 72.5t-64.5 186.5t65 187.5t173 73.5
q105 0 166 -72t61 -188zM280 434q-64 0 -103 -39t-49 -105h297q-7 67 -44.5 105.5t-100.5 38.5z" />
    <glyph glyph-name="Eogonek" unicode="&#x118;" horiz-adv-x="542" 
d="M519 -165l29 -43q-56 -56 -137 -51q-52 2 -83 29.5t-31 75.5q0 90 118 154h-340v750h415v-81h-324v-253h282v-82h-282v-253h324v-81q-49 -9 -90 -53t-41 -94q0 -29 17.5 -47t48.5 -18q58 0 94 47z" />
    <glyph glyph-name="eogonek" unicode="&#x119;" horiz-adv-x="545" 
d="M381 -145q58 0 94 47l29 -43q-56 -56 -137 -51q-52 2 -83 29.5t-31 75.5q0 41 25 77q-109 0 -173.5 72.5t-64.5 186.5t65 187.5t173 73.5q105 0 166 -72t61 -188q0 -19 -1 -29h-378q7 -71 47 -112.5t108 -41.5q46 0 77 18.5t61 64.5l62 -43q-48 -87 -138 -109
q-28 -40 -28 -78q0 -29 17.5 -47t48.5 -18zM280 434q-64 0 -103 -39t-49 -105h297q-7 67 -44.5 105.5t-100.5 38.5z" />
    <glyph glyph-name="Ecaron" unicode="&#x11a;" horiz-adv-x="542" 
d="M329 829h-94l-102 171h70l79 -126l80 126h69zM490 669h-324v-253h282v-82h-282v-253h324v-81h-415v750h415v-81z" />
    <glyph glyph-name="ecaron" unicode="&#x11b;" horiz-adv-x="545" 
d="M326 582h-94l-102 171h70l79 -126l80 126h69zM505 250q0 -19 -1 -29h-378q7 -71 47 -112.5t108 -41.5q46 0 77 18.5t61 64.5l62 -43q-65 -117 -203 -117q-109 0 -173.5 72.5t-64.5 186.5t65 187.5t173 73.5q105 0 166 -72t61 -188zM280 434q-64 0 -103 -39t-49 -105h297
q-7 67 -44.5 105.5t-100.5 38.5z" />
    <glyph glyph-name="Gbreve" unicode="&#x11e;" horiz-adv-x="740" 
d="M454 815q-73 0 -120 42.5t-47 113.5h55q0 -42 32 -71.5t80 -29.5q49 0 81 29.5t32 71.5h54q0 -72 -46.5 -114t-120.5 -42zM452 673q-125 0 -210.5 -83t-85.5 -218t85.5 -218t210.5 -83q68 0 132 31v217h-174v82h255v-353q-102 -64 -214 -64q-160 0 -270 108.5t-110 279.5
t109.5 279.5t268.5 108.5q114 0 216 -64v-114q-39 43 -95.5 67t-117.5 24z" />
    <glyph glyph-name="gbreve" unicode="&#x11f;" horiz-adv-x="596" 
d="M279 565q-73 0 -120 42.5t-47 113.5h55q0 -42 32 -71.5t80 -29.5q49 0 81 29.5t32 71.5h54q0 -72 -46.5 -114t-120.5 -42zM441 500h80v-494q0 -112 -64.5 -184t-171.5 -72q-86 0 -154 47v96q68 -65 160 -65q64 0 103.5 48.5t39.5 129.5v63q-64 -79 -164 -79
q-104 0 -167 74.5t-63 185.5q0 112 63 186t167 74q102 0 167 -83zM284 69q52 0 93.5 36t56.5 92v106q-15 57 -56.5 93t-93.5 36q-72 0 -114.5 -52t-42.5 -130q0 -77 42.5 -129t114.5 -52z" />
    <glyph glyph-name="Gdotaccent" unicode="&#x120;" horiz-adv-x="740" 
d="M454 843q-24 0 -41.5 16.5t-17.5 40.5q0 25 17.5 42t41.5 17t41 -17t17 -42q0 -24 -17 -40.5t-41 -16.5zM452 673q-125 0 -210.5 -83t-85.5 -218t85.5 -218t210.5 -83q68 0 132 31v217h-174v82h255v-353q-102 -64 -214 -64q-160 0 -270 108.5t-110 279.5t109.5 279.5
t268.5 108.5q114 0 216 -64v-114q-39 43 -95.5 67t-117.5 24z" />
    <glyph glyph-name="gdotaccent" unicode="&#x121;" horiz-adv-x="596" 
d="M280 593q-24 0 -41.5 16.5t-17.5 40.5q0 25 17.5 42t41.5 17t41 -17t17 -42q0 -24 -17 -40.5t-41 -16.5zM441 500h80v-494q0 -112 -64.5 -184t-171.5 -72q-86 0 -154 47v96q68 -65 160 -65q64 0 103.5 48.5t39.5 129.5v63q-64 -79 -164 -79q-104 0 -167 74.5t-63 185.5
q0 112 63 186t167 74q102 0 167 -83zM284 69q52 0 93.5 36t56.5 92v106q-15 57 -56.5 93t-93.5 36q-72 0 -114.5 -52t-42.5 -130q0 -77 42.5 -129t114.5 -52z" />
    <glyph glyph-name="Gcommaaccent" unicode="&#x122;" horiz-adv-x="740" 
d="M452 673q-125 0 -210.5 -83t-85.5 -218t85.5 -218t210.5 -83q68 0 132 31v217h-174v82h255v-353q-102 -64 -214 -64q-160 0 -270 108.5t-110 279.5t109.5 279.5t268.5 108.5q114 0 216 -64v-114q-39 43 -95.5 67t-117.5 24zM448 -40q26 0 42.5 -18t16.5 -46
q0 -70 -29.5 -120.5t-80.5 -48.5v34q24 1 39.5 22t15 39t-4.5 21q-25 0 -41 16.5t-16 41.5q0 26 16.5 42.5t41.5 16.5z" />
    <glyph glyph-name="gcommaaccent" unicode="&#x123;" horiz-adv-x="596" 
d="M280 578q-25 0 -42 18.5t-17 45.5q-1 62 36.5 114.5t73.5 54.5v-33q-20 -8 -35.5 -29t-17.5 -36t2 -18q25 0 41.5 -16.5t16.5 -40.5q0 -25 -16.5 -42.5t-41.5 -17.5zM441 500h80v-494q0 -112 -64.5 -184t-171.5 -72q-86 0 -154 47v96q68 -65 160 -65q64 0 103.5 48.5
t39.5 129.5v63q-64 -79 -164 -79q-104 0 -167 74.5t-63 185.5q0 112 63 186t167 74q102 0 167 -83zM284 69q52 0 93.5 36t56.5 92v106q-15 57 -56.5 93t-93.5 36q-72 0 -114.5 -52t-42.5 -130q0 -77 42.5 -129t114.5 -52z" />
    <glyph glyph-name="Hbar" unicode="&#x126;" horiz-adv-x="731" 
d="M724 606v-40h-68v-566h-91v334h-399v-334h-91v566h-69v40h69v144h91v-144h399v144h91v-144h68zM565 416v150h-399v-150h399z" />
    <glyph glyph-name="hbar" unicode="&#x127;" horiz-adv-x="588" 
d="M322 510q84 0 139.5 -55t55.5 -139v-316h-89v306q0 54 -37 90t-93 36t-95.5 -38t-39.5 -92v-302h-88v592h-56v63h56v95h88v-95h155v-63h-155v-155q62 73 159 73z" />
    <glyph glyph-name="Itilde" unicode="&#x128;" horiz-adv-x="241" 
d="M190 836q-57 0 -93 54q-19 29 -45 29q-23 0 -34.5 -20.5t-5.5 -53.5h-56q-8 56 19.5 92.5t74.5 36.5q57 0 93 -55q17 -29 45 -29q23 0 34.5 20.5t5.5 54.5h56q8 -55 -19 -92t-75 -37zM75 0v750h91v-750h-91z" />
    <glyph glyph-name="itilde" unicode="&#x129;" horiz-adv-x="238" 
d="M189 586q-57 0 -93 54q-19 29 -45 29q-23 0 -34.5 -20.5t-5.5 -53.5h-56q-8 56 19.5 92.5t74.5 36.5q57 0 93 -55q17 -29 45 -29q23 0 34.5 20.5t5.5 54.5h56q8 -55 -19 -92t-75 -37zM75 0v500h88v-500h-88z" />
    <glyph glyph-name="Imacron" unicode="&#x12a;" horiz-adv-x="241" 
d="M-35 851v59h310v-59h-310zM75 0v750h91v-750h-91z" />
    <glyph glyph-name="imacron" unicode="&#x12b;" horiz-adv-x="238" 
d="M-36 601v59h310v-59h-310zM75 0v500h88v-500h-88z" />
    <glyph glyph-name="Iogonek" unicode="&#x12e;" horiz-adv-x="241" 
d="M186 -165l29 -43q-56 -56 -137 -51q-52 2 -83 29.5t-31 75.5q0 90 118 154h-7v750h91v-750h-9q-49 -9 -90 -53t-41 -94q0 -29 17.5 -47t48.5 -18q58 0 94 47z" />
    <glyph glyph-name="iogonek" unicode="&#x12f;" horiz-adv-x="238" 
d="M120 593q-24 0 -41.5 16.5t-17.5 40.5q0 25 17.5 42t41.5 17t41 -17t17 -42q0 -24 -17 -40.5t-41 -16.5zM185 -165l29 -43q-56 -56 -137 -51q-52 2 -83 29.5t-31 75.5q0 90 118 154h-6v500h88v-500h-7q-49 -9 -90 -53t-41 -94q0 -29 17.5 -47t48.5 -18q58 0 94 47z" />
    <glyph glyph-name="Idotaccent" unicode="&#x130;" horiz-adv-x="241" 
d="M120 843q-24 0 -41.5 16.5t-17.5 40.5q0 25 17.5 42t41.5 17t41 -17t17 -42q0 -24 -17 -40.5t-41 -16.5zM75 0v750h91v-750h-91z" />
    <glyph glyph-name="dotlessi" unicode="&#x131;" horiz-adv-x="238" 
d="M75 0v500h88v-500h-88z" />
    <glyph glyph-name="IJ" unicode="&#x132;" horiz-adv-x="620" 
d="M75 0v750h91v-750h-91zM365 -10q-46 0 -74 10v93q36 -12 74 -12q35 0 59.5 24.5t24.5 59.5v585h91v-585q0 -73 -51.5 -124t-123.5 -51z" />
    <glyph glyph-name="ij" unicode="&#x133;" horiz-adv-x="538" 
d="M422 593q-24 0 -41.5 16.5t-17.5 40.5q0 25 17.5 42t41.5 17t41 -17t17 -42q0 -24 -17 -40.5t-41 -16.5zM137 593q-24 0 -41.5 16.5t-17.5 40.5q0 25 17.5 42t41.5 17q23 0 40.5 -17.5t17.5 -41.5t-17 -40.5t-41 -16.5zM92 0v500h88v-500h-88zM313 -260q-42 0 -65 16v77
q24 -19 55 -19q32 0 53.5 22.5t21.5 56.5v607h88v-612q0 -62 -44.5 -105t-108.5 -43z" />
    <glyph glyph-name="Kcommaaccent" unicode="&#x136;" horiz-adv-x="624" 
d="M260 413l335 -323v-120l-429 415v-385h-91v750h91v-315l308 315h118zM316 -40q26 0 42.5 -18t16.5 -46q0 -70 -29.5 -120.5t-80.5 -48.5v34q24 1 39.5 22t15 39t-4.5 21q-25 0 -41 16.5t-16 41.5q0 26 16.5 42.5t41.5 16.5z" />
    <glyph glyph-name="kcommaaccent" unicode="&#x137;" horiz-adv-x="507" 
d="M248 280l247 -222v-108l-332 298v-248h-88v750h88v-445l212 195h112zM257 -40q26 0 42.5 -18t16.5 -46q0 -70 -29.5 -120.5t-80.5 -48.5v34q24 1 39.5 22t15 39t-4.5 21q-25 0 -41 16.5t-16 41.5q0 26 16.5 42.5t41.5 16.5z" />
    <glyph glyph-name="Lacute" unicode="&#x139;" horiz-adv-x="475" 
d="M86 845l90 155h91l-109 -155h-72zM75 0v750h91v-669h275v-81h-366z" />
    <glyph glyph-name="lacute" unicode="&#x13a;" horiz-adv-x="327" 
d="M84 845l90 155h91l-109 -155h-72zM232 -10q-70 0 -111.5 41.5t-41.5 108.5v610h88l1 -610q0 -74 66 -74q32 0 54 23l49 -60q-37 -39 -105 -39z" />
    <glyph glyph-name="Lcommaaccent" unicode="&#x13b;" horiz-adv-x="475" 
d="M75 0v750h91v-669h275v-81h-366zM208 -273v34q24 1 39.5 22t15 39t-4.5 21q-25 0 -41 16.5t-16 41.5q0 26 16.5 42.5t41.5 16.5q26 0 42.5 -18t16.5 -46q0 -70 -29.5 -120.5t-80.5 -48.5z" />
    <glyph glyph-name="lcommaaccent" unicode="&#x13c;" horiz-adv-x="327" 
d="M232 -10q-70 0 -111.5 41.5t-41.5 108.5v610h88l1 -610q0 -74 66 -74q32 0 54 23l49 -60q-37 -39 -105 -39zM162 -273v34q24 1 39.5 22t15 39t-4.5 21q-25 0 -41 16.5t-16 41.5q0 26 16.5 42.5t41.5 16.5q26 0 42.5 -18t16.5 -46q0 -70 -29.5 -120.5t-80.5 -48.5z" />
    <glyph glyph-name="Lcaron" unicode="&#x13d;" horiz-adv-x="490" 
d="M336 462v43q27 1 45.5 37.5t18.5 69.5q0 26 -13 26q-24 0 -41 17t-17 42t17 41.5t42 16.5q33 0 50 -30t17 -75q0 -69 -33 -128t-86 -60zM75 0v750h91v-669h275v-81h-366z" />
    <glyph glyph-name="lcaron" unicode="&#x13e;" horiz-adv-x="350" 
d="M241 462v43q26 1 44.5 37.5t18.5 69.5q0 26 -13 26q-24 0 -40.5 17t-16.5 42t16.5 41.5t41.5 16.5q33 0 50.5 -30t17.5 -75q0 -69 -33 -128t-86 -60zM232 -10q-70 0 -111.5 41.5t-41.5 108.5v610h88l1 -610q0 -74 66 -74q32 0 54 23l49 -60q-37 -39 -105 -39z" />
    <glyph glyph-name="ldot" unicode="&#x140;" horiz-adv-x="327" 
d="M232 -10q-70 0 -111.5 41.5t-41.5 108.5v610h88l1 -610q0 -74 66 -74q32 0 54 23l49 -60q-37 -39 -105 -39zM247 314q-19 0 -33 13t-14 33q0 19 14 33t33 14t33 -14t14 -33q0 -20 -14 -33t-33 -13z" />
    <glyph glyph-name="Lslash" unicode="&#x141;" horiz-adv-x="475" 
d="M166 81h275v-81h-366v293l-50 -52h-66l116 123v386h91v-289l47 50h70l-117 -122v-308z" />
    <glyph glyph-name="lslash" unicode="&#x142;" horiz-adv-x="327" 
d="M288 89l49 -60q-37 -39 -105 -39q-70 0 -111.5 41.5t-41.5 108.5v147l-56 -58h-66l122 129v392h88v-297l44 46h70l-114 -119l1 -240q0 -74 66 -74q32 0 54 23z" />
    <glyph glyph-name="Nacute" unicode="&#x143;" horiz-adv-x="778" 
d="M534 1000l-109 -155h-72l90 155h91zM613 750h90v-750h-87l-450 603v-603h-91v750h87l451 -604v604z" />
    <glyph glyph-name="nacute" unicode="&#x144;" horiz-adv-x="588" 
d="M443 750l-109 -155h-72l90 155h91zM322 510q84 0 139.5 -55t55.5 -139v-316h-89v306q0 54 -37 90t-93 36t-95.5 -38t-39.5 -92v-302h-88v500h81l4 -66q63 76 162 76z" />
    <glyph glyph-name="Ncommaaccent" unicode="&#x145;" horiz-adv-x="778" 
d="M613 750h90v-750h-87l-450 603v-603h-91v750h87l451 -604v604zM393 -40q26 0 42.5 -18t16.5 -46q0 -70 -29.5 -120.5t-80.5 -48.5v34q24 1 39.5 22t15 39t-4.5 21q-25 0 -41 16.5t-16 41.5q0 26 16.5 42.5t41.5 16.5z" />
    <glyph glyph-name="ncommaaccent" unicode="&#x146;" horiz-adv-x="588" 
d="M322 510q84 0 139.5 -55t55.5 -139v-316h-89v306q0 54 -37 90t-93 36t-95.5 -38t-39.5 -92v-302h-88v500h81l4 -66q63 76 162 76zM297 -40q26 0 42.5 -18t16.5 -46q0 -70 -29.5 -120.5t-80.5 -48.5v34q24 1 39.5 22t15 39t-4.5 21q-25 0 -41 16.5t-16 41.5
q0 26 16.5 42.5t41.5 16.5z" />
    <glyph glyph-name="Ncaron" unicode="&#x147;" horiz-adv-x="778" 
d="M434 829h-94l-102 171h70l79 -126l80 126h69zM613 750h90v-750h-87l-450 603v-603h-91v750h87l451 -604v604z" />
    <glyph glyph-name="ncaron" unicode="&#x148;" horiz-adv-x="588" 
d="M343 579h-94l-102 171h70l79 -126l80 126h69zM322 510q84 0 139.5 -55t55.5 -139v-316h-89v306q0 54 -37 90t-93 36t-95.5 -38t-39.5 -92v-302h-88v500h81l4 -66q63 76 162 76z" />
    <glyph glyph-name="Eng" unicode="&#x14a;" horiz-adv-x="807" 
d="M627 750h89v-824q0 -66 -44.5 -98t-114.5 -30v61q68 -4 68 67v84l-446 589v-599h-89v750h85l452 -598v598z" />
    <glyph glyph-name="eng" unicode="&#x14b;" horiz-adv-x="613" 
d="M336 510q82 0 139 -57.5t57 -140.5v-392q0 -64 -44.5 -96.5t-114.5 -31.5v62q70 -4 70 66v382q0 54 -37.5 92t-91.5 38q-56 0 -95.5 -38t-39.5 -92v-302h-89v500h89v-72q59 82 157 82z" />
    <glyph glyph-name="Omacron" unicode="&#x14c;" horiz-adv-x="834" 
d="M262 851v59h310v-59h-310zM417 -10q-158 0 -262 111.5t-104 273.5t104 273.5t262 111.5q157 0 261.5 -111.5t104.5 -273.5t-104.5 -273.5t-261.5 -111.5zM417 77q123 0 201 85.5t78 212.5t-78 212.5t-201 85.5t-201.5 -85.5t-78.5 -212.5t78.5 -212.5t201.5 -85.5z" />
    <glyph glyph-name="omacron" unicode="&#x14d;" horiz-adv-x="567" 
d="M128 601v59h310v-59h-310zM284 -10q-108 0 -176 75t-68 185q0 111 68 185.5t176 74.5q107 0 175.5 -75t68.5 -185t-68.5 -185t-175.5 -75zM284 69q71 0 114 52t43 129q0 78 -43.5 130t-113.5 52q-72 0 -114.5 -52t-42.5 -130t42.5 -129.5t114.5 -51.5z" />
    <glyph glyph-name="Ohungarumlaut" unicode="&#x150;" horiz-adv-x="834" 
d="M299 826l147 174h86l-166 -174h-67zM471 826l146 174h86l-166 -174h-66zM417 -10q-158 0 -262 111.5t-104 273.5t104 273.5t262 111.5q157 0 261.5 -111.5t104.5 -273.5t-104.5 -273.5t-261.5 -111.5zM417 77q123 0 201 85.5t78 212.5t-78 212.5t-201 85.5t-201.5 -85.5
t-78.5 -212.5t78.5 -212.5t201.5 -85.5z" />
    <glyph glyph-name="ohungarumlaut" unicode="&#x151;" horiz-adv-x="567" 
d="M165 576l147 174h86l-166 -174h-67zM337 576l146 174h86l-166 -174h-66zM284 -10q-108 0 -176 75t-68 185q0 111 68 185.5t176 74.5q107 0 175.5 -75t68.5 -185t-68.5 -185t-175.5 -75zM284 69q71 0 114 52t43 129q0 78 -43.5 130t-113.5 52q-72 0 -114.5 -52t-42.5 -130
t42.5 -129.5t114.5 -51.5z" />
    <glyph glyph-name="OE" unicode="&#x152;" horiz-adv-x="1257" 
d="M1167 672h-327v-258h284v-78h-284v-258h327v-78h-401v147q-54 -73 -135.5 -115t-175.5 -42q-160 0 -272.5 112.5t-112.5 272.5t112.5 272.5t272.5 112.5q94 0 175.5 -42t135.5 -115v147h401v-78zM456 78q124 0 210.5 86.5t86.5 210.5t-86.5 211t-210.5 87t-210.5 -87
t-86.5 -211t86.5 -210.5t210.5 -86.5z" />
    <glyph glyph-name="oe" unicode="&#x153;" horiz-adv-x="947" 
d="M907 250q0 -19 -1 -29h-378q7 -71 47 -112.5t108 -41.5q46 0 77 18.5t61 64.5l62 -43q-65 -117 -203 -117q-132 0 -197 104q-71 -104 -199 -104q-108 0 -176 75t-68 185q0 111 68 185.5t176 74.5q130 0 199 -105q66 105 197 105q105 0 166 -72t61 -188zM682 434
q-64 0 -103 -38.5t-49 -105.5h297q-8 67 -45.5 105.5t-99.5 38.5zM284 69q71 0 114 52t43 129q0 78 -43.5 130t-113.5 52q-72 0 -114.5 -52t-42.5 -130t42.5 -129.5t114.5 -51.5z" />
    <glyph glyph-name="Racute" unicode="&#x154;" horiz-adv-x="592" 
d="M450 1000l-109 -155h-72l90 155h91zM391 340l189 -340h-102l-179 335h-133v-335h-91v750h275q87 0 149 -62t62 -150q0 -75 -48.5 -130.5t-121.5 -67.5zM166 410h182q54 0 91.5 38t37.5 92t-38 91.5t-91 37.5h-182v-259z" />
    <glyph glyph-name="racute" unicode="&#x155;" horiz-adv-x="399" 
d="M366 750l-109 -155h-72l90 155h91zM308 510q69 0 109 -30l-43 -64q-29 16 -70 16q-56 0 -98.5 -43.5t-42.5 -108.5v-280h-88v500h81l4 -76q60 86 148 86z" />
    <glyph glyph-name="Rcommaaccent" unicode="&#x156;" horiz-adv-x="592" 
d="M391 340l189 -340h-102l-179 335h-133v-335h-91v750h275q87 0 149 -62t62 -150q0 -75 -48.5 -130.5t-121.5 -67.5zM166 410h182q54 0 91.5 38t37.5 92t-38 91.5t-91 37.5h-182v-259zM304 -40q26 0 42.5 -18t16.5 -46q0 -70 -29.5 -120.5t-80.5 -48.5v34q24 1 39.5 22
t15 39t-4.5 21q-25 0 -41 16.5t-16 41.5q0 26 16.5 42.5t41.5 16.5z" />
    <glyph glyph-name="rcommaaccent" unicode="&#x157;" horiz-adv-x="399" 
d="M308 510q69 0 109 -30l-43 -64q-29 16 -70 16q-56 0 -98.5 -43.5t-42.5 -108.5v-280h-88v500h81l4 -76q60 86 148 86zM121 -40q26 0 42.5 -18t16.5 -46q0 -70 -29.5 -120.5t-80.5 -48.5v34q24 1 39.5 22t15 39t-4.5 21q-25 0 -41 16.5t-16 41.5q0 26 16.5 42.5t41.5 16.5
z" />
    <glyph glyph-name="Rcaron" unicode="&#x158;" horiz-adv-x="592" 
d="M350 829h-94l-102 171h70l79 -126l80 126h69zM391 340l189 -340h-102l-179 335h-133v-335h-91v750h275q87 0 149 -62t62 -150q0 -75 -48.5 -130.5t-121.5 -67.5zM166 410h182q54 0 91.5 38t37.5 92t-38 91.5t-91 37.5h-182v-259z" />
    <glyph glyph-name="rcaron" unicode="&#x159;" horiz-adv-x="399" 
d="M266 579h-94l-102 171h70l79 -126l80 126h69zM308 510q69 0 109 -30l-43 -64q-29 16 -70 16q-56 0 -98.5 -43.5t-42.5 -108.5v-280h-88v500h81l4 -76q60 86 148 86z" />
    <glyph glyph-name="Sacute" unicode="&#x15a;" horiz-adv-x="629" 
d="M313 845l90 155h91l-109 -155h-72zM325 -10q-91 0 -167 40t-116 105l66 67q23 -56 83 -90.5t137 -34.5q71 0 115 29.5t45 89.5q0 28 -11 51.5t-25.5 39t-43.5 31.5t-48.5 24t-56.5 22q-42 16 -63.5 25t-55 27.5t-50.5 37t-30.5 47.5t-13.5 64q0 92 66 143.5t165 51.5
q84 0 149.5 -28.5t104.5 -75.5l-61 -62q-58 87 -191 87q-61 0 -101 -28t-40 -81q0 -21 9.5 -39.5t22.5 -31.5t38 -26.5t44 -21.5t51 -20l48 -19.5t45.5 -20.5t45 -25t36.5 -29.5t31.5 -37.5t18.5 -45t8 -55q0 -104 -71 -157.5t-184 -53.5z" />
    <glyph glyph-name="sacute" unicode="&#x15b;" horiz-adv-x="474" 
d="M207 595l90 155h91l-109 -155h-72zM242 -10q-61 0 -119 22t-86 55l46 60q18 -26 63.5 -44.5t90.5 -19.5q47 -2 78.5 18t31.5 54q0 15 -7.5 27t-16 19.5t-29 16t-31.5 12t-38 11.5l-39 13t-36 13.5t-36 19t-26 24t-20 33t-6 40.5q0 65 54.5 105.5t129.5 40.5
q47 0 94.5 -15.5t78.5 -40.5l-49 -60q-43 40 -109 45q-42 3 -75.5 -14t-33.5 -50q0 -18 8.5 -32t28 -24t35 -15.5t45.5 -14.5q32 -9 48.5 -14.5t43 -18t40 -26t24.5 -36.5t11 -52q0 -66 -55.5 -109t-138.5 -43z" />
    <glyph glyph-name="Scedilla" unicode="&#x15e;" horiz-adv-x="629" 
d="M580 201q0 -103 -69 -156t-181 -55l-28 -56q52 10 88.5 -16.5t36.5 -74.5q0 -42 -29.5 -72t-72.5 -30q-34 0 -67.5 18.5t-48.5 44.5l42 18q11 -15 32.5 -25.5t41.5 -10.5q24 0 40 16.5t16 40.5q0 35 -29 48.5t-71 -2.5l-36 24l40 79q-79 9 -143.5 47.5t-99.5 95.5l66 67
q23 -56 83 -90.5t137 -34.5q71 0 115 29.5t45 89.5q0 28 -11 51.5t-25.5 39t-43.5 31.5t-48.5 24t-56.5 22q-42 16 -63.5 25t-55 27.5t-50.5 37t-30.5 47.5t-13.5 64q0 92 66 143.5t165 51.5q84 0 149.5 -28.5t104.5 -75.5l-61 -62q-58 87 -191 87q-61 0 -101 -28t-40 -81
q0 -21 9.5 -39.5t22.5 -31.5t38 -26.5t44 -21.5t51 -20l48 -19.5t45.5 -20.5t45 -25t36.5 -29.5t31.5 -37.5t18.5 -45t8 -55z" />
    <glyph glyph-name="scedilla" unicode="&#x15f;" horiz-adv-x="474" 
d="M436 142q0 -61 -48 -103t-122 -48l-29 -58q52 10 88.5 -16.5t36.5 -74.5q0 -42 -29.5 -72t-72.5 -30q-34 0 -67.5 18.5t-48.5 44.5l42 18q11 -15 32.5 -25.5t41.5 -10.5q24 0 40 16.5t16 40.5q0 35 -29 48.5t-71 -2.5l-36 24l39 79q-55 4 -105.5 25t-76.5 51l46 60
q18 -26 63.5 -44.5t90.5 -19.5q47 -2 78.5 18t31.5 54q0 15 -7.5 27t-16 19.5t-29 16t-31.5 12t-38 11.5l-39 13t-36 13.5t-36 19t-26 24t-20 33t-6 40.5q0 65 54.5 105.5t129.5 40.5q47 0 94.5 -15.5t78.5 -40.5l-49 -60q-43 40 -109 45q-42 3 -75.5 -14t-33.5 -50
q0 -18 8.5 -32t28 -24t35 -15.5t45.5 -14.5q32 -9 48.5 -14.5t43 -18t40 -26t24.5 -36.5t11 -52z" />
    <glyph glyph-name="Scaron" unicode="&#x160;" horiz-adv-x="629" 
d="M300 829l-102 171h70l79 -126l80 126h69l-102 -171h-94zM325 -10q-91 0 -167 40t-116 105l66 67q23 -56 83 -90.5t137 -34.5q71 0 115 29.5t45 89.5q0 28 -11 51.5t-25.5 39t-43.5 31.5t-48.5 24t-56.5 22q-42 16 -63.5 25t-55 27.5t-50.5 37t-30.5 47.5t-13.5 64
q0 92 66 143.5t165 51.5q84 0 149.5 -28.5t104.5 -75.5l-61 -62q-58 87 -191 87q-61 0 -101 -28t-40 -81q0 -21 9.5 -39.5t22.5 -31.5t38 -26.5t44 -21.5t51 -20l48 -19.5t45.5 -20.5t45 -25t36.5 -29.5t31.5 -37.5t18.5 -45t8 -55q0 -104 -71 -157.5t-184 -53.5z" />
    <glyph glyph-name="scaron" unicode="&#x161;" horiz-adv-x="474" 
d="M194 579l-102 171h70l79 -126l80 126h69l-102 -171h-94zM242 -10q-61 0 -119 22t-86 55l46 60q18 -26 63.5 -44.5t90.5 -19.5q47 -2 78.5 18t31.5 54q0 15 -7.5 27t-16 19.5t-29 16t-31.5 12t-38 11.5l-39 13t-36 13.5t-36 19t-26 24t-20 33t-6 40.5q0 65 54.5 105.5
t129.5 40.5q47 0 94.5 -15.5t78.5 -40.5l-49 -60q-43 40 -109 45q-42 3 -75.5 -14t-33.5 -50q0 -18 8.5 -32t28 -24t35 -15.5t45.5 -14.5q32 -9 48.5 -14.5t43 -18t40 -26t24.5 -36.5t11 -52q0 -66 -55.5 -109t-138.5 -43z" />
    <glyph glyph-name="uni0162" unicode="&#x162;" horiz-adv-x="550" 
d="M25 750h501v-80h-205v-670h-91v670h-205v80zM265 -67q52 10 88.5 -16.5t36.5 -74.5q0 -42 -29.5 -72t-72.5 -30q-34 0 -67.5 18.5t-48.5 44.5l42 18q11 -15 32.5 -25.5t41.5 -10.5q24 0 40 16.5t16 40.5q0 35 -29 48.5t-71 -2.5l-36 24l44 88h46z" />
    <glyph glyph-name="uni0163" unicode="&#x163;" horiz-adv-x="349" 
d="M346 29q-36 -38 -101 -39l-28 -57q52 10 88.5 -16.5t36.5 -74.5q0 -42 -29.5 -72t-72.5 -30q-34 0 -67.5 18.5t-48.5 44.5l42 18q11 -15 32.5 -25.5t41.5 -10.5q24 0 40 16.5t16 40.5q0 35 -29 48.5t-71 -2.5l-36 24l41 82q-53 11 -83 50t-30 96v291h-65v69h65v170h88
v-170h136v-69h-135v-291q0 -74 66 -74q32 0 54 23z" />
    <glyph glyph-name="Tcaron" unicode="&#x164;" horiz-adv-x="550" 
d="M322 829h-94l-102 171h70l79 -126l80 126h69zM526 750v-80h-205v-670h-91v670h-205v80h501z" />
    <glyph glyph-name="tcaron" unicode="&#x165;" horiz-adv-x="374" 
d="M318 707q-24 0 -41 17t-17 41q0 25 17 41.5t42 16.5q33 0 50 -29.5t17 -75.5q0 -69 -33 -128t-86 -60v44q26 1 45 37.5t19 69.5q0 26 -13 26zM243 66q32 0 54 23l49 -60q-37 -39 -105 -39q-69 0 -111 41.5t-42 108.5v291h-65v69h65v170h88v-170h136v-69h-135v-291
q0 -74 66 -74z" />
    <glyph glyph-name="Tbar" unicode="&#x166;" horiz-adv-x="550" 
d="M526 670h-205v-263h103v-63h-103v-344h-91v344h-105v63h105v263h-205v80h501v-80z" />
    <glyph glyph-name="tbar" unicode="&#x167;" horiz-adv-x="349" 
d="M297 89l49 -60q-37 -39 -105 -39q-69 0 -111 41.5t-42 108.5v79h-64v63h64v149h-65v69h65v170h88v-170h136v-69h-135v-149h146v-63h-146v-79q0 -74 66 -74q32 0 54 23z" />
    <glyph glyph-name="Utilde" unicode="&#x168;" horiz-adv-x="730" 
d="M435 836q-57 0 -93 54q-19 29 -45 29q-23 0 -34.5 -20.5t-5.5 -53.5h-56q-8 56 19.5 92.5t74.5 36.5q57 0 93 -55q17 -29 45 -29q23 0 34.5 20.5t5.5 54.5h56q8 -55 -19 -92t-75 -37zM365 -10q-119 0 -202 74.5t-83 181.5v504h91v-489q0 -79 56.5 -134.5t137.5 -55.5
t137.5 55.5t56.5 134.5v489h92v-504q0 -107 -83.5 -181.5t-202.5 -74.5z" />
    <glyph glyph-name="Umacron" unicode="&#x16a;" horiz-adv-x="730" 
d="M210 851v59h310v-59h-310zM365 -10q-119 0 -202 74.5t-83 181.5v504h91v-489q0 -79 56.5 -134.5t137.5 -55.5t137.5 55.5t56.5 134.5v489h92v-504q0 -107 -83.5 -181.5t-202.5 -74.5z" />
    <glyph glyph-name="umacron" unicode="&#x16b;" horiz-adv-x="594" 
d="M452 660v-59h-310v59h310zM430 500h89v-500h-81l-5 67q-61 -77 -159 -77q-83 0 -140 58t-57 141v311h88v-302q0 -54 38 -91.5t93 -37.5q56 0 95 37.5t39 91.5v302z" />
    <glyph glyph-name="Uring" unicode="&#x16e;" horiz-adv-x="730" 
d="M365 809q-43 0 -73 30t-30 72t30 72t73 30q42 0 71.5 -30t29.5 -72t-29.5 -72t-71.5 -30zM365 849q26 0 43 17.5t17 44.5q0 26 -17.5 44t-42.5 18t-43 -18t-18 -44q0 -27 17.5 -44.5t43.5 -17.5zM365 -10q-119 0 -202 74.5t-83 181.5v504h91v-489q0 -79 56.5 -134.5
t137.5 -55.5t137.5 55.5t56.5 134.5v489h92v-504q0 -107 -83.5 -181.5t-202.5 -74.5z" />
    <glyph glyph-name="uring" unicode="&#x16f;" horiz-adv-x="594" 
d="M298 559q-43 0 -73 30t-30 72t30 72t73 30q42 0 71.5 -30t29.5 -72t-29.5 -72t-71.5 -30zM298 723q-25 0 -43 -18t-18 -44q0 -27 17.5 -44.5t43.5 -17.5t43 17.5t17 44.5q0 26 -17.5 44t-42.5 18zM430 500h89v-500h-81l-5 67q-61 -77 -159 -77q-83 0 -140 58t-57 141v311
h88v-302q0 -54 38 -91.5t93 -37.5q56 0 95 37.5t39 91.5v302z" />
    <glyph glyph-name="Uhungarumlaut" unicode="&#x170;" horiz-adv-x="730" 
d="M247 826l147 174h86l-166 -174h-67zM419 826l146 174h86l-166 -174h-66zM365 -10q-119 0 -202 74.5t-83 181.5v504h91v-489q0 -79 56.5 -134.5t137.5 -55.5t137.5 55.5t56.5 134.5v489h92v-504q0 -107 -83.5 -181.5t-202.5 -74.5z" />
    <glyph glyph-name="uhungarumlaut" unicode="&#x171;" horiz-adv-x="594" 
d="M412 750l-166 -174h-67l147 174h86zM417 576h-66l146 174h86zM430 198v302h89v-500h-81l-5 67q-61 -77 -159 -77q-83 0 -140 58t-57 141v311h88v-302q0 -54 38 -91.5t93 -37.5q56 0 95 37.5t39 91.5z" />
    <glyph glyph-name="Uogonek" unicode="&#x172;" horiz-adv-x="730" 
d="M559 750h92v-504q0 -94 -65 -164t-165 -87q-41 -20 -69.5 -57.5t-28.5 -78.5q0 -29 17.5 -47t48.5 -18q58 0 94 47l29 -43q-56 -56 -137 -51q-52 2 -83 29.5t-31 75.5q0 78 91 138q-115 5 -193.5 78.5t-78.5 177.5v504h91v-489q0 -79 56.5 -134.5t137.5 -55.5t137.5 55.5
t56.5 134.5v489z" />
    <glyph glyph-name="uogonek" unicode="&#x173;" horiz-adv-x="594" 
d="M547 -165l29 -43q-56 -56 -137 -51q-52 2 -83 29.5t-31 75.5q0 90 118 154h-5l-5 67q-61 -77 -159 -77q-83 0 -140 58t-57 141v311h88v-302q0 -54 38 -91.5t93 -37.5q56 0 95 37.5t39 91.5v302h89v-500h-1q-49 -9 -90 -53t-41 -94q0 -29 17.5 -47t48.5 -18q58 0 94 47z
" />
    <glyph glyph-name="Wcircumflex" unicode="&#x174;" horiz-adv-x="1083" 
d="M542 957l-77 -128h-72l102 171h94l102 -171h-72zM995 750h98l-316 -750h-99l-136 322l-136 -322h-98l-318 750h99l271 -642l136 322l-135 320h94l269 -642z" />
    <glyph glyph-name="wcircumflex" unicode="&#x175;" horiz-adv-x="717" 
d="M313 707l-77 -128h-72l102 171h94l102 -171h-72zM610 500h98l-171 -500h-97l-83 238l-80 -238h-96l-172 500h100l125 -394l82 247l-51 147h87l131 -396z" />
    <glyph glyph-name="Ycircumflex" unicode="&#x176;" horiz-adv-x="653" 
d="M327 957l-77 -128h-72l102 171h94l102 -171h-72zM634 750l-261 -394v-356h-92v354l-262 396h103l205 -317l205 317h102z" />
    <glyph glyph-name="ycircumflex" unicode="&#x177;" horiz-adv-x="594" 
d="M297 707l-77 -128h-72l102 171h94l102 -171h-72zM519 500v-513q0 -108 -62.5 -175.5t-178.5 -67.5q-100 0 -174 48v96q75 -65 181 -65q72 0 108.5 43t36.5 121v77q-60 -74 -156 -74q-83 0 -140 58t-57 141v311h88v-302q0 -54 38 -91.5t93 -37.5q56 0 95 37.5t39 91.5v302
h89z" />
    <glyph glyph-name="Ydieresis" unicode="&#x178;" horiz-adv-x="653" 
d="M234 843q-24 0 -41.5 16.5t-17.5 40.5q0 25 17.5 42t41.5 17t41 -17t17 -42q0 -24 -17 -40.5t-41 -16.5zM421 843q-24 0 -41 16.5t-17 40.5t17.5 41.5t40.5 17.5q24 0 41 -17t17 -42q0 -24 -17 -40.5t-41 -16.5zM634 750l-261 -394v-356h-92v354l-262 396h103l205 -317
l205 317h102z" />
    <glyph glyph-name="Zacute" unicode="&#x179;" horiz-adv-x="659" 
d="M481 1000l-109 -155h-72l90 155h91zM170 81h443v-81h-568v48l431 621h-420v81h545v-48z" />
    <glyph glyph-name="zacute" unicode="&#x17a;" horiz-adv-x="528" 
d="M242 595l90 155h91l-109 -155h-72zM48 0v62l308 364h-302v74h419v-60l-308 -366h315v-74h-432z" />
    <glyph glyph-name="Zdotaccent" unicode="&#x17b;" horiz-adv-x="659" 
d="M335 843q-24 0 -41.5 16.5t-17.5 40.5q0 25 17.5 42t41.5 17t41 -17t17 -42q0 -24 -17 -40.5t-41 -16.5zM170 81h443v-81h-568v48l431 621h-420v81h545v-48z" />
    <glyph glyph-name="zdotaccent" unicode="&#x17c;" horiz-adv-x="528" 
d="M276 593q-24 0 -41.5 16.5t-17.5 40.5q0 25 17.5 42t41.5 17t41 -17t17 -42q0 -24 -17 -40.5t-41 -16.5zM48 0v62l308 364h-302v74h419v-60l-308 -366h315v-74h-432z" />
    <glyph glyph-name="Zcaron" unicode="&#x17d;" horiz-adv-x="659" 
d="M381 829h-94l-102 171h70l79 -126l80 126h69zM170 81h443v-81h-568v48l431 621h-420v81h545v-48z" />
    <glyph glyph-name="zcaron" unicode="&#x17e;" horiz-adv-x="528" 
d="M229 579l-102 171h70l79 -126l80 126h69l-102 -171h-94zM48 0v62l308 364h-302v74h419v-60l-308 -366h315v-74h-432z" />
    <glyph glyph-name="florin" unicode="&#x192;" horiz-adv-x="441" 
d="M360 694q-38 0 -65.5 -25t-34.5 -65l-16 -104h140l-11 -69h-140l-108 -681h-80l107 681h-83l11 69h83l19 115q9 62 58.5 103.5t111.5 41.5q43 0 66 -17l-8 -65q-17 16 -50 16z" />
    <glyph glyph-name="uni01CD" unicode="&#x1cd;" horiz-adv-x="743" 
d="M418 829h-94l-102 171h70l79 -126l80 126h69zM624 0l-61 157h-384l-61 -157h-99l301 750h102l301 -750h-99zM208 234h326l-163 422z" />
    <glyph glyph-name="uni01CE" unicode="&#x1ce;" horiz-adv-x="537" 
d="M318 579h-94l-102 171h70l79 -126l80 126h69zM259 510q91 0 149 -48.5t58 -141.5v-320h-78l-5 71q-91 -81 -185 -81q-67 0 -110 43t-43 110q0 75 60.5 117t182.5 22l91 -15v59q0 54 -34.5 81.5t-89.5 27.5q-88 0 -134 -69l-61 54q62 90 199 90zM135 147q0 -35 22.5 -56.5
t60.5 -21.5q78 0 161 76v57l-82 14q-87 16 -124.5 -5.5t-37.5 -63.5z" />
    <glyph glyph-name="uni01CF" unicode="&#x1cf;" horiz-adv-x="241" 
d="M73 829l-102 171h70l79 -126l80 126h69l-102 -171h-94zM75 0v750h91v-750h-91z" />
    <glyph glyph-name="uni01D0" unicode="&#x1d0;" horiz-adv-x="238" 
d="M72 579l-102 171h70l79 -126l80 126h69l-102 -171h-94zM75 0v500h88v-500h-88z" />
    <glyph glyph-name="uni01D1" unicode="&#x1d1;" horiz-adv-x="834" 
d="M370 829l-102 171h70l79 -126l80 126h69l-102 -171h-94zM417 -10q-158 0 -262 111.5t-104 273.5t104 273.5t262 111.5q157 0 261.5 -111.5t104.5 -273.5t-104.5 -273.5t-261.5 -111.5zM417 77q123 0 201 85.5t78 212.5t-78 212.5t-201 85.5t-201.5 -85.5t-78.5 -212.5
t78.5 -212.5t201.5 -85.5z" />
    <glyph glyph-name="uni01D2" unicode="&#x1d2;" horiz-adv-x="567" 
d="M236 579l-102 171h70l79 -126l80 126h69l-102 -171h-94zM284 -10q-108 0 -176 75t-68 185q0 111 68 185.5t176 74.5q107 0 175.5 -75t68.5 -185t-68.5 -185t-175.5 -75zM284 69q71 0 114 52t43 129q0 78 -43.5 130t-113.5 52q-72 0 -114.5 -52t-42.5 -130t42.5 -129.5
t114.5 -51.5z" />
    <glyph glyph-name="uni01D3" unicode="&#x1d3;" horiz-adv-x="730" 
d="M318 829l-102 171h70l79 -126l80 126h69l-102 -171h-94zM365 -10q-119 0 -202 74.5t-83 181.5v504h91v-489q0 -79 56.5 -134.5t137.5 -55.5t137.5 55.5t56.5 134.5v489h92v-504q0 -107 -83.5 -181.5t-202.5 -74.5z" />
    <glyph glyph-name="uni01D4" unicode="&#x1d4;" horiz-adv-x="594" 
d="M344 579h-94l-102 171h70l79 -126l80 126h69zM430 500h89v-500h-81l-5 67q-61 -77 -159 -77q-83 0 -140 58t-57 141v311h88v-302q0 -54 38 -91.5t93 -37.5q56 0 95 37.5t39 91.5v302z" />
    <glyph glyph-name="Gcaron" unicode="&#x1e6;" horiz-adv-x="740" 
d="M501 829h-94l-102 171h70l79 -126l80 126h69zM452 673q-125 0 -210.5 -83t-85.5 -218t85.5 -218t210.5 -83q68 0 132 31v217h-174v82h255v-353q-102 -64 -214 -64q-160 0 -270 108.5t-110 279.5t109.5 279.5t268.5 108.5q114 0 216 -64v-114q-39 43 -95.5 67t-117.5 24z
" />
    <glyph glyph-name="gcaron" unicode="&#x1e7;" horiz-adv-x="596" 
d="M327 579h-94l-102 171h70l79 -126l80 126h69zM441 500h80v-494q0 -112 -64.5 -184t-171.5 -72q-86 0 -154 47v96q68 -65 160 -65q64 0 103.5 48.5t39.5 129.5v63q-64 -79 -164 -79q-104 0 -167 74.5t-63 185.5q0 112 63 186t167 74q102 0 167 -83zM284 69q52 0 93.5 36
t56.5 92v106q-15 57 -56.5 93t-93.5 36q-72 0 -114.5 -52t-42.5 -130q0 -77 42.5 -129t114.5 -52z" />
    <glyph glyph-name="Oslashacute" unicode="&#x1fe;" horiz-adv-x="834" 
d="M564 1000l-109 -155h-72l90 155h91zM651 675q62 -54 97 -132t35 -168q0 -162 -104.5 -273.5t-261.5 -111.5q-106 0 -190 53l-39 -58h-64l60 89q-63 54 -98 132t-35 169q0 162 104 273.5t262 111.5q105 0 191 -54l39 58h64zM137 375q0 -143 95 -229l328 489
q-63 38 -143 38q-123 0 -201.5 -85.5t-78.5 -212.5zM417 77q123 0 201 85.5t78 212.5q0 143 -93 228l-328 -489q62 -37 142 -37z" />
    <glyph glyph-name="oslashacute" unicode="&#x1ff;" horiz-adv-x="567" 
d="M430 750l-109 -155h-72l90 155h91zM443 451q85 -75 85 -201q0 -110 -68.5 -185t-175.5 -75q-71 0 -128 35l-37 -56h-47l53 79q-85 74 -85 202q0 111 68 185.5t176 74.5q72 0 128 -36l38 57h46zM127 250q0 -81 45 -132l195 289q-36 25 -83 25q-72 0 -114.5 -52t-42.5 -130
zM284 69q71 0 114 52t43 129q0 79 -45 132l-195 -290q35 -23 83 -23z" />
    <glyph glyph-name="Scommaaccent" unicode="&#x218;" horiz-adv-x="629" 
d="M325 -10q-91 0 -167 40t-116 105l66 67q23 -56 83 -90.5t137 -34.5q71 0 115 29.5t45 89.5q0 28 -11 51.5t-25.5 39t-43.5 31.5t-48.5 24t-56.5 22q-42 16 -63.5 25t-55 27.5t-50.5 37t-30.5 47.5t-13.5 64q0 92 66 143.5t165 51.5q84 0 149.5 -28.5t104.5 -75.5l-61 -62
q-58 87 -191 87q-61 0 -101 -28t-40 -81q0 -21 9.5 -39.5t22.5 -31.5t38 -26.5t44 -21.5t51 -20l48 -19.5t45.5 -20.5t45 -25t36.5 -29.5t31.5 -37.5t18.5 -45t8 -55q0 -104 -71 -157.5t-184 -53.5zM262 -273v34q24 1 39.5 22t15 39t-4.5 21q-25 0 -41 16.5t-16 41.5
q0 26 16.5 42.5t41.5 16.5q26 0 42.5 -18t16.5 -46q0 -70 -29.5 -120.5t-80.5 -48.5z" />
    <glyph glyph-name="scommaaccent" unicode="&#x219;" horiz-adv-x="474" 
d="M242 -10q-61 0 -119 22t-86 55l46 60q18 -26 63.5 -44.5t90.5 -19.5q47 -2 78.5 18t31.5 54q0 15 -7.5 27t-16 19.5t-29 16t-31.5 12t-38 11.5l-39 13t-36 13.5t-36 19t-26 24t-20 33t-6 40.5q0 65 54.5 105.5t129.5 40.5q47 0 94.5 -15.5t78.5 -40.5l-49 -60
q-43 40 -109 45q-42 3 -75.5 -14t-33.5 -50q0 -18 8.5 -32t28 -24t35 -15.5t45.5 -14.5q32 -9 48.5 -14.5t43 -18t40 -26t24.5 -36.5t11 -52q0 -66 -55.5 -109t-138.5 -43zM196 -273v34q24 1 39.5 22t15 39t-4.5 21q-25 0 -41 16.5t-16 41.5q0 26 16.5 42.5t41.5 16.5
q26 0 42.5 -18t16.5 -46q0 -70 -29.5 -120.5t-80.5 -48.5z" />
    <glyph glyph-name="uni021A" unicode="&#x21a;" horiz-adv-x="550" 
d="M25 750h501v-80h-205v-670h-91v670h-205v80zM276 -40q26 0 42.5 -18t16.5 -46q0 -70 -29.5 -120.5t-80.5 -48.5v34q24 1 39.5 22t15 39t-4.5 21q-25 0 -41 16.5t-16 41.5q0 26 16.5 42.5t41.5 16.5z" />
    <glyph glyph-name="uni021B" unicode="&#x21b;" horiz-adv-x="349" 
d="M297 89l49 -60q-37 -39 -105 -39q-69 0 -111 41.5t-42 108.5v291h-65v69h65v170h88v-170h136v-69h-135v-291q0 -74 66 -74q32 0 54 23zM228 -40q26 0 42.5 -18t16.5 -46q0 -70 -29.5 -120.5t-80.5 -48.5v34q24 1 39.5 22t15 39t-4.5 21q-25 0 -41 16.5t-16 41.5
q0 26 16.5 42.5t41.5 16.5z" />
    <glyph glyph-name="uni0228" unicode="&#x228;" horiz-adv-x="542" 
d="M490 669h-324v-253h282v-82h-282v-253h324v-81h-184l-33 -67q52 10 88.5 -16.5t36.5 -74.5q0 -42 -29.5 -72t-72.5 -30q-34 0 -67.5 18.5t-48.5 44.5l42 18q11 -15 32.5 -25.5t41.5 -10.5q24 0 40 16.5t16 40.5q0 35 -29 48.5t-71 -2.5l-36 24l44 88h-185v750h415v-81z
" />
    <glyph glyph-name="uni0229" unicode="&#x229;" horiz-adv-x="545" 
d="M505 250q0 -19 -1 -29h-378q7 -71 47 -112.5t108 -41.5q46 0 77 18.5t61 64.5l62 -43q-61 -109 -183 -116l-28 -58q52 10 88.5 -16.5t36.5 -74.5q0 -42 -29.5 -72t-72.5 -30q-34 0 -67.5 18.5t-48.5 44.5l42 18q11 -15 32.5 -25.5t41.5 -10.5q24 0 40 16.5t16 40.5
q0 35 -29 48.5t-71 -2.5l-36 24l40 79q-98 9 -155.5 80t-57.5 178q0 114 65 187.5t173 73.5q105 0 166 -72t61 -188zM280 434q-64 0 -103 -39t-49 -105h297q-7 67 -44.5 105.5t-100.5 38.5z" />
    <glyph glyph-name="uni0237" unicode="&#x237;" horiz-adv-x="291" 
d="M44 -260q-42 0 -65 16v77q24 -19 55 -19q32 0 53.5 22.5t21.5 56.5v607h88v-612q0 -62 -44.5 -105t-108.5 -43z" />
    <glyph glyph-name="circumflex" unicode="&#x2c6;" horiz-adv-x="50" 
d="M30 579l102 171h94l102 -171h-72l-77 128l-77 -128h-72z" />
    <glyph glyph-name="caron" unicode="&#x2c7;" horiz-adv-x="50" 
d="M132 579l-102 171h70l79 -126l80 126h69l-102 -171h-94z" />
    <glyph glyph-name="breve" unicode="&#x2d8;" horiz-adv-x="50" 
d="M291 565q-73 0 -120 42.5t-47 113.5h55q0 -42 32 -71.5t80 -29.5q49 0 81 29.5t32 71.5h54q0 -72 -46.5 -114t-120.5 -42z" />
    <glyph glyph-name="dotaccent" unicode="&#x2d9;" horiz-adv-x="50" 
d="M149 593q-24 0 -41.5 16.5t-17.5 40.5q0 25 17.5 42t41.5 17t41 -17t17 -42q0 -24 -17 -40.5t-41 -16.5z" />
    <glyph glyph-name="ring" unicode="&#x2da;" horiz-adv-x="50" 
d="M91 559q-43 0 -73 30t-30 72t30 72t73 30q42 0 71.5 -30t29.5 -72t-29.5 -72t-71.5 -30zM91 599q26 0 43 17.5t17 44.5q0 26 -17.5 44t-42.5 18t-43 -18t-18 -44q0 -27 17.5 -44.5t43.5 -17.5z" />
    <glyph glyph-name="ogonek" unicode="&#x2db;" horiz-adv-x="50" 
d="M132 -259q-52 2 -83 29.5t-31 75.5q0 52 40 95.5t108 73.5l45 -15q-49 -9 -90 -53t-41 -94q0 -29 17.5 -47t48.5 -18q58 0 94 47l29 -43q-56 -56 -137 -51z" />
    <glyph glyph-name="tilde" unicode="&#x2dc;" horiz-adv-x="51" 
d="M266 616q-57 0 -93 54q-19 29 -45 29q-23 0 -34.5 -20.5t-5.5 -53.5h-56q-8 56 19.5 92.5t74.5 36.5q57 0 93 -55q17 -29 45 -29q23 0 34.5 20.5t5.5 54.5h56q8 -55 -19 -92t-75 -37z" />
    <glyph glyph-name="hungarumlaut" unicode="&#x2dd;" horiz-adv-x="50" 
d="M30 576l147 174h86l-166 -174h-67zM202 576l146 174h86l-166 -174h-66z" />
    <glyph glyph-name="gravecomb" unicode="&#x300;" 
d="M-102 595l-110 155h91l90 -155h-71z" />
    <glyph glyph-name="acutecomb" unicode="&#x301;" 
d="M-212 595l90 155h91l-109 -155h-72z" />
    <glyph glyph-name="uni0302" unicode="&#x302;" 
d="M-328 579l102 171h94l102 -171h-72l-77 128l-77 -128h-72z" />
    <glyph glyph-name="tildecomb" unicode="&#x303;" 
d="M-127 616q-57 0 -93 54q-19 29 -45 29q-23 0 -34.5 -20.5t-5.5 -53.5h-56q-8 56 19.5 92.5t74.5 36.5q57 0 93 -55q17 -29 45 -29q23 0 34.5 20.5t5.5 54.5h56q8 -55 -19 -92t-75 -37z" />
    <glyph glyph-name="uni0304" unicode="&#x304;" 
d="M-341 601v59h310v-59h-310z" />
    <glyph glyph-name="uni0306" unicode="&#x306;" 
d="M-340 565q-73 0 -120 42.5t-47 113.5h55q0 -42 32 -71.5t80 -29.5q49 0 81 29.5t32 71.5h54q0 -72 -46.5 -114t-120.5 -42z" />
    <glyph glyph-name="uni0307" unicode="&#x307;" 
d="M-149 593q-24 0 -41.5 16.5t-17.5 40.5q0 25 17.5 42t41.5 17t41 -17t17 -42q0 -24 -17 -40.5t-41 -16.5z" />
    <glyph glyph-name="uni0308" unicode="&#x308;" 
d="M-307 593q-24 0 -41.5 16.5t-17.5 40.5q0 25 17.5 42t41.5 17t41 -17t17 -42q0 -24 -17 -40.5t-41 -16.5zM-120 593q-24 0 -41 16.5t-17 40.5t17 41.5t41 17.5t41 -17t17 -42q0 -24 -17 -40.5t-41 -16.5z" />
    <glyph glyph-name="uni030A" unicode="&#x30a;" 
d="M-89 559q-43 0 -73 30t-30 72t30 72t73 30q42 0 71.5 -30t29.5 -72t-29.5 -72t-71.5 -30zM-89 599q26 0 43 17.5t17 44.5q0 26 -17.5 44t-42.5 18t-43 -18t-18 -44q0 -27 17.5 -44.5t43.5 -17.5z" />
    <glyph glyph-name="uni030B" unicode="&#x30b;" 
d="M-434 576l147 174h86l-166 -174h-67zM-262 576l146 174h86l-166 -174h-66z" />
    <glyph glyph-name="uni030C" unicode="&#x30c;" 
d="M-226 579l-102 171h70l79 -126l80 126h69l-102 -171h-94z" />
    <glyph glyph-name="uni0312" unicode="&#x312;" 
d="M-90 526q-25 0 -42 18.5t-17 45.5q-1 62 36.5 114.5t73.5 54.5v-33q-20 -8 -35.5 -29t-17.5 -36t2 -18q25 0 41.5 -16.5t16.5 -40.5q0 -25 -16.5 -42.5t-41.5 -17.5z" />
    <glyph glyph-name="dotbelowcomb" unicode="&#x323;" 
d="M-89 -250q-24 0 -41.5 17t-17.5 41t17.5 41.5t41.5 17.5t41 -17.5t17 -41.5t-17 -41t-41 -17z" />
    <glyph glyph-name="uni0326" unicode="&#x326;" 
d="M-140 -126v34q24 1 39.5 22t15 39t-4.5 21q-25 0 -41 16.5t-16 42.5q0 25 16.5 41.5t41.5 16.5q26 0 42.5 -18t16.5 -46q0 -70 -29.5 -120.5t-80.5 -48.5z" />
    <glyph glyph-name="uni0327" unicode="&#x327;" 
d="M-132 -260q-34 0 -67.5 18.5t-48.5 44.5l42 18q11 -15 32.5 -25.5t41.5 -10.5q24 0 40 16.5t16 40.5q0 35 -29 48.5t-71 -2.5l-36 24l44 88h46l-33 -67q52 10 88.5 -16.5t36.5 -74.5q0 -42 -29.5 -72t-72.5 -30z" />
    <glyph glyph-name="uni0328" unicode="&#x328;" 
d="M-168 -259q-52 2 -83 29.5t-31 75.5q0 52 40 95.5t108 73.5l45 -15q-49 -9 -90 -53t-41 -94q0 -29 17.5 -47t48.5 -18q58 0 94 47l29 -43q-56 -56 -137 -51z" />
    <glyph glyph-name="uni0335" unicode="&#x335;" 
d="M-469 229v63h299v-63h-299z" />
    <glyph glyph-name="uni0336" unicode="&#x336;" 
d="M-749 240v40h718v-40h-718z" />
    <glyph glyph-name="uni0337" unicode="&#x337;" 
d="M-433 119l254 270h70l-258 -270h-66z" />
    <glyph glyph-name="uni0338" unicode="&#x338;" 
d="M-608 -14l523 779h64l-523 -779h-64z" />
    <glyph glyph-name="uni0394" unicode="&#x394;" horiz-adv-x="789" 
d="M37 0v55l308 703h102l304 -703v-55h-714zM125 72h532l-177 404q-4 9 -39 93t-44 111h-10q-4 -14 -17 -46.5t-31 -74.5t-26 -63z" />
    <glyph glyph-name="Lambda" unicode="&#x39b;" horiz-adv-x="743" 
d="M723 0h-99l-253 647l-253 -647h-99l301 750h102z" />
    <glyph glyph-name="Xi" unicode="&#x39e;" horiz-adv-x="595" 
d="M73 669v81h430v-81h-430zM124 334v82h328v-82h-328zM73 0v81h430v-81h-430z" />
    <glyph glyph-name="uni03A9" unicode="&#x3a9;" horiz-adv-x="888" 
d="M60 0v65h167v7q-64 50 -107 134.5t-43 186.5q0 153 104.5 255.5t265.5 102.5t262 -105.5t101 -250.5q0 -101 -44.5 -188t-107.5 -135v-7h169v-65h-293v48q80 41 135 128.5t55 204.5q0 120 -75 212t-201 92q-127 0 -206 -88t-79 -217q0 -114 56 -203.5t134 -128.5v-48
h-293z" />
    <glyph glyph-name="uni03BC" unicode="&#x3bc;" horiz-adv-x="620" 
d="M434 500h88v-500h-88v72q-61 -82 -158 -82q-74 0 -128 48v-288h-68v750h89v-302q0 -54 38 -91.5t92 -37.5q56 0 95.5 37.5t39.5 91.5v302z" />
    <glyph glyph-name="pi" unicode="&#x3c0;" horiz-adv-x="692" 
d="M76 0q32 82 57 222.5t30 255.5q-103 0 -141 -14l-10 52q49 29 169 29h487l-7 -67h-100v-316q0 -113 16 -162h-82q-18 30 -18 152v326l-231 1q-5 -110 -31 -260t-57 -219h-82z" />
    <glyph glyph-name="uni1E04" unicode="&#x1e04;" horiz-adv-x="645" 
d="M444 386q69 -17 111 -66t42 -121q0 -88 -59.5 -143.5t-147.5 -55.5h-315v750h256q88 0 148.5 -56t60.5 -144q0 -113 -96 -164zM449 542q0 53 -37.5 90t-90.5 37h-155v-256h155q53 0 90.5 38t37.5 91zM378 81q53 0 90.5 38t37.5 91q0 52 -37.5 89.5t-90.5 37.5h-212v-256
h212zM312 -67q24 0 41 -17.5t17 -41.5t-17 -41t-41 -17t-41.5 17t-17.5 41t17.5 41.5t41.5 17.5z" />
    <glyph glyph-name="uni1E05" unicode="&#x1e05;" horiz-adv-x="595" 
d="M325 510q104 0 167 -74.5t63 -185.5t-63 -185.5t-167 -74.5t-167 82l-4 -72h-79v750h87v-317q64 77 163 77zM311 69q72 0 115 51.5t43 129.5t-43 130t-115 52q-53 0 -94 -36t-55 -92v-108q14 -56 55 -91.5t94 -35.5zM332 -67q24 0 41 -17.5t17 -41.5t-17 -41t-41 -17
t-41.5 17t-17.5 41t17.5 41.5t41.5 17.5z" />
    <glyph glyph-name="uni1E24" unicode="&#x1e24;" horiz-adv-x="731" 
d="M565 750h91v-750h-91v334h-399v-334h-91v750h91v-334h399v334zM369 -67q24 0 41 -17.5t17 -41.5t-17 -41t-41 -17t-41.5 17t-17.5 41t17.5 41.5t41.5 17.5z" />
    <glyph glyph-name="uni1E25" unicode="&#x1e25;" horiz-adv-x="588" 
d="M322 510q84 0 139.5 -55t55.5 -139v-316h-89v306q0 54 -37 90t-93 36t-95.5 -38t-39.5 -92v-302h-88v750h88v-313q62 73 159 73zM290 -67q24 0 41 -17.5t17 -41.5t-17 -41t-41 -17t-41.5 17t-17.5 41t17.5 41.5t41.5 17.5z" />
    <glyph glyph-name="uni1E36" unicode="&#x1e36;" horiz-adv-x="475" 
d="M75 0v750h91v-669h275v-81h-366zM259 -184q-24 0 -41.5 17t-17.5 41t17.5 41.5t41.5 17.5t41 -17.5t17 -41.5t-17 -41t-41 -17z" />
    <glyph glyph-name="uni1E37" unicode="&#x1e37;" horiz-adv-x="327" 
d="M232 -10q-70 0 -111.5 41.5t-41.5 108.5v610h88l1 -610q0 -74 66 -74q32 0 54 23l49 -60q-37 -39 -105 -39zM213 -184q-24 0 -41.5 17t-17.5 41t17.5 41.5t41.5 17.5t41 -17.5t17 -41.5t-17 -41t-41 -17z" />
    <glyph glyph-name="uni1E44" unicode="&#x1e44;" horiz-adv-x="778" 
d="M388 843q-24 0 -41.5 16.5t-17.5 40.5q0 25 17.5 42t41.5 17t41 -17t17 -42q0 -24 -17 -40.5t-41 -16.5zM613 750h90v-750h-87l-450 603v-603h-91v750h87l451 -604v604z" />
    <glyph glyph-name="uni1E45" unicode="&#x1e45;" horiz-adv-x="588" 
d="M296 593q-24 0 -41.5 16.5t-17.5 40.5q0 25 17.5 42t41.5 17t41 -17t17 -42q0 -24 -17 -40.5t-41 -16.5zM322 510q84 0 139.5 -55t55.5 -139v-316h-89v306q0 54 -37 90t-93 36t-95.5 -38t-39.5 -92v-302h-88v500h81l4 -66q63 76 162 76z" />
    <glyph glyph-name="uni1E46" unicode="&#x1e46;" horiz-adv-x="778" 
d="M613 750h90v-750h-87l-450 603v-603h-91v750h87l451 -604v604zM392 -67q24 0 41 -17.5t17 -41.5t-17 -41t-41 -17t-41.5 17t-17.5 41t17.5 41.5t41.5 17.5z" />
    <glyph glyph-name="uni1E47" unicode="&#x1e47;" horiz-adv-x="588" 
d="M322 510q84 0 139.5 -55t55.5 -139v-316h-89v306q0 54 -37 90t-93 36t-95.5 -38t-39.5 -92v-302h-88v500h81l4 -66q63 76 162 76zM296 -67q24 0 41 -17.5t17 -41.5t-17 -41t-41 -17t-41.5 17t-17.5 41t17.5 41.5t41.5 17.5z" />
    <glyph glyph-name="uni1E62" unicode="&#x1e62;" horiz-adv-x="629" 
d="M325 -10q-91 0 -167 40t-116 105l66 67q23 -56 83 -90.5t137 -34.5q71 0 115 29.5t45 89.5q0 28 -11 51.5t-25.5 39t-43.5 31.5t-48.5 24t-56.5 22q-42 16 -63.5 25t-55 27.5t-50.5 37t-30.5 47.5t-13.5 64q0 92 66 143.5t165 51.5q84 0 149.5 -28.5t104.5 -75.5l-61 -62
q-58 87 -191 87q-61 0 -101 -28t-40 -81q0 -21 9.5 -39.5t22.5 -31.5t38 -26.5t44 -21.5t51 -20l48 -19.5t45.5 -20.5t45 -25t36.5 -29.5t31.5 -37.5t18.5 -45t8 -55q0 -104 -71 -157.5t-184 -53.5zM312 -184q-24 0 -41.5 17t-17.5 41t17.5 41.5t41.5 17.5t41 -17.5
t17 -41.5t-17 -41t-41 -17z" />
    <glyph glyph-name="uni1E63" unicode="&#x1e63;" horiz-adv-x="474" 
d="M242 -10q-61 0 -119 22t-86 55l46 60q18 -26 63.5 -44.5t90.5 -19.5q47 -2 78.5 18t31.5 54q0 15 -7.5 27t-16 19.5t-29 16t-31.5 12t-38 11.5l-39 13t-36 13.5t-36 19t-26 24t-20 33t-6 40.5q0 65 54.5 105.5t129.5 40.5q47 0 94.5 -15.5t78.5 -40.5l-49 -60
q-43 40 -109 45q-42 3 -75.5 -14t-33.5 -50q0 -18 8.5 -32t28 -24t35 -15.5t45.5 -14.5q32 -9 48.5 -14.5t43 -18t40 -26t24.5 -36.5t11 -52q0 -66 -55.5 -109t-138.5 -43zM247 -184q-24 0 -41.5 17t-17.5 41t17.5 41.5t41.5 17.5t41 -17.5t17 -41.5t-17 -41t-41 -17z" />
    <glyph glyph-name="uni1E6C" unicode="&#x1e6c;" horiz-adv-x="550" 
d="M25 750h501v-80h-205v-670h-91v670h-205v80zM275 -67q24 0 41 -17.5t17 -41.5t-17 -41t-41 -17t-41.5 17t-17.5 41t17.5 41.5t41.5 17.5z" />
    <glyph glyph-name="uni1E6D" unicode="&#x1e6d;" horiz-adv-x="349" 
d="M297 89l49 -60q-37 -39 -105 -39q-69 0 -111 41.5t-42 108.5v291h-65v69h65v170h88v-170h136v-69h-135v-291q0 -74 66 -74q32 0 54 23zM227 -67q24 0 41 -17.5t17 -41.5t-17 -41t-41 -17t-41.5 17t-17.5 41t17.5 41.5t41.5 17.5z" />
    <glyph glyph-name="Wgrave" unicode="&#x1e80;" horiz-adv-x="1083" 
d="M574 845h-71l-110 155h91zM995 750h98l-316 -750h-99l-136 322l-136 -322h-98l-318 750h99l271 -642l136 322l-135 320h94l269 -642z" />
    <glyph glyph-name="wgrave" unicode="&#x1e81;" horiz-adv-x="717" 
d="M344 595h-71l-110 155h91zM610 500h98l-171 -500h-97l-83 238l-80 -238h-96l-172 500h100l125 -394l82 247l-51 147h87l131 -396z" />
    <glyph glyph-name="Wacute" unicode="&#x1e82;" horiz-adv-x="1083" 
d="M689 1000l-109 -155h-72l90 155h91zM995 750h98l-316 -750h-99l-136 322l-136 -322h-98l-318 750h99l271 -642l136 322l-135 320h94l269 -642z" />
    <glyph glyph-name="wacute" unicode="&#x1e83;" horiz-adv-x="717" 
d="M460 750l-109 -155h-72l90 155h91zM610 500h98l-171 -500h-97l-83 238l-80 -238h-96l-172 500h100l125 -394l82 247l-51 147h87l131 -396z" />
    <glyph glyph-name="Wdieresis" unicode="&#x1e84;" horiz-adv-x="1083" 
d="M449 843q-24 0 -41.5 16.5t-17.5 40.5q0 25 17.5 42t41.5 17t41 -17t17 -42q0 -24 -17 -40.5t-41 -16.5zM636 843q-24 0 -41 16.5t-17 40.5t17 41.5t41 17.5t41 -17t17 -42q0 -24 -17 -40.5t-41 -16.5zM995 750h98l-316 -750h-99l-136 322l-136 -322h-98l-318 750h99
l271 -642l136 322l-135 320h94l269 -642z" />
    <glyph glyph-name="wdieresis" unicode="&#x1e85;" horiz-adv-x="717" 
d="M219 593q-24 0 -41.5 16.5t-17.5 40.5q0 25 17.5 42t41.5 17t41 -17t17 -42q0 -24 -17 -40.5t-41 -16.5zM406 593q-24 0 -41 16.5t-17 40.5t17 41.5t41 17.5t41 -17t17 -42q0 -24 -17 -40.5t-41 -16.5zM610 500h98l-171 -500h-97l-83 238l-80 -238h-96l-172 500h100
l125 -394l82 247l-51 147h87l131 -396z" />
    <glyph glyph-name="uni1E92" unicode="&#x1e92;" horiz-adv-x="659" 
d="M170 81h443v-81h-568v48l431 621h-420v81h545v-48zM326 -67q24 0 41 -17.5t17 -41.5t-17 -41t-41 -17t-41.5 17t-17.5 41t17.5 41.5t41.5 17.5z" />
    <glyph glyph-name="uni1E93" unicode="&#x1e93;" horiz-adv-x="528" 
d="M48 0v62l308 364h-302v74h419v-60l-308 -366h315v-74h-432zM265 -184q-24 0 -41.5 17t-17.5 41t17.5 41.5t41.5 17.5t41 -17.5t17 -41.5t-17 -41t-41 -17z" />
    <glyph glyph-name="uni1EA0" unicode="&#x1ea0;" horiz-adv-x="743" 
d="M723 0h-99l-61 157h-384l-61 -157h-99l301 750h102zM208 234h326l-163 422zM372 -67q24 0 41 -17.5t17 -41.5t-17 -41t-41 -17t-41.5 17t-17.5 41t17.5 41.5t41.5 17.5z" />
    <glyph glyph-name="uni1EA1" unicode="&#x1ea1;" horiz-adv-x="537" 
d="M259 510q91 0 149 -48.5t58 -141.5v-320h-78l-5 71q-91 -81 -185 -81q-67 0 -110 43t-43 110q0 75 60.5 117t182.5 22l91 -15v59q0 54 -34.5 81.5t-89.5 27.5q-88 0 -134 -69l-61 54q62 90 199 90zM135 147q0 -35 22.5 -56.5t60.5 -21.5q78 0 161 76v57l-82 14
q-87 16 -124.5 -5.5t-37.5 -63.5zM256 -68q24 0 41 -17.5t17 -41.5t-17 -41t-41 -17t-41.5 17t-17.5 41t17.5 41.5t41.5 17.5z" />
    <glyph glyph-name="uni1EB8" unicode="&#x1eb8;" horiz-adv-x="542" 
d="M490 669h-324v-253h282v-82h-282v-253h324v-81h-415v750h415v-81zM283 -67q24 0 41 -17.5t17 -41.5t-17 -41t-41 -17t-41.5 17t-17.5 41t17.5 41.5t41.5 17.5z" />
    <glyph glyph-name="uni1EB9" unicode="&#x1eb9;" horiz-adv-x="545" 
d="M505 250q0 -19 -1 -29h-378q7 -71 47 -112.5t108 -41.5q46 0 77 18.5t61 64.5l62 -43q-65 -117 -203 -117q-109 0 -173.5 72.5t-64.5 186.5t65 187.5t173 73.5q105 0 166 -72t61 -188zM280 434q-64 0 -103 -39t-49 -105h297q-7 67 -44.5 105.5t-100.5 38.5zM280 -67
q24 0 41 -17.5t17 -41.5t-17 -41t-41 -17t-41.5 17t-17.5 41t17.5 41.5t41.5 17.5z" />
    <glyph glyph-name="uni1EBC" unicode="&#x1ebc;" horiz-adv-x="542" 
d="M174 845h-56q-8 56 19.5 92.5t74.5 36.5q57 0 93 -55q17 -29 45 -29q23 0 34.5 20.5t5.5 54.5h56q8 -55 -19 -92t-75 -37q-57 0 -93 54q-19 29 -45 29q-23 0 -34.5 -20.5t-5.5 -53.5zM490 669h-324v-253h282v-82h-282v-253h324v-81h-415v750h415v-81z" />
    <glyph glyph-name="uni1EBD" unicode="&#x1ebd;" horiz-adv-x="545" 
d="M171 598h-56q-8 56 19.5 92.5t74.5 36.5q57 0 93 -55q17 -29 45 -29q23 0 34.5 20.5t5.5 54.5h56q8 -55 -19 -92t-75 -37q-57 0 -93 54q-19 29 -45 29q-23 0 -34.5 -20.5t-5.5 -53.5zM505 250q0 -19 -1 -29h-378q7 -71 47 -112.5t108 -41.5q46 0 77 18.5t61 64.5l62 -43
q-65 -117 -203 -117q-109 0 -173.5 72.5t-64.5 186.5t65 187.5t173 73.5q105 0 166 -72t61 -188zM280 434q-64 0 -103 -39t-49 -105h297q-7 67 -44.5 105.5t-100.5 38.5z" />
    <glyph glyph-name="uni1ECA" unicode="&#x1eca;" horiz-adv-x="241" 
d="M75 0v750h91v-750h-91zM121 -184q-24 0 -41.5 17t-17.5 41t17.5 41.5t41.5 17.5t41 -17.5t17 -41.5t-17 -41t-41 -17z" />
    <glyph glyph-name="uni1ECB" unicode="&#x1ecb;" horiz-adv-x="273" 
d="M137 593q-24 0 -41.5 16.5t-17.5 40.5q0 25 17.5 42t41.5 17q23 0 40.5 -17.5t17.5 -41.5t-17 -40.5t-41 -16.5zM92 0v500h88v-500h-88zM142 -198q-24 0 -41.5 17t-17.5 41t17.5 41.5t41.5 17.5t41 -17.5t17 -41.5t-17 -41t-41 -17z" />
    <glyph glyph-name="uni1ECC" unicode="&#x1ecc;" horiz-adv-x="834" 
d="M417 -10q-158 0 -262 111.5t-104 273.5t104 273.5t262 111.5q157 0 261.5 -111.5t104.5 -273.5t-104.5 -273.5t-261.5 -111.5zM417 77q123 0 201 85.5t78 212.5t-78 212.5t-201 85.5t-201.5 -85.5t-78.5 -212.5t78.5 -212.5t201.5 -85.5zM417 -184q-24 0 -41.5 17
t-17.5 41t17.5 41.5t41.5 17.5t41 -17.5t17 -41.5t-17 -41t-41 -17z" />
    <glyph glyph-name="uni1ECD" unicode="&#x1ecd;" horiz-adv-x="567" 
d="M284 -10q-108 0 -176 75t-68 185q0 111 68 185.5t176 74.5q107 0 175.5 -75t68.5 -185t-68.5 -185t-175.5 -75zM284 69q71 0 114 52t43 129q0 78 -43.5 130t-113.5 52q-72 0 -114.5 -52t-42.5 -130t42.5 -129.5t114.5 -51.5zM284 -184q-24 0 -41.5 17t-17.5 41t17.5 41.5
t41.5 17.5t41 -17.5t17 -41.5t-17 -41t-41 -17z" />
    <glyph glyph-name="uni1EE4" unicode="&#x1ee4;" horiz-adv-x="730" 
d="M365 -10q-119 0 -202 74.5t-83 181.5v504h91v-489q0 -79 56.5 -134.5t137.5 -55.5t137.5 55.5t56.5 134.5v489h92v-504q0 -107 -83.5 -181.5t-202.5 -74.5zM365 -184q-24 0 -41.5 17t-17.5 41t17.5 41.5t41.5 17.5t41 -17.5t17 -41.5t-17 -41t-41 -17z" />
    <glyph glyph-name="Ygrave" unicode="&#x1ef2;" horiz-adv-x="653" 
d="M359 845h-71l-110 155h91zM634 750l-261 -394v-356h-92v354l-262 396h103l205 -317l205 317h102z" />
    <glyph glyph-name="ygrave" unicode="&#x1ef3;" horiz-adv-x="594" 
d="M329 595h-71l-110 155h91zM519 500v-513q0 -108 -62.5 -175.5t-178.5 -67.5q-100 0 -174 48v96q75 -65 181 -65q72 0 108.5 43t36.5 121v77q-60 -74 -156 -74q-83 0 -140 58t-57 141v311h88v-302q0 -54 38 -91.5t93 -37.5q56 0 95 37.5t39 91.5v302h89z" />
    <glyph glyph-name="uni1EF4" unicode="&#x1ef4;" horiz-adv-x="653" 
d="M281 0v354l-262 396h103l205 -317l205 317h102l-261 -394v-356h-92zM328 -67q24 0 41 -17.5t17 -41.5t-17 -41t-41 -17t-41.5 17t-17.5 41t17.5 41.5t41.5 17.5z" />
    <glyph glyph-name="uni1EF8" unicode="&#x1ef8;" horiz-adv-x="653" 
d="M219 845h-56q-8 56 19.5 92.5t74.5 36.5q57 0 93 -55q17 -29 45 -29q23 0 34.5 20.5t5.5 54.5h56q8 -55 -19 -92t-75 -37q-57 0 -93 54q-19 29 -45 29q-23 0 -34.5 -20.5t-5.5 -53.5zM634 750l-261 -394v-356h-92v354l-262 396h103l205 -317l205 317h102z" />
    <glyph glyph-name="endash" unicode="&#x2013;" horiz-adv-x="681" 
d="M90 229v62h500v-62h-500z" />
    <glyph glyph-name="emdash" unicode="&#x2014;" horiz-adv-x="1018" 
d="M9 229v62h1000v-62h-1000z" />
    <glyph glyph-name="quoteleft" unicode="&#x2018;" horiz-adv-x="248" 
d="M98 462q-55 0 -67 72.5t23 146t95 74.5v-44q-33 -2 -54 -57q-18 -48 -6 -70q4 -6 10 -6q24 0 40.5 -17t16.5 -41q0 -25 -16.5 -41.5t-41.5 -16.5z" />
    <glyph glyph-name="quoteright" unicode="&#x2019;" horiz-adv-x="194" 
d="M44 462v43q27 1 45.5 37.5t18.5 69.5q0 26 -13 26q-24 0 -41 17t-17 42t17 41.5t42 16.5q33 0 50 -30t17 -75q0 -69 -33 -128t-86 -60z" />
    <glyph glyph-name="quotesinglbase" unicode="&#x201a;" horiz-adv-x="246" 
d="M47 -186v44q30 0 50 34t20 67q0 32 -19 32q-24 0 -41 17t-17 41t17 41t42 17q36 0 54.5 -31t18.5 -78q0 -68 -34.5 -126t-90.5 -58z" />
    <glyph glyph-name="quotedblleft" unicode="&#x201c;" horiz-adv-x="427" 
d="M246 763v-44q-26 -1 -45 -37t-19 -69q0 -27 13 -27q24 0 41 -16.5t17 -41.5t-17 -41.5t-41 -16.5q-34 0 -51 29.5t-17 75.5q0 69 33 128t86 60zM399 763v-44q-27 -1 -45.5 -37t-18.5 -69q0 -27 13 -27q24 0 41 -16.5t17 -41.5t-17 -41.5t-42 -16.5q-33 0 -50 29.5
t-17 75.5q0 69 33 128t86 60z" />
    <glyph glyph-name="quotedblright" unicode="&#x201d;" horiz-adv-x="404" 
d="M46 462v43q27 1 45.5 37.5t18.5 69.5q0 26 -13 26q-24 0 -41 17t-17 42t17 41.5t42 16.5q33 0 50 -30t17 -75q0 -69 -33 -128t-86 -60zM199 462v43q26 1 45 37.5t19 69.5q0 26 -13 26q-24 0 -41 17t-17 42t17 41.5t41 16.5q33 0 50.5 -30t17.5 -75q0 -69 -33 -128
t-86 -60z" />
    <glyph glyph-name="quotedblbase" unicode="&#x201e;" horiz-adv-x="412" 
d="M47 -186v44q30 0 50 34t20 67q0 32 -19 32q-24 0 -41 17t-17 41t17 41t42 17q36 0 54.5 -31t18.5 -78q0 -68 -34.5 -126t-90.5 -58zM221 -186v44q29 0 49 34t20 67q0 32 -18 32q-24 0 -41 17t-17 41t17 41t41 17q36 0 54.5 -31t18.5 -78q0 -68 -34.5 -126t-89.5 -58z" />
    <glyph glyph-name="dagger" unicode="&#x2020;" horiz-adv-x="665" 
d="M534 475v-59h-174v-586h-60v586h-170v59h170v195h60v-195h174z" />
    <glyph glyph-name="daggerdbl" unicode="&#x2021;" horiz-adv-x="665" 
d="M534 416h-174v-327h174v-59h-174v-200h-60v200h-170v59h170v327h-170v59h170v195h60v-195h174v-59z" />
    <glyph glyph-name="bullet" unicode="&#x2022;" horiz-adv-x="473" 
d="M237 199q-52 0 -89.5 36.5t-37.5 89.5q0 50 38 88t89 38q50 0 88 -38t38 -88q0 -53 -37.5 -89.5t-88.5 -36.5z" />
    <glyph glyph-name="ellipsis" unicode="&#x2026;" horiz-adv-x="707" 
d="M91 -10q-24 0 -41 17.5t-17 41.5q0 23 17 40.5t41 17.5t41.5 -17.5t17.5 -40.5q0 -24 -17.5 -41.5t-41.5 -17.5zM301 -10q-24 0 -41.5 17.5t-17.5 41.5q0 23 17.5 40.5t41.5 17.5t41 -17.5t17 -40.5q0 -24 -17 -41.5t-41 -17.5zM500 -10q-23 0 -40.5 17.5t-17.5 41.5
q0 23 17.5 40.5t40.5 17.5q24 0 41.5 -17.5t17.5 -40.5q0 -24 -17.5 -41.5t-41.5 -17.5z" />
    <glyph glyph-name="perthousand" unicode="&#x2030;" horiz-adv-x="1073" 
d="M195 441q-58 0 -98.5 46.5t-40.5 112.5q0 67 40.5 113.5t98.5 46.5q57 0 97.5 -46.5t40.5 -113.5q0 -65 -40.5 -112t-97.5 -47zM73 0l513 750h92l-512 -750h-93zM195 510q28 0 49 26.5t21 63.5q0 38 -21 64.5t-49 26.5q-29 0 -49.5 -26t-20.5 -65q0 -37 20.5 -63.5
t49.5 -26.5zM558 -10q-58 0 -98.5 47t-40.5 113q0 65 40.5 112t98.5 47q57 0 97.5 -46.5t40.5 -112.5t-40 -113t-98 -47zM885 -10q-58 0 -98.5 47t-40.5 113t40.5 112.5t98.5 46.5q57 0 97 -47t40 -112q0 -66 -40 -113t-97 -47zM557 59q29 0 49 26.5t20 64.5q0 37 -20 63.5
t-49 26.5q-28 0 -48.5 -26.5t-20.5 -63.5q0 -38 20.5 -64.5t48.5 -26.5zM884 59q28 0 48.5 26.5t20.5 64.5q0 37 -20.5 63.5t-48.5 26.5q-29 0 -49 -26.5t-20 -63.5q0 -38 20 -64.5t49 -26.5z" />
    <glyph glyph-name="guilsinglleft" unicode="&#x2039;" horiz-adv-x="348" 
d="M203 95l-152 184l152 184h75l-152 -184l152 -184h-75z" />
    <glyph glyph-name="guilsinglright" unicode="&#x203a;" horiz-adv-x="348" 
d="M70 95l152 184l-152 184h75l152 -184l-152 -184h-75z" />
    <glyph glyph-name="fraction" unicode="&#x2044;" horiz-adv-x="593" 
d="M-18 0l523 750h92l-523 -750h-92z" />
    <glyph glyph-name="Euro" unicode="&#x20ac;" horiz-adv-x="658" 
d="M357 59q51 0 93 33.5t51 83.5l67 -29q-20 -68 -80 -112.5t-131 -44.5q-99 0 -161.5 64.5t-62.5 165.5v43h-93l30 59h63v100h-93l30 59h63v49q0 102 62.5 166t161.5 64q71 0 131 -44.5t80 -112.5l-67 -28q-9 50 -51 83t-93 33q-71 0 -113 -44t-42 -117v-49h208l-29 -59
h-179v-100h208l-29 -59h-179v-43q0 -73 42.5 -117t112.5 -44z" />
    <glyph glyph-name="uni2113" unicode="&#x2113;" horiz-adv-x="607" 
d="M329 -6q-93 0 -143 55t-57 136v12q-13 -9 -37.5 -28t-31.5 -24l-28 51q11 9 44.5 34.5t50.5 39.5v289q0 137 54.5 199.5t132.5 62.5q75 0 114 -51t39 -127q0 -96 -65 -191.5t-188 -203.5v-29q1 -75 40 -114t94 -39q53 0 97.5 33.5t70.5 79.5l43 -39q-83 -146 -230 -146z
M214 330q89 88 138 163t49 146q0 118 -87 118q-40 0 -70 -44.5t-30 -141.5v-241z" />
    <glyph glyph-name="trademark" unicode="&#x2122;" horiz-adv-x="719" 
d="M15 709v41h239v-41h-97v-311h-46v311h-96zM605 750h49v-352h-46v278l-132 -196l-132 195v-277h-47v352h50l129 -192z" />
    <glyph glyph-name="estimated" unicode="&#x212e;" horiz-adv-x="923" 
d="M461 -9q-177 0 -302 112.5t-125 270.5q0 160 125 273t302 113q178 0 303 -113t125 -273v-10h-692q-6 0 -6 -4v-210q0 -11 9 -24q111 -114 262 -114q81 0 153 34t123 94h61q-58 -69 -147 -109t-191 -40zM197 385h531q4 0 4 7v210q0 16 -10 25q-112 110 -260 110t-261 -113
q-10 -12 -10 -26v-206q0 -7 6 -7z" />
    <glyph glyph-name="arrowleft" unicode="&#x2190;" horiz-adv-x="845" 
d="M758 413v-121h-537l30 -127l-243 188l243 188l-30 -128h537z" />
    <glyph glyph-name="arrowup" unicode="&#x2191;" horiz-adv-x="514" 
d="M186 0v537l-128 -30l188 243l188 -243l-127 30v-537h-121z" />
    <glyph glyph-name="arrowright" unicode="&#x2192;" horiz-adv-x="845" 
d="M88 413h537l-30 128l243 -188l-243 -188l30 127h-537v121z" />
    <glyph glyph-name="arrowdown" unicode="&#x2193;" horiz-adv-x="491" 
d="M186 750h121v-537l127 30l-188 -243l-188 243l128 -30v537z" />
    <glyph glyph-name="arrowboth" unicode="&#x2194;" horiz-adv-x="861" 
d="M179 144l-242 189l244 188l-31 -127l561 -1l-30 127l243 -188l-242 -188l30 128l-562 1z" />
    <glyph glyph-name="arrowupdn" unicode="&#x2195;" horiz-adv-x="491" 
d="M246 -71l-188 242l128 -30v390l-128 -30l188 242l188 -243l-127 30v-388l127 30z" />
    <glyph glyph-name="uni2196" unicode="&#x2196;" horiz-adv-x="540" 
d="M603 152l-86 -85l-380 379l-68 -111l-39 305l305 -39l-112 -69z" />
    <glyph glyph-name="uni2197" unicode="&#x2197;" horiz-adv-x="540" 
d="M-63 152l380 380l-112 69l305 39l-39 -305l-68 111l-380 -379z" />
    <glyph glyph-name="uni2198" unicode="&#x2198;" horiz-adv-x="541" 
d="M-62 598l86 85l380 -379l68 111l39 -305l-305 39l112 69z" />
    <glyph glyph-name="uni2199" unicode="&#x2199;" horiz-adv-x="541" 
d="M603 598l-380 -380l112 -69l-305 -39l39 305l68 -111l380 379z" />
    <glyph glyph-name="partialdiff" unicode="&#x2202;" horiz-adv-x="536" 
d="M171 706q132 20 224.5 -90.5t90.5 -287.5q-1 -136 -70.5 -229t-170.5 -93q-118 0 -167 85.5t-2 210.5q42 113 131.5 157t183.5 3q-26 99 -85.5 149.5t-134.5 30.5v64zM407 328q0 32 -3 62q-78 50 -148 20.5t-107 -129.5q-33 -88 -4.5 -151.5t100.5 -63.5q66 0 113.5 76.5
t48.5 185.5z" />
    <glyph glyph-name="emptyset" unicode="&#x2205;" horiz-adv-x="819" 
d="M634 488q74 -84 74 -197q0 -124 -87.5 -211.5t-211.5 -87.5q-112 0 -197 74l-43 -43l-27 28l43 43q-75 83 -75 197q0 124 87.5 211.5t211.5 87.5q113 0 197 -74l44 43l27 -28zM182 291q0 -83 53 -147l321 321q-63 53 -147 53q-95 0 -161 -66t-66 -161zM409 64
q95 0 161.5 66t66.5 161q0 83 -54 147l-320 -321q63 -53 146 -53z" />
    <glyph glyph-name="product" unicode="&#x220f;" horiz-adv-x="744" 
d="M693 703v-64h-176v-759h-63v759h-163v-759h-65v759h-176v64h643z" />
    <glyph glyph-name="summation" unicode="&#x2211;" horiz-adv-x="754" 
d="M90 -118v50l366 360l-366 360v51h574v-69h-458l343 -342l-343 -342h458v-69z" />
    <glyph glyph-name="minus" unicode="&#x2212;" horiz-adv-x="721" 
d="M60 263v60h600v-60h-600z" />
    <glyph glyph-name="radical" unicode="&#x221a;" horiz-adv-x="731" 
d="M252 -78l-115 353h-67v59h109l103 -311l354 740l54 -23l-391 -818h-47z" />
    <glyph glyph-name="infinity" unicode="&#x221e;" horiz-adv-x="766" 
d="M200 145q-58 0 -98 41.5t-42 104.5q2 64 42 105.5t98 41.5q87 0 183 -102q96 102 184 102q59 0 97.5 -40.5t40.5 -106.5q-2 -65 -40.5 -105.5t-97.5 -40.5q-90 0 -184 102q-96 -102 -183 -102zM200 204q65 0 144 87q-80 88 -144 88q-32 0 -56 -25.5t-25 -62.5
q1 -37 25 -62t56 -25zM566 204q33 0 56 24.5t24 62.5q-1 38 -24 63t-56 25q-64 0 -144 -88q79 -87 144 -87z" />
    <glyph glyph-name="integral" unicode="&#x222b;" horiz-adv-x="456" 
d="M172 -189q-38 0 -62 27.5t-17 70.5h47q0 -49 32 -49q13 0 22 9.5t9 24.5v764q0 37 24 60t58 23q37 0 61 -27.5t18 -70.5h-48q0 49 -32 49q-13 0 -22 -9.5t-9 -24.5v-764q0 -37 -23.5 -60t-57.5 -23z" />
    <glyph glyph-name="approxequal" unicode="&#x2248;" horiz-adv-x="579" 
d="M397 319q-30 0 -57 14t-38 25.5t-33 36.5q-45 49 -83 49q-40 0 -64.5 -32t-22.5 -80h-49q-4 71 35 116.5t102 45.5q38 0 65 -18t58 -56q14 -17 23.5 -26t25.5 -17t34 -8q40 0 65 31t22 80h49q6 -68 -32.5 -114.5t-99.5 -46.5zM397 125q-30 0 -56.5 14t-38.5 25.5
t-33 35.5q-45 49 -83 49q-40 0 -64.5 -32t-22.5 -80h-49q-4 72 35 117t102 45q38 0 65 -18t58 -55q21 -26 39 -39t44 -13q40 0 65 31.5t22 80.5h49q6 -69 -32.5 -115t-99.5 -46z" />
    <glyph glyph-name="notequal" unicode="&#x2260;" horiz-adv-x="721" 
d="M660 331h-206l-113 -132h319v-59h-370l-116 -135h-56l116 135h-174v59h225l112 132h-337v59h388l98 115h56l-98 -115h156v-59z" />
    <glyph glyph-name="lessequal" unicode="&#x2264;" horiz-adv-x="793" 
d="M672 693v-75l-478 -223l478 -224v-76l-552 260v80zM120 0v55h552v-55h-552z" />
    <glyph glyph-name="greaterequal" unicode="&#x2265;" horiz-adv-x="793" 
d="M120 693l552 -258v-80l-552 -260v76l479 224l-479 223v75zM120 0v55h552v-55h-552z" />
    <glyph glyph-name="lozenge" unicode="&#x25ca;" horiz-adv-x="785" 
d="M392 52l-302 301l302 302l301 -301zM393 151l201 203l-201 202l-203 -203z" />
    <glyph glyph-name="uniF8FF" unicode="&#xf8ff;" horiz-adv-x="975" 
d="M488 0q-157 0 -268.5 111.5t-111.5 268.5t111.5 268.5t268.5 111.5q158 0 269 -111t111 -269q0 -157 -111.5 -268.5t-268.5 -111.5zM488 36q142 0 243 101t101 243t-101 243t-243 101t-243 -101t-101 -243t101 -243t243 -101zM687 217q-7 0 -12 6l-145 144q-12 14 0 26
l145 145q13 12 25 0q13 -13 0 -26l-132 -132l132 -132q11 -11 0 -25q-4 -6 -13 -6zM289 217q-7 0 -12.5 5.5t-5.5 12.5v290q0 7 5.5 12.5t12.5 5.5t12.5 -5.5t5.5 -12.5v-290q0 -7 -5.5 -12.5t-12.5 -5.5zM488 217q-8 0 -13 5.5t-5 12.5v290q0 7 5 12.5t13 5.5t13 -5.5
t5 -12.5v-290q0 -7 -5 -12.5t-13 -5.5zM343 362q-7 0 -12.5 5t-5.5 13t5.5 13t12.5 5h91q8 0 13 -5t5 -13t-5 -13t-13 -5h-91z" />
    <glyph glyph-name="i.loclTRK" horiz-adv-x="238" 
d="M120 593q-24 0 -41.5 16.5t-17.5 40.5q0 25 17.5 42t41.5 17t41 -17t17 -42q0 -24 -17 -40.5t-41 -16.5zM75 0v500h88v-500h-88z" />
    <glyph glyph-name="arrow" horiz-adv-x="491" 
d="M186 0v537l-128 -30l188 243l188 -243l-127 30v-537h-121z" />
    </font>
</defs>
</svg>
