<?xml version="1.0" standalone="no"?>
<!DOCTYPE svg PUBLIC "-//W3C//DTD SVG 1.1//EN" "http://www.w3.org/Graphics/SVG/1.1/DTD/svg11.dtd" >
<svg>
<metadata>
Created by FontForge 20120731 at Wed Jul  6 00:19:01 2016
 By ,,,
(c)2013-2015 Orkney is a trademark of Samuel Oakes and Alfredo Marco Pradil. All rights reserved.
</metadata>
<defs>
<font id="Orkney-Light" horiz-adv-x="0" >
  <font-face 
    font-family="Orkney Light"
    font-weight="300"
    font-stretch="normal"
    units-per-em="1000"
    panose-1="0 0 4 0 0 0 0 0 0 0"
    ascent="750"
    descent="-250"
    x-height="500"
    cap-height="750"
    bbox="-741 -317 1181 1004"
    underline-thickness="32"
    underline-position="-68"
    unicode-range="U+0020-FB02"
  />
<missing-glyph horiz-adv-x="586" 
d="M94 0v750h398v-750h-398zM146 53h294v645h-294v-645z" />
    <glyph glyph-name="fi" unicode="fi" horiz-adv-x="578" 
d="M338 704q-66 0 -105.5 -38t-39.5 -104v-62h302v-500h-65v448h-237v-448h-65v448h-84v52h84v65q0 89 56 142t148 53q78 0 164 -44v-62q-87 50 -158 50z" />
    <glyph glyph-name="fl" unicode="fl" horiz-adv-x="656" 
d="M619 69l37 -45q-34 -34 -91 -34q-60 0 -96 36t-36 94v565q-46 19 -98 19q-62 0 -102 -38t-40 -104v-62h137v-52h-137v-448h-65v448h-84v52h84v65q0 89 56 142t144 53q57 0 105 -16v6h66v-102v-528q0 -35 18 -53.5t50 -18.5t52 21z" />
    <glyph glyph-name=".notdef" horiz-adv-x="586" 
d="M94 0v750h398v-750h-398zM146 53h294v645h-294v-645z" />
    <glyph glyph-name=".null" 
 />
    <glyph glyph-name="nonmarkingreturn" horiz-adv-x="333" 
 />
    <glyph glyph-name="space" unicode=" " horiz-adv-x="260" 
 />
    <glyph glyph-name="exclam" unicode="!" horiz-adv-x="285" 
d="M116 206l-6 544h65l-6 -544h-53zM143 -10q-20 0 -34.5 14.5t-14.5 34.5q0 21 14.5 35t34.5 14t34.5 -14t14.5 -35q0 -19 -15 -34t-34 -15z" />
    <glyph glyph-name="quotedbl" unicode="&#x22;" horiz-adv-x="406" 
d="M100 467l-6 283h62l-6 -283h-50zM257 467l-7 283h63l-7 -283h-49z" />
    <glyph glyph-name="numbersign" unicode="#" horiz-adv-x="750" 
d="M178 0l25 178h-141l7 51h141l36 244h-142l8 50h139l26 179h50l-25 -179h195l25 179h50l-25 -179h141l-8 -50h-140l-34 -244h140l-7 -51h-140l-27 -178h-49l25 178h-196l-24 -178h-50zM260 229h195l35 244h-195z" />
    <glyph glyph-name="dollar" unicode="$" horiz-adv-x="643" 
d="M559 196q0 -87 -59.5 -139t-143.5 -62v-84h-59v83q-75 6 -134.5 46.5t-85.5 97.5l50 28q21 -50 73.5 -83.5t121.5 -33.5q75 0 126.5 38.5t51.5 105.5q0 46 -29 79t-72 51t-94 40t-94 43.5t-72 63t-29 98.5q0 84 54.5 132.5t132.5 55.5v86h59v-88q98 -13 159 -85l-41 -34
q-24 30 -63.5 49.5t-86.5 19.5q-63 0 -108.5 -35t-45.5 -98q0 -39 21.5 -69t56 -49t75.5 -35.5t82.5 -34.5t76 -41t56 -60t21.5 -86z" />
    <glyph glyph-name="percent" unicode="%" horiz-adv-x="723" 
d="M191 458q-54 0 -92 44.5t-38 106.5t38 106.5t92 44.5t92 -44.5t38 -106.5t-38 -106.5t-92 -44.5zM69 0l516 750h69l-516 -750h-69zM191 510q32 0 55 29t23 70t-23 70t-55 29t-54.5 -29t-22.5 -70t22.5 -70t54.5 -29zM533 -10q-54 0 -92 44.5t-38 107.5q0 62 38 106.5
t92 44.5t92 -44.5t38 -106.5q0 -63 -38 -107.5t-92 -44.5zM533 43q32 0 54.5 28.5t22.5 70.5q0 41 -22.5 69.5t-54.5 28.5t-55 -28.5t-23 -69.5q0 -42 23 -70.5t55 -28.5z" />
    <glyph glyph-name="ampersand" unicode="&#x26;" horiz-adv-x="743" 
d="M699 259l-110 -109l110 -108l-44 -43l-109 108l-53 -52q-66 -67 -161 -66.5t-162 66.5q-66 67 -66 161.5t66 160.5l54 52l-35 35q-50 50 -50 123q0 72 50.5 122t122.5 50t123 -50t51 -122h-61q0 47 -33.5 80t-79.5 33q-47 0 -80.5 -33.5t-33.5 -81.5q0 -46 33 -79
l316 -314l110 109zM451 98l53 52l-238 237l-53 -53q-49 -49 -49 -118t49 -118q50 -50 119.5 -50t118.5 50z" />
    <glyph glyph-name="quotesingle" unicode="'" horiz-adv-x="250" 
d="M100 467l-6 283h62l-6 -283h-50z" />
    <glyph glyph-name="parenleft" unicode="(" horiz-adv-x="400" 
d="M330 -308q-111 10 -183.5 160.5t-72.5 395.5t72.5 397t183.5 163v-48q-85 -13 -141 -152.5t-56 -359.5q0 -218 56 -356.5t141 -151.5v-48z" />
    <glyph glyph-name="parenright" unicode=")" horiz-adv-x="400" 
d="M70 -308v48q85 13 141 151.5t56 356.5q0 220 -56 359.5t-141 152.5v48q111 -11 183.5 -163t72.5 -397t-72.5 -395.5t-183.5 -160.5z" />
    <glyph glyph-name="asterisk" unicode="*" horiz-adv-x="335" 
d="M128 521l-35 21l52 74l-91 -6v41l91 -7l-52 74l35 21l40 -81l39 81l36 -21l-52 -74l91 7v-41l-91 6l52 -74l-36 -21l-39 81z" />
    <glyph glyph-name="plus" unicode="+" horiz-adv-x="807" 
d="M378 0v284h-284v53h284v283h52v-283h284v-53h-284v-284h-52z" />
    <glyph glyph-name="comma" unicode="," horiz-adv-x="199" 
d="M47 -191v35q28 0 47.5 36t19.5 72q0 38 -23 38q-20 0 -34 14.5t-14 34.5q0 21 14 35t35 14q32 0 48.5 -29.5t16.5 -74.5q0 -65 -30.5 -120t-79.5 -55z" />
    <glyph glyph-name="hyphen" unicode="-" horiz-adv-x="537" 
d="M94 236v48h350v-48h-350z" />
    <glyph glyph-name="period" unicode="." horiz-adv-x="168" 
d="M84 -10q-20 0 -34.5 14.5t-14.5 34.5t14.5 34.5t34.5 14.5t34.5 -14.5t14.5 -34.5t-14.5 -34.5t-34.5 -14.5z" />
    <glyph glyph-name="slash" unicode="/" horiz-adv-x="576" 
d="M-15 -250l527 1000h64l-526 -1000h-65z" />
    <glyph glyph-name="zero" unicode="0" horiz-adv-x="682" 
d="M341 -10q-114 0 -190.5 110.5t-76.5 274.5t76.5 274.5t190.5 110.5q113 0 190 -111t77 -274t-77 -274t-190 -111zM342 49q84 0 142 94.5t58 231.5q0 138 -58 232t-142 94q-85 0 -143.5 -94t-58.5 -232q0 -137 58.5 -231.5t143.5 -94.5z" />
    <glyph glyph-name="one" unicode="1" horiz-adv-x="377" 
d="M188 0v669l-153 -120v81l157 120h61v-750h-65z" />
    <glyph glyph-name="two" unicode="2" horiz-adv-x="597" 
d="M40 0v42q277 279 313 318q84 91 98 141q5 19 5 43q0 73 -44.5 114.5t-112.5 42.5q-69 2 -115.5 -41.5t-48.5 -115.5l-63 1q1 96 66.5 156.5t162.5 59.5q91 -2 152.5 -56.5t65.5 -147.5q1 -25 -3.5 -46.5t-10 -40.5t-26 -47t-36 -48.5t-56.5 -63t-70.5 -72.5t-94.5 -95
l-85 -85h410v-59h-507z" />
    <glyph glyph-name="three" unicode="3" horiz-adv-x="595" 
d="M381 420q63 -25 101.5 -79.5t38.5 -122.5q0 -95 -67 -161.5t-162 -66.5q-94 0 -161 64t-67 154l65 1q0 -65 47.5 -111t115.5 -46q69 0 116.5 48.5t47.5 117.5t-47.5 117.5t-116.5 48.5h-60v54h57q55 0 93 38.5t38 93.5q0 54 -38 91.5t-93 37.5q-53 0 -90.5 -36t-37.5 -88
l-63 1q0 77 55.5 130.5t135.5 53.5t135.5 -53.5t55.5 -130.5q0 -51 -27 -92t-72 -64z" />
    <glyph glyph-name="four" unicode="4" horiz-adv-x="590" 
d="M527 217v-59h-83v-158h-65v158h-364v43l349 549h80v-533h83zM93 217h286v460z" />
    <glyph glyph-name="five" unicode="5" horiz-adv-x="616" 
d="M298 -10q-65 0 -123 27.5t-95 76.5l44 45q30 -41 75.5 -64.5t95.5 -23.5q81 0 136 55.5t55 136.5t-55.5 137t-135.5 56q-85 0 -147 -62l-58 28l45 346h374v-59h-322l-35 -250q64 56 157 56q103 0 173 -72t70 -178q0 -109 -72.5 -182t-181.5 -73z" />
    <glyph glyph-name="six" unicode="6" horiz-adv-x="646" 
d="M582 259q5 -105 -67 -182.5t-178 -84.5q-108 -6 -187.5 64.5t-84.5 175.5q-6 102 66 184l268 334h80l-215 -260q21 6 60 8q102 1 177 -68.5t81 -170.5zM336 50q81 5 133.5 66t47.5 142q-5 82 -65 135t-142 47q-81 -4 -133.5 -65.5t-46.5 -142.5q5 -81 64.5 -134
t141.5 -48z" />
    <glyph glyph-name="seven" unicode="7" horiz-adv-x="546" 
d="M53 0l399 691h-417v59h496v-40l-402 -710h-76z" />
    <glyph glyph-name="eight" unicode="8" horiz-adv-x="561" 
d="M378 417q62 -27 99 -81t37 -121q0 -94 -67.5 -159.5t-166.5 -65.5q-97 0 -165 65.5t-68 159.5q0 67 37 121.5t99 80.5q-43 24 -68.5 66t-25.5 93q0 77 55.5 130.5t136.5 53.5q80 0 135.5 -53.5t55.5 -130.5q0 -51 -25.5 -93t-68.5 -66zM281 706q-56 0 -95.5 -39
t-39.5 -95t39.5 -95.5t95.5 -39.5t95 39.5t39 95.5t-39 95t-95 39zM280 49q70 0 119 49.5t49 120.5q0 70 -49 118.5t-119 48.5t-118.5 -48.5t-48.5 -118.5q0 -71 48.5 -120.5t118.5 -49.5z" />
    <glyph glyph-name="nine" unicode="9" horiz-adv-x="646" 
d="M582 519q6 -101 -66 -184l-269 -335h-80l221 266q-20 -13 -66 -13q-102 -2 -177 67.5t-80 170.5q-6 105 66 183t178 84q108 6 187.5 -64t85.5 -175zM336 310q81 5 133.5 66t47.5 142q-6 81 -66 134.5t-141 48.5q-82 -6 -134.5 -66.5t-46.5 -141.5q5 -82 65 -135t142 -48z
" />
    <glyph glyph-name="colon" unicode=":" horiz-adv-x="285" 
d="M143 412q-20 0 -34.5 14.5t-14.5 34.5t14.5 34.5t34.5 14.5t34.5 -14.5t14.5 -34.5t-14.5 -34.5t-34.5 -14.5zM143 -10q-20 0 -34.5 14.5t-14.5 34.5t14.5 34.5t34.5 14.5t34.5 -14.5t14.5 -34.5t-14.5 -34.5t-34.5 -14.5z" />
    <glyph glyph-name="semicolon" unicode=";" horiz-adv-x="295" 
d="M144 412q-20 0 -34.5 14.5t-14.5 34.5t14.5 34.5t34.5 14.5t34.5 -14.5t14.5 -34.5t-14.5 -34.5t-34.5 -14.5zM99 -191v35q23 2 41.5 39.5t19 69.5t-15.5 37q-20 0 -34.5 14.5t-14.5 34.5q0 21 14.5 35t34.5 14q48 0 58 -69t-20.5 -139t-82.5 -71z" />
    <glyph glyph-name="less" unicode="&#x3c;" horiz-adv-x="739" 
d="M646 643v-57l-498 -251l498 -251v-58l-552 279v61z" />
    <glyph glyph-name="equal" unicode="=" horiz-adv-x="727" 
d="M64 336v46h600v-46h-600zM64 149v46h600v-46h-600z" />
    <glyph glyph-name="greater" unicode="&#x3e;" horiz-adv-x="739" 
d="M94 643l552 -277v-61l-552 -279v58l497 251l-497 251v57z" />
    <glyph glyph-name="question" unicode="?" horiz-adv-x="546" 
d="M243 207v67q0 42 13.5 72t33.5 44t43 29t43 28t33.5 40t13.5 66q0 63 -42 102.5t-108 39.5q-61 0 -103 -38t-47 -97h-59q3 84 62 138.5t147 54.5q91 0 150 -56.5t59 -143.5q0 -53 -18.5 -89t-45 -54t-52.5 -33.5t-44.5 -38t-18.5 -55.5v-76h-60zM277 -10
q-20 0 -34.5 14.5t-14.5 34.5t14.5 34.5t34.5 14.5t34.5 -14.5t14.5 -34.5t-14.5 -34.5t-34.5 -14.5z" />
    <glyph glyph-name="at" unicode="@" horiz-adv-x="605" 
d="M511 149h-44v40q-17 -22 -45.5 -36.5t-54.5 -14.5q-54 0 -91.5 36.5t-37.5 89.5q0 52 37.5 88.5t90.5 36.5q28 0 57 -15.5t44 -38.5v31q0 58 -42.5 98t-104.5 40q-89 0 -150.5 -66.5t-61.5 -161.5q0 -98 70 -165t171 -67h162v-44h-162q-120 0 -202.5 80t-82.5 196
q0 114 74.5 193.5t181.5 79.5q81 0 136 -53t55 -130v-217zM379 178q32 0 56.5 18t31.5 47v42q-7 29 -31.5 47t-56.5 18q-38 0 -64.5 -24.5t-26.5 -61.5t26.5 -61.5t64.5 -24.5z" />
    <glyph glyph-name="A" unicode="A" horiz-adv-x="723" 
d="M626 0l-63 163h-403l-63 -163h-74l301 750h75l301 -750h-74zM183 221h357l-179 458z" />
    <glyph glyph-name="B" unicode="B" horiz-adv-x="643" 
d="M434 385q70 -14 115 -65t45 -123q0 -85 -58.5 -141t-143.5 -56h-312v750h251q86 0 145 -56t59 -141q0 -56 -27 -99.5t-74 -68.5zM467 547q0 59 -41.5 101t-100.5 42h-178v-286h178q59 0 100.5 42t41.5 101zM384 61q59 0 100.5 42t41.5 101t-41.5 101t-100.5 42h-237v-286
h237z" />
    <glyph glyph-name="C" unicode="C" horiz-adv-x="682" 
d="M419 -10q-158 0 -262 111.5t-104 273.5t104 273.5t262 111.5q122 0 216 -78v-83q-91 97 -216 97q-132 0 -217 -92.5t-85 -228.5q0 -135 85 -227.5t217 -92.5q127 0 216 96v-82q-95 -79 -216 -79z" />
    <glyph glyph-name="D" unicode="D" horiz-adv-x="707" 
d="M80 0v750h199q155 0 265 -110t110 -265t-110 -265t-265 -110h-199zM147 61h131q129 0 218.5 91.5t89.5 222.5t-89.5 223t-218.5 92h-131v-629z" />
    <glyph glyph-name="E" unicode="E" horiz-adv-x="541" 
d="M484 690h-336v-284h294v-61h-294v-284h336v-61h-404v750h404v-60z" />
    <glyph glyph-name="F" unicode="F" horiz-adv-x="515" 
d="M484 690h-336v-284h294v-61h-294v-345h-68v750h404v-60z" />
    <glyph glyph-name="G" unicode="G" horiz-adv-x="736" 
d="M449 696q-132 0 -222.5 -91t-90.5 -232q0 -140 90.5 -231t221.5 -91q79 0 147 37v238h-194v61h255v-338q-97 -63 -209 -63q-157 0 -265.5 110t-108.5 277t109 277t264 110q115 0 210 -62v-85q-85 83 -207 83z" />
    <glyph glyph-name="H" unicode="H" horiz-adv-x="724" 
d="M577 750h67v-750h-67v345h-429v-345h-68v750h68v-344h429v344z" />
    <glyph glyph-name="I" unicode="I" horiz-adv-x="228" 
d="M80 0v750h68v-750h-68z" />
    <glyph glyph-name="J" unicode="J" horiz-adv-x="375" 
d="M129 -10q-44 0 -75 9v70q33 -11 75 -11q39 0 67.5 28t28.5 68v596h67v-596q0 -68 -47.5 -116t-115.5 -48z" />
    <glyph glyph-name="K" unicode="K" horiz-adv-x="589" 
d="M562 70v-90l-414 410v-390h-68v750h68v-323l321 323h88l-340 -339z" />
    <glyph glyph-name="L" unicode="L" horiz-adv-x="454" 
d="M80 0v750h68v-689h283v-61h-351z" />
    <glyph glyph-name="M" unicode="M" horiz-adv-x="893" 
d="M743 750h70v-750h-67v649l-300 -449l-298 449v-649h-68v750h71l295 -439z" />
    <glyph glyph-name="N" unicode="N" horiz-adv-x="765" 
d="M618 750h67v-750h-61l-476 636v-636h-68v750h61l477 -636v636z" />
    <glyph glyph-name="O" unicode="O" horiz-adv-x="838" 
d="M419 -10q-158 0 -262 111.5t-104 273.5t104 273.5t262 111.5q157 0 261.5 -111.5t104.5 -273.5t-104.5 -273.5t-261.5 -111.5zM419 55q132 0 216.5 92.5t84.5 227.5q0 136 -84.5 228.5t-216.5 92.5t-217 -92.5t-85 -228.5q0 -135 85 -227.5t217 -92.5z" />
    <glyph glyph-name="P" unicode="P" horiz-adv-x="576" 
d="M341 750q85 0 145.5 -60t60.5 -146t-60 -146t-146 -60h-193v-338h-68v750h261zM337 396q62 0 105 41.5t43 105.5q0 62 -43.5 104.5t-104.5 42.5h-189v-294h189z" />
    <glyph glyph-name="Q" unicode="Q" horiz-adv-x="831" 
d="M781 64h34v-64h-35q-45 0 -84 41l-38 39q-101 -90 -239 -90q-158 0 -262 111.5t-104 273.5t104 273.5t262 111.5q157 0 261.5 -111.5t104.5 -273.5q0 -144 -84 -250l43 -45q16 -16 37 -16zM419 55q115 0 195 71l-131 138l43 43l130 -136q64 87 64 204q0 136 -84.5 228.5
t-216.5 92.5t-217 -92.5t-85 -228.5q0 -135 85 -227.5t217 -92.5z" />
    <glyph glyph-name="R" unicode="R" horiz-adv-x="579" 
d="M372 345l192 -345h-76l-185 342h-155v-342h-68v750h261q86 0 146 -60.5t60 -146.5q0 -76 -50 -132t-125 -66zM148 399h191q61 0 103.5 42.5t42.5 103.5q0 60 -43 102.5t-103 42.5h-191v-291z" />
    <glyph glyph-name="S" unicode="S" horiz-adv-x="622" 
d="M322 -10q-91 0 -164.5 40.5t-109.5 103.5l48 50q23 -56 85 -92.5t142 -36.5q78 0 128 34.5t50 103.5q0 30 -11.5 54.5t-26.5 40.5t-45.5 32.5t-51 25t-58.5 22.5q-43 16 -63 24.5t-54.5 27.5t-50.5 36.5t-29.5 46.5t-13.5 64q0 93 65 143t160 50q76 0 137 -27t98 -71
l-46 -47q-61 86 -189 86q-66 0 -111 -32.5t-45 -96.5q0 -30 13 -54t41.5 -42t52.5 -29t67 -27q47 -18 67.5 -26.5t58.5 -30t56 -41.5t33 -53t15 -73q0 -100 -69.5 -153t-178.5 -53z" />
    <glyph glyph-name="T" unicode="T" horiz-adv-x="514" 
d="M501 751v-61h-210v-689h-67v689h-210v61h487z" />
    <glyph glyph-name="U" unicode="U" horiz-adv-x="720" 
d="M360 -10q-116 0 -196.5 75t-80.5 182v503h68v-493q0 -86 61 -146t148 -60q88 0 149 60t61 146v493h67v-503q0 -107 -80.5 -182t-196.5 -75z" />
    <glyph glyph-name="V" unicode="V" horiz-adv-x="673" 
d="M599 750h76l-301 -750h-75l-302 750h77l262 -671z" />
    <glyph glyph-name="W" unicode="W" horiz-adv-x="1046" 
d="M983 750h73l-317 -750h-73l-143 338l-142 -338h-73l-318 750h73l283 -669l143 338l-140 331h70l282 -670z" />
    <glyph glyph-name="X" unicode="X" horiz-adv-x="630" 
d="M607 0h-79l-214 323l-213 -323h-78l254 379l-249 371h77l209 -315l210 315h77l-250 -371z" />
    <glyph glyph-name="Y" unicode="Y" horiz-adv-x="636" 
d="M613 750l-261 -394v-356h-67v354l-262 396h76l219 -336l220 336h75z" />
    <glyph glyph-name="Z" unicode="Z" horiz-adv-x="661" 
d="M141 61h472v-61h-566v34l455 656h-444v60h538v-34z" />
    <glyph glyph-name="bracketleft" unicode="[" horiz-adv-x="270" 
d="M83 -317v1134h187v-52h-129v-1030h129v-52h-187z" />
    <glyph glyph-name="backslash" unicode="\" horiz-adv-x="576" 
d="M512 -250l-527 1000h65l526 -1000h-64z" />
    <glyph glyph-name="bracketright" unicode="]" horiz-adv-x="270" 
d="M83 -317v52h129v1030h-129v52h187v-1134h-187z" />
    <glyph glyph-name="asciicircum" unicode="^" horiz-adv-x="685" 
d="M651 198h-58l-251 497l-250 -497h-58l278 552h61z" />
    <glyph glyph-name="underscore" unicode="_" horiz-adv-x="687" 
d="M94 -48v48h500v-48h-500z" />
    <glyph glyph-name="grave" unicode="`" horiz-adv-x="53" 
d="M139 600l-105 150h69l92 -150h-56z" />
    <glyph glyph-name="a" unicode="a" horiz-adv-x="536" 
d="M259 510q88 0 143.5 -47t55.5 -136v-327h-59l-3 82q-95 -92 -199 -92q-67 0 -109.5 43t-42.5 110q0 76 61.5 117.5t187.5 16.5l100 -19v72q0 62 -38.5 92.5t-100.5 30.5q-105 0 -148 -77l-46 40q58 94 198 94zM211 49q92 0 183 93v65l-99 21q-95 19 -139 -6.5t-44 -75.5
q0 -43 27 -70t72 -27z" />
    <glyph glyph-name="b" unicode="b" horiz-adv-x="598" 
d="M325 510q103 0 167 -74.5t64 -185.5q0 -110 -64 -185t-167 -75q-117 0 -183 100l-2 -90h-60v750h65v-337q64 97 180 97zM316 49q79 0 127.5 58t48.5 143q0 86 -48.5 143.5t-127.5 57.5q-65 0 -111.5 -43t-59.5 -111v-94q13 -68 59.5 -111t111.5 -43z" />
    <glyph glyph-name="c" unicode="c" horiz-adv-x="456" 
d="M277 -10q-106 0 -170.5 74t-64.5 186t64.5 186t170.5 74q77 0 135 -46v-68q-52 57 -129 57q-80 0 -128.5 -57.5t-48.5 -145.5q0 -87 48.5 -145t128.5 -58q78 0 129 56v-67q-56 -46 -135 -46z" />
    <glyph glyph-name="d" unicode="d" horiz-adv-x="598" 
d="M454 750h64v-750h-59l-4 90q-66 -100 -182 -100q-103 0 -167 75t-64 185q0 111 64 185.5t167 74.5q115 0 181 -97v337zM282 49q65 0 111.5 43t60.5 111v94q-14 68 -60.5 111t-111.5 43q-79 0 -127.5 -57.5t-48.5 -143.5q0 -85 48.5 -143t127.5 -58z" />
    <glyph glyph-name="e" unicode="e" horiz-adv-x="549" 
d="M508 254q0 -17 -1 -26h-401q6 -81 52.5 -130.5t122.5 -49.5q93 0 148 85l46 -33q-64 -110 -196 -110q-107 0 -172 74t-65 186t65 186t172 74q104 0 166.5 -71.5t62.5 -184.5zM280 453q-73 0 -119 -47.5t-54 -125.5h341q-7 78 -51.5 125.5t-116.5 47.5z" />
    <glyph glyph-name="f" unicode="f" horiz-adv-x="349" 
d="M267 704q-31 0 -52.5 -23.5t-21.5 -58.5v-122h137v-52h-137v-448h-65v448h-84v52h84v125q0 56 40.5 95.5t97.5 39.5q66 0 106 -50l-38 -40q-24 34 -67 34z" />
    <glyph glyph-name="g" unicode="g" horiz-adv-x="598" 
d="M459 500h59v-493q0 -110 -65.5 -183.5t-169.5 -73.5q-88 0 -156 55v74q67 -70 160 -70q72 0 119.5 55.5t47.5 142.5v83q-67 -100 -181 -100q-103 0 -167 75t-64 185q0 111 64 185.5t167 74.5q116 0 182 -102zM282 49q63 0 110.5 44t61.5 112v91q-14 67 -62 111t-110 44
q-79 0 -127.5 -57.5t-48.5 -143.5q0 -85 48.5 -143t127.5 -58z" />
    <glyph glyph-name="h" unicode="h" horiz-adv-x="582" 
d="M310 510q83 0 138.5 -55.5t55.5 -138.5v-316h-66v310q0 59 -41.5 100t-102.5 41q-62 0 -105 -42t-43 -102v-307h-66v750h66v-323q59 83 164 83z" />
    <glyph glyph-name="i" unicode="i" horiz-adv-x="262" 
d="M131 595q-20 0 -34.5 14.5t-14.5 34.5t14.5 34.5t34.5 14.5t34.5 -14.5t14.5 -34.5t-14.5 -34.5t-34.5 -14.5zM98 0v500h66v-500h-66z" />
    <glyph glyph-name="j" unicode="j" horiz-adv-x="260" 
d="M146 595q-20 0 -34.5 14.5t-14.5 34.5t14.5 34.5t34.5 14.5t34.5 -14.5t14.5 -34.5t-14.5 -34.5t-34.5 -14.5zM40 -260q-39 0 -62 16v59q24 -19 56 -19q33 0 56 24t23 58v622h66v-625q0 -56 -40.5 -95.5t-98.5 -39.5z" />
    <glyph glyph-name="k" unicode="k" horiz-adv-x="479" 
d="M475 39v-82l-329 300v-256h-66v750h66v-454l225 203h85l-245 -220z" />
    <glyph glyph-name="l" unicode="l" horiz-adv-x="306" 
d="M215 -10q-60 0 -96 36t-36 94v630h65l1 -630q0 -35 17.5 -53.5t49.5 -18.5q33 0 53 21l37 -45q-34 -34 -91 -34z" />
    <glyph glyph-name="m" unicode="m" horiz-adv-x="900" 
d="M637 510q79 0 132 -53.5t53 -133.5v-323h-66v317q0 56 -38.5 95t-95.5 39q-58 0 -98 -40t-40 -98v-313h-66v317q0 56 -38.5 95t-95.5 39q-58 0 -98 -40t-40 -98v-313h-66v500h61l3 -69q56 79 155 79q55 0 98.5 -27t66.5 -73q26 46 72 73t101 27z" />
    <glyph glyph-name="n" unicode="n" horiz-adv-x="582" 
d="M310 510q83 0 138.5 -55.5t55.5 -138.5v-316h-66v310q0 59 -41.5 100t-102.5 41q-62 0 -105 -42t-43 -102v-307h-66v500h61l3 -75q59 85 166 85z" />
    <glyph glyph-name="o" unicode="o" horiz-adv-x="565" 
d="M282 -10q-106 0 -173 75t-67 185t67 185t173 75t173.5 -75t67.5 -185t-67.5 -185t-173.5 -75zM282 49q79 0 127.5 58t48.5 143q0 86 -48.5 143.5t-127.5 57.5t-127.5 -57.5t-48.5 -143.5q0 -85 48.5 -143t127.5 -58z" />
    <glyph glyph-name="p" unicode="p" horiz-adv-x="598" 
d="M325 510q103 0 167 -74.5t64 -185.5q0 -110 -64 -185t-167 -75q-116 0 -180 97v-337h-65v750h65v-87q64 97 180 97zM316 49q79 0 127.5 58t48.5 143q0 86 -48.5 143.5t-127.5 57.5q-65 0 -111.5 -43t-59.5 -111v-94q13 -68 59.5 -111t111.5 -43z" />
    <glyph glyph-name="q" unicode="q" horiz-adv-x="598" 
d="M454 500h64v-750h-64v337q-66 -97 -181 -97q-103 0 -167 75t-64 185q0 111 64 185.5t167 74.5q115 0 181 -97v87zM282 49q65 0 111.5 43t60.5 111v94q-14 68 -60.5 111t-111.5 43q-79 0 -127.5 -57.5t-48.5 -143.5q0 -85 48.5 -143t127.5 -58z" />
    <glyph glyph-name="r" unicode="r" horiz-adv-x="378" 
d="M297 510q61 0 96 -24l-31 -48q-28 13 -68 13q-59 0 -103.5 -46t-44.5 -113v-292h-66v500h61l3 -82q27 42 67.5 67t85.5 25z" />
    <glyph glyph-name="s" unicode="s" horiz-adv-x="468" 
d="M239 -10q-62 0 -119 24t-81 60l38 42q17 -29 63.5 -49.5t95.5 -21.5q53 -1 88.5 22.5t35.5 65.5q0 17 -8 30.5t-16.5 22t-30 17.5t-32 12.5t-39.5 11.5q-7 2 -10 3q-29 8 -46.5 14t-41.5 18t-37 25.5t-23 35t-10 47.5q0 64 53 102t123 38q46 0 90.5 -16t71.5 -40l-39 -45
q-41 44 -112 47q-48 2 -84.5 -18.5t-36.5 -59.5q0 -41 31.5 -60.5t93.5 -35.5q34 -9 49.5 -14t43.5 -17.5t41 -26t24 -36t11 -51.5q0 -64 -53.5 -105.5t-133.5 -41.5z" />
    <glyph glyph-name="t" unicode="t" horiz-adv-x="321" 
d="M279 69l37 -45q-34 -34 -91 -34q-60 0 -96 36t-36 94v328h-69v52h69v170h66v-170h129v-52h-129v-328q0 -35 18 -53.5t50 -18.5t52 21z" />
    <glyph glyph-name="u" unicode="u" horiz-adv-x="585" 
d="M440 500h65v-500h-60l-4 76q-27 -40 -70.5 -63t-92.5 -23q-82 0 -139.5 57.5t-57.5 139.5v313h66v-306q0 -60 42 -102.5t103 -42.5t104.5 42.5t43.5 102.5v306z" />
    <glyph glyph-name="v" unicode="v" horiz-adv-x="485" 
d="M405 500h70l-201 -500h-64l-200 500h71l162 -422z" />
    <glyph glyph-name="w" unicode="w" horiz-adv-x="701" 
d="M617 500h72l-171 -500h-73l-96 273l-92 -273h-72l-172 500h73l139 -421l94 281l-49 140h65l143 -423z" />
    <glyph glyph-name="x" unicode="x" horiz-adv-x="491" 
d="M493 500l-208 -250l208 -250h-80l-168 202l-167 -202h-81l208 250l-208 250h80l168 -202l168 202h80z" />
    <glyph glyph-name="y" unicode="y" horiz-adv-x="586" 
d="M505 500l1 -525q0 -103 -56.5 -167.5t-167.5 -64.5q-102 0 -176 55v74q73 -70 180 -70q79 0 116.5 46t37.5 127v98q-28 -38 -70.5 -60.5t-91.5 -22.5q-82 0 -139.5 57.5t-57.5 139.5v313h66v-306q0 -60 42 -102.5t103 -42.5t104.5 42.5t43.5 102.5v306h65z" />
    <glyph glyph-name="z" unicode="z" horiz-adv-x="515" 
d="M42 0v44l331 400h-323v56h413v-41l-331 -403h341v-56h-431z" />
    <glyph glyph-name="braceleft" unicode="{" horiz-adv-x="319" 
d="M225 -310q-41 0 -68.5 37t-27.5 91v237q0 74 -14 110t-61 60v49q48 24 61.5 60.5t13.5 108.5v234q0 54 27.5 91t68.5 37h39v-49q-46 0 -64 -19t-18 -67v-242q0 -63 -14 -105.5t-58 -73.5q44 -30 58 -72.5t14 -106.5v-245q0 -43 18.5 -63t63.5 -20v-52h-39z" />
    <glyph glyph-name="bar" unicode="|" horiz-adv-x="287" 
d="M121 -150v900h45v-900h-45z" />
    <glyph glyph-name="braceright" unicode="}" horiz-adv-x="319" 
d="M55 -310v52q45 0 63.5 20t18.5 63v245q0 64 14 106.5t59 72.5q-45 31 -59 73t-14 106v242q0 48 -18 67t-64 19v51h40q41 0 68.5 -36.5t27.5 -90.5v-237q0 -72 13.5 -108.5t61.5 -60.5v-49q-48 -24 -61.5 -59.5t-13.5 -110.5v-237q0 -54 -27.5 -91t-68.5 -37h-40z" />
    <glyph glyph-name="asciitilde" unicode="~" horiz-adv-x="562" 
d="M390 184q-29 0 -55 13.5t-38 25.5t-33 35q-46 55 -89 55q-42 0 -68.5 -33.5t-24.5 -83.5h-40q-2 69 36 112.5t97 43.5q38 0 65.5 -19t57.5 -55q44 -55 89 -55q42 0 68.5 32.5t24.5 82.5h40q3 -66 -34.5 -110t-95.5 -44z" />
    <glyph glyph-name="exclamdown" unicode="&#xa1;" horiz-adv-x="285" 
d="M143 402q-20 0 -34.5 14.5t-14.5 34.5t14.5 34.5t34.5 14.5t34.5 -14.5t14.5 -34.5t-14.5 -34.5t-34.5 -14.5zM110 -250l6 544h53l6 -544h-65z" />
    <glyph glyph-name="cent" unicode="&#xa2;" horiz-adv-x="536" 
d="M320 551q-84 0 -142.5 -58.5t-58.5 -142.5q0 -83 58.5 -142t142.5 -59q86 0 143 52v-67q-60 -41 -133 -44v-91h-43v93q-100 12 -167 85.5t-67 172.5t67 172.5t167 85.5v94h43v-92q71 -3 133 -44v-67q-58 52 -143 52z" />
    <glyph glyph-name="sterling" unicode="&#xa3;" horiz-adv-x="600" 
d="M172 50h380v-50h-432v346h-80v47h80v145q0 98 60 160t155 62q67 0 124 -41t77 -104l-50 -22q-13 50 -56.5 82t-94.5 32q-73 0 -118 -46.5t-45 -122.5v-145h186v-47h-186v-296z" />
    <glyph glyph-name="currency" unicode="&#xa4;" horiz-adv-x="590" 
d="M114 145l-37 39l50 49q-45 56 -45 130t46 130l-50 49l37 39l50 -51q57 46 130.5 46t129.5 -46l50 50l37 -37l-49 -49q46 -57 46 -130.5t-46 -130.5l49 -49l-36 -39l-51 51q-56 -46 -130 -46t-131 46zM180 250q48 -48 114.5 -48t114.5 48q47 46 47 113t-47 114t-114 46.5
t-114 -47.5q-46 -47 -46.5 -113.5t45.5 -112.5z" />
    <glyph glyph-name="yen" unicode="&#xa5;" horiz-adv-x="663" 
d="M361 360v-15h212v-46h-212v-104h212v-44h-212v-151h-59v151h-209v44h209v104h-209v46h209v15l-258 390h64l223 -342l224 342h64z" />
    <glyph glyph-name="brokenbar" unicode="&#xa6;" horiz-adv-x="287" 
d="M121 390v360h45v-360h-45zM121 -150v360h45v-360h-45z" />
    <glyph glyph-name="section" unicode="&#xa7;" horiz-adv-x="610" 
d="M504 242q41 -36 41 -87q0 -69 -69.5 -111t-166.5 -42q-84 0 -149.5 32t-92.5 80l44 25q20 -39 73.5 -64.5t126.5 -25.5q76 0 129 28t53 78q0 34 -29 58.5t-72.5 37.5t-94 29t-94 32.5t-72.5 49t-29 77.5q0 53 41 89q-40 35 -40 87q0 68 61 106.5t145 38.5q58 0 110 -19
t84 -50l-37 -29q-53 53 -154 53q-65 0 -111.5 -26t-46.5 -72q0 -40 40.5 -66.5t98 -42.5t114.5 -34.5t97.5 -54t40.5 -88.5q0 -51 -41 -89zM154 441q0 -36 33.5 -62t76.5 -39t103.5 -32.5t95.5 -37.5q30 27 30 62q0 45 -49 72t-135.5 51.5t-124.5 44.5q-30 -24 -30 -59z" />
    <glyph glyph-name="dieresis" unicode="&#xa8;" horiz-adv-x="53" 
d="M115 595q-20 0 -34.5 14.5t-14.5 34.5t14.5 34.5t34.5 14.5t34.5 -14.5t14.5 -34.5t-14.5 -34.5t-34.5 -14.5zM290 595q-20 0 -34.5 14.5t-14.5 34.5t14.5 34.5t34.5 14.5t34 -14.5t14 -34.5t-14 -34.5t-34 -14.5z" />
    <glyph glyph-name="copyright" unicode="&#xa9;" horiz-adv-x="876" 
d="M438 -10q-159 0 -272 113t-113 272t113 272t272 113t272 -113t113 -272t-113 -272t-272 -113zM438 31q144 0 244.5 100.5t100.5 243.5t-100.5 243.5t-244.5 100.5q-143 0 -243.5 -100.5t-100.5 -243.5t100.5 -243.5t243.5 -100.5zM448 167q-87 0 -148 60t-61 145t61 145
t148 60q64 0 116 -37v-47l-5 -1q-46 41 -110 41q-68 0 -115 -46t-47 -115q0 -68 47.5 -114.5t114.5 -46.5q64 0 110 40l5 -1v-46q-51 -37 -116 -37z" />
    <glyph glyph-name="ordfeminine" unicode="&#xaa;" horiz-adv-x="405" 
d="M313 750h38v-300h-38v70q-19 -35 -53.5 -55.5t-75.5 -20.5q-63 0 -108 45.5t-45 110.5q0 64 45 110t108 46q41 0 75.5 -21t53.5 -56v71zM191 478q50 0 86 35.5t36 86.5q0 50 -36 85.5t-86 35.5q-51 0 -86.5 -35.5t-35.5 -85.5q0 -51 35.5 -86.5t86.5 -35.5z" />
    <glyph glyph-name="guillemotleft" unicode="&#xab;" horiz-adv-x="612" 
d="M267 95l-152 184l152 184h58l-152 -184l152 -184h-58zM439 95l-152 184l152 184h59l-152 -184l152 -184h-59z" />
    <glyph glyph-name="logicalnot" unicode="&#xac;" horiz-adv-x="776" 
d="M637 123v256h-543v46h589v-302h-46z" />
    <glyph glyph-name="uni00AD" unicode="&#xad;" horiz-adv-x="590" 
d="M94 236v48h350v-48h-350z" />
    <glyph glyph-name="registered" unicode="&#xae;" horiz-adv-x="876" 
d="M438 760q159 0 272 -113t113 -272t-113 -272t-272 -113t-272 113t-113 272t113 272t272 113zM438 31q144 0 244.5 100.5t100.5 243.5t-100.5 243.5t-244.5 100.5q-143 0 -243.5 -100.5t-100.5 -243.5t100.5 -243.5t243.5 -100.5zM575 461q0 -38 -23.5 -67.5t-59.5 -38.5
l97 -175h-43l-96 171h-74v-171h-39v391h127q46 0 78.5 -32t32.5 -78zM376 532v-142h88q30 0 51 21t21 50q0 30 -21 50.5t-51 20.5h-88z" />
    <glyph glyph-name="macron" unicode="&#xaf;" horiz-adv-x="67" 
d="M34 607v46h310v-46h-310z" />
    <glyph glyph-name="degree" unicode="&#xb0;" horiz-adv-x="495" 
d="M248 492q-55 0 -94.5 39.5t-39.5 94.5q0 56 39 95t95 39q55 0 94.5 -39.5t39.5 -94.5t-39.5 -94.5t-94.5 -39.5zM248 530q40 0 68 28t28 68t-28 68t-68 28t-68 -28t-28 -68t28 -68t68 -28z" />
    <glyph glyph-name="plusminus" unicode="&#xb1;" horiz-adv-x="794" 
d="M420 420h320v-46h-320v-180h-46v180h-320v46h320v180h46v-180zM54 0v43h686v-43h-686z" />
    <glyph glyph-name="uni00B2" unicode="&#xb2;" horiz-adv-x="343" 
d="M40 380v25q155 158 176 184q27 34 27 62q0 35 -21.5 55t-53.5 21q-34 0 -55.5 -20.5t-22.5 -55.5h-36q0 49 33.5 79.5t82.5 29.5q46 0 77 -27.5t32 -73.5q1 -41 -25.5 -76t-127.5 -137l-32 -32h199v-34h-253z" />
    <glyph glyph-name="uni00B3" unicode="&#xb3;" horiz-adv-x="368" 
d="M226 591q31 -14 49.5 -40.5t18.5 -60.5q0 -48 -33.5 -81.5t-81.5 -33.5t-81.5 32t-33.5 77l37 1q0 -31 23 -52.5t55 -21.5q33 0 55.5 23t22.5 56q0 34 -22.5 56.5t-55.5 22.5h-30v32h28q26 0 44.5 18t18.5 45q0 25 -18.5 43t-44.5 18q-25 0 -43 -17t-18 -41h-36
q0 39 28 66t69 27t69 -27t28 -66q0 -51 -48 -76z" />
    <glyph glyph-name="acute" unicode="&#xb4;" horiz-adv-x="53" 
d="M34 600l92 150h69l-105 -150h-56z" />
    <glyph glyph-name="uni00B5" unicode="&#xb5;" horiz-adv-x="590" 
d="M442 500h66v-500h-66v80q-27 -42 -70 -66t-93 -24q-86 0 -144 63v-303h-51v750h65v-306q0 -60 42.5 -102.5t102.5 -42.5q61 0 104.5 42.5t43.5 102.5v306z" />
    <glyph glyph-name="paragraph" unicode="&#xb6;" horiz-adv-x="613" 
d="M317 -150v565h-35q-84 0 -131 43.5t-47 124.5t47 124t131 43h74v-900h-39zM450 -150v900h39v-900h-39z" />
    <glyph glyph-name="periodcentered" unicode="&#xb7;" horiz-adv-x="270" 
d="M135 319q-17 0 -29 12t-12 29q0 16 12 28.5t29 12.5t29 -12.5t12 -28.5q0 -17 -12 -29t-29 -12z" />
    <glyph glyph-name="cedilla" unicode="&#xb8;" horiz-adv-x="53" 
d="M148 -260q-32 0 -65 17t-49 42l32 16q13 -16 36.5 -27.5t45.5 -11.5q27 0 45 18.5t18 45.5q0 38 -31 53t-76 -1l-31 22l42 86h37l-32 -70q53 11 90.5 -15.5t37.5 -74.5q0 -42 -29 -71t-71 -29z" />
    <glyph glyph-name="uni00B9" unicode="&#xb9;" horiz-adv-x="255" 
d="M93 375v342h-58v33h96v-375h-38z" />
    <glyph glyph-name="ordmasculine" unicode="&#xba;" horiz-adv-x="382" 
d="M191 444q-66 0 -113 45.5t-47 110.5q0 64 47 110t113 46q67 0 113.5 -45.5t46.5 -110.5t-46.5 -110.5t-113.5 -45.5zM191 478q50 0 86 35.5t36 86.5q0 50 -36 85.5t-86 35.5q-51 0 -86.5 -35.5t-35.5 -85.5q0 -51 35.5 -86.5t86.5 -35.5z" />
    <glyph glyph-name="guillemotright" unicode="&#xbb;" horiz-adv-x="612" 
d="M114 95l152 184l-152 184h58l152 -184l-152 -184h-58zM286 95l152 184l-152 184h59l152 -184l-152 -184h-59z" />
    <glyph glyph-name="questiondown" unicode="&#xbf;" horiz-adv-x="544" 
d="M268 517q20 0 34.5 -14t14.5 -35q0 -20 -14.5 -34.5t-34.5 -14.5t-34.5 14.5t-14.5 34.5q0 21 14.5 35t34.5 14zM302 301v-68q0 -50 -18.5 -81.5t-45 -47l-53 -31t-45 -44.5t-18.5 -75q0 -63 42 -102.5t108 -39.5q61 0 103 38t47 97h59q-3 -84 -62 -138.5t-147 -54.5
q-91 0 -150 56.5t-59 143.5q0 53 18.5 89t44.5 54.5t52.5 34t45 37.5t18.5 55v77h60z" />
    <glyph glyph-name="Agrave" unicode="&#xc0;" horiz-adv-x="723" 
d="M387 850h-56l-105 150h69zM626 0l-63 163h-403l-63 -163h-74l301 750h75l301 -750h-74zM183 221h357l-179 458z" />
    <glyph glyph-name="Aacute" unicode="&#xc1;" horiz-adv-x="723" 
d="M497 1000l-105 -150h-56l92 150h69zM626 0l-63 163h-403l-63 -163h-74l301 750h75l301 -750h-74zM183 221h357l-179 458z" />
    <glyph glyph-name="Acircumflex" unicode="&#xc2;" horiz-adv-x="723" 
d="M362 966l-80 -137h-56l100 171h71l100 -171h-56zM626 0l-63 163h-403l-63 -163h-74l301 750h75l301 -750h-74zM183 221h357l-179 458z" />
    <glyph glyph-name="Atilde" unicode="&#xc3;" horiz-adv-x="723" 
d="M243 853h-44q-5 52 21 86t70 34q56 0 90 -53q20 -33 53 -33q25 0 39 21t10 55h43q6 -52 -20 -85.5t-71 -33.5q-57 0 -90 53q-20 33 -52 33q-26 0 -39.5 -21.5t-9.5 -55.5zM626 0l-63 163h-403l-63 -163h-74l301 750h75l301 -750h-74zM183 221h357l-179 458z" />
    <glyph glyph-name="Adieresis" unicode="&#xc4;" horiz-adv-x="723" 
d="M275 845q-20 0 -34.5 14.5t-14.5 34.5t14.5 34.5t34.5 14.5t34.5 -14.5t14.5 -34.5t-14.5 -34.5t-34.5 -14.5zM450 845q-20 0 -34.5 14.5t-14.5 34.5t14.5 34.5t34.5 14.5t34 -14.5t14 -34.5t-14 -34.5t-34 -14.5zM626 0l-63 163h-403l-63 -163h-74l301 750h75l301 -750
h-74zM183 221h357l-179 458z" />
    <glyph glyph-name="Aring" unicode="&#xc5;" horiz-adv-x="723" 
d="M626 0l-63 163h-403l-63 -163h-74l293 731q-50 27 -50 84q0 40 28.5 68t68.5 28q39 0 67 -28t28 -68q0 -58 -51 -85l293 -730h-74zM363 878q-26 0 -44.5 -18.5t-18.5 -44.5q0 -27 18.5 -45t44.5 -18t44 18t18 45q0 26 -18 44.5t-44 18.5zM183 221h357l-179 458z" />
    <glyph glyph-name="AE" unicode="&#xc6;" horiz-adv-x="875" 
d="M23 0l301 750h494v-59h-337v-289h295v-54h-295v-289h337v-59h-403v168h-252l-64 -168h-76zM186 222h229v469h-43z" />
    <glyph glyph-name="Ccedilla" unicode="&#xc7;" horiz-adv-x="682" 
d="M419 696q-132 0 -217 -92.5t-85 -228.5q0 -135 85 -227.5t217 -92.5q127 0 216 96v-82q-87 -73 -201 -79l-28 -60q53 11 90.5 -15.5t37.5 -74.5q0 -42 -29 -71t-71 -29q-32 0 -65 17t-49 42l32 16q13 -16 36.5 -27.5t45.5 -11.5q27 0 45 18.5t18 45.5q0 38 -31 53t-76 -1
l-31 22l37 77q-149 8 -246 118.5t-97 265.5q0 162 104 273.5t262 111.5q122 0 216 -78v-83q-91 97 -216 97z" />
    <glyph glyph-name="Egrave" unicode="&#xc8;" horiz-adv-x="541" 
d="M307 850h-56l-105 150h69zM484 690h-336v-284h294v-61h-294v-284h336v-61h-404v750h404v-60z" />
    <glyph glyph-name="Eacute" unicode="&#xc9;" horiz-adv-x="541" 
d="M417 1000l-105 -150h-56l92 150h69zM484 690h-336v-284h294v-61h-294v-284h336v-61h-404v750h404v-60z" />
    <glyph glyph-name="Ecircumflex" unicode="&#xca;" horiz-adv-x="541" 
d="M282 966l-80 -137h-56l100 171h71l100 -171h-56zM484 690h-336v-284h294v-61h-294v-284h336v-61h-404v750h404v-60z" />
    <glyph glyph-name="Edieresis" unicode="&#xcb;" horiz-adv-x="541" 
d="M195 845q-20 0 -34.5 14.5t-14.5 34.5t14.5 34.5t34.5 14.5t34.5 -14.5t14.5 -34.5t-14.5 -34.5t-34.5 -14.5zM370 845q-20 0 -34.5 14.5t-14.5 34.5t14.5 34.5t34.5 14.5t34 -14.5t14 -34.5t-14 -34.5t-34 -14.5zM484 690h-336v-284h294v-61h-294v-284h336v-61h-404v750
h404v-60z" />
    <glyph glyph-name="Igrave" unicode="&#xcc;" horiz-adv-x="228" 
d="M82 850l-106 150h70l92 -150h-56zM80 0v750h68v-750h-68z" />
    <glyph glyph-name="Iacute" unicode="&#xcd;" horiz-adv-x="228" 
d="M88 850l92 150h69l-105 -150h-56zM80 0v750h68v-750h-68z" />
    <glyph glyph-name="Icircumflex" unicode="&#xce;" horiz-adv-x="228" 
d="M-23 829l101 171h71l100 -171h-56l-79 137l-80 -137h-57zM80 0v750h68v-750h-68z" />
    <glyph glyph-name="Idieresis" unicode="&#xcf;" horiz-adv-x="228" 
d="M26 845q-20 0 -35 14.5t-15 34.5t15 34.5t35 14.5t34.5 -14.5t14.5 -34.5t-14.5 -34.5t-34.5 -14.5zM201 845q-20 0 -34.5 14.5t-14.5 34.5t14.5 34.5t34.5 14.5t34 -14.5t14 -34.5t-14 -34.5t-34 -14.5zM80 0v750h68v-750h-68z" />
    <glyph glyph-name="Eth" unicode="&#xd0;" horiz-adv-x="707" 
d="M279 750q155 0 265 -110t110 -265t-110 -265t-265 -110h-199v351h-78v49h78v350h199zM278 61q129 0 218.5 91.5t89.5 222.5t-89.5 223t-218.5 92h-131v-290h137v-49h-137v-290h131z" />
    <glyph glyph-name="Ntilde" unicode="&#xd1;" horiz-adv-x="765" 
d="M260 853h-44q-5 52 21 86t70 34q56 0 90 -53q20 -33 53 -33q25 0 39 21t10 55h43q6 -52 -20 -85.5t-71 -33.5q-57 0 -90 53q-20 33 -52 33q-26 0 -39.5 -21.5t-9.5 -55.5zM618 750h67v-750h-61l-476 636v-636h-68v750h61l477 -636v636z" />
    <glyph glyph-name="Ograve" unicode="&#xd2;" horiz-adv-x="838" 
d="M388 850l-105 150h69l92 -150h-56zM419 -10q-158 0 -262 111.5t-104 273.5t104 273.5t262 111.5q157 0 261.5 -111.5t104.5 -273.5t-104.5 -273.5t-261.5 -111.5zM419 55q132 0 216.5 92.5t84.5 227.5q0 136 -84.5 228.5t-216.5 92.5t-217 -92.5t-85 -228.5
q0 -135 85 -227.5t217 -92.5z" />
    <glyph glyph-name="Oacute" unicode="&#xd3;" horiz-adv-x="838" 
d="M394 850l92 150h69l-105 -150h-56zM419 -10q-158 0 -262 111.5t-104 273.5t104 273.5t262 111.5q157 0 261.5 -111.5t104.5 -273.5t-104.5 -273.5t-261.5 -111.5zM419 55q132 0 216.5 92.5t84.5 227.5q0 136 -84.5 228.5t-216.5 92.5t-217 -92.5t-85 -228.5
q0 -135 85 -227.5t217 -92.5z" />
    <glyph glyph-name="Ocircumflex" unicode="&#xd4;" horiz-adv-x="838" 
d="M284 829l100 171h71l100 -171h-56l-79 137l-80 -137h-56zM419 -10q-158 0 -262 111.5t-104 273.5t104 273.5t262 111.5q157 0 261.5 -111.5t104.5 -273.5t-104.5 -273.5t-261.5 -111.5zM419 55q132 0 216.5 92.5t84.5 227.5q0 136 -84.5 228.5t-216.5 92.5t-217 -92.5
t-85 -228.5q0 -135 85 -227.5t217 -92.5z" />
    <glyph glyph-name="Otilde" unicode="&#xd5;" horiz-adv-x="838" 
d="M491 844q-57 0 -90 53q-20 33 -52 33q-26 0 -39.5 -21.5t-9.5 -55.5h-44q-5 52 21 86t70 34q56 0 90 -53q20 -33 53 -33q25 0 39 21t10 55h43q6 -52 -20 -85.5t-71 -33.5zM419 -10q-158 0 -262 111.5t-104 273.5t104 273.5t262 111.5q157 0 261.5 -111.5t104.5 -273.5
t-104.5 -273.5t-261.5 -111.5zM419 55q132 0 216.5 92.5t84.5 227.5q0 136 -84.5 228.5t-216.5 92.5t-217 -92.5t-85 -228.5q0 -135 85 -227.5t217 -92.5z" />
    <glyph glyph-name="Odieresis" unicode="&#xd6;" horiz-adv-x="838" 
d="M332 845q-20 0 -34.5 14.5t-14.5 34.5t14.5 34.5t34.5 14.5t34.5 -14.5t14.5 -34.5t-14.5 -34.5t-34.5 -14.5zM507 845q-20 0 -34.5 14.5t-14.5 34.5t14.5 34.5t34.5 14.5t34 -14.5t14 -34.5t-14 -34.5t-34 -14.5zM419 -10q-158 0 -262 111.5t-104 273.5t104 273.5
t262 111.5q157 0 261.5 -111.5t104.5 -273.5t-104.5 -273.5t-261.5 -111.5zM419 55q132 0 216.5 92.5t84.5 227.5q0 136 -84.5 228.5t-216.5 92.5t-217 -92.5t-85 -228.5q0 -135 85 -227.5t217 -92.5z" />
    <glyph glyph-name="multiply" unicode="&#xd7;" horiz-adv-x="731" 
d="M617 511l-201 -201l201 -200l-37 -37l-201 200l-200 -200l-37 37l200 200l-200 201l37 37l200 -201l201 201z" />
    <glyph glyph-name="Oslash" unicode="&#xd8;" horiz-adv-x="838" 
d="M651 677q63 -54 98.5 -133t35.5 -169q0 -162 -104.5 -273.5t-261.5 -111.5q-107 0 -195 56l-37 -54h-52l54 80q-64 53 -100 132t-36 171q0 162 104 273.5t262 111.5q110 0 198 -58l37 55h51zM117 375q0 -76 28.5 -141t79.5 -109l356 524q-72 47 -162 47
q-132 0 -217 -92.5t-85 -228.5zM419 55q132 0 216.5 92.5t84.5 227.5q0 156 -105 248l-355 -524q71 -44 159 -44z" />
    <glyph glyph-name="Ugrave" unicode="&#xd9;" horiz-adv-x="720" 
d="M329 850l-105 150h69l92 -150h-56zM360 -10q-116 0 -196.5 75t-80.5 182v503h68v-493q0 -86 61 -146t148 -60q88 0 149 60t61 146v493h67v-503q0 -107 -80.5 -182t-196.5 -75z" />
    <glyph glyph-name="Uacute" unicode="&#xda;" horiz-adv-x="720" 
d="M335 850l92 150h69l-105 -150h-56zM360 -10q-116 0 -196.5 75t-80.5 182v503h68v-493q0 -86 61 -146t148 -60q88 0 149 60t61 146v493h67v-503q0 -107 -80.5 -182t-196.5 -75z" />
    <glyph glyph-name="Ucircumflex" unicode="&#xdb;" horiz-adv-x="720" 
d="M225 829l100 171h71l100 -171h-56l-79 137l-80 -137h-56zM360 -10q-116 0 -196.5 75t-80.5 182v503h68v-493q0 -86 61 -146t148 -60q88 0 149 60t61 146v493h67v-503q0 -107 -80.5 -182t-196.5 -75z" />
    <glyph glyph-name="Udieresis" unicode="&#xdc;" horiz-adv-x="720" 
d="M273 845q-20 0 -34.5 14.5t-14.5 34.5t14.5 34.5t34.5 14.5t34.5 -14.5t14.5 -34.5t-14.5 -34.5t-34.5 -14.5zM448 845q-20 0 -34.5 14.5t-14.5 34.5t14.5 34.5t34.5 14.5t34 -14.5t14 -34.5t-14 -34.5t-34 -14.5zM360 -10q-116 0 -196.5 75t-80.5 182v503h68v-493
q0 -86 61 -146t148 -60q88 0 149 60t61 146v493h67v-503q0 -107 -80.5 -182t-196.5 -75z" />
    <glyph glyph-name="Yacute" unicode="&#xdd;" horiz-adv-x="636" 
d="M454 1000l-105 -150h-56l92 150h69zM613 750l-261 -394v-356h-67v354l-262 396h76l219 -336l220 336h75z" />
    <glyph glyph-name="Thorn" unicode="&#xde;" horiz-adv-x="581" 
d="M340 647q86 0 146 -60.5t60 -146.5q0 -85 -60 -144.5t-146 -59.5h-194v-236h-66v647v99h66v-99h194zM338 295q62 0 104.5 42.5t42.5 104.5q0 61 -43 103.5t-104 42.5h-192v-293h192z" />
    <glyph glyph-name="germandbls" unicode="&#xdf;" horiz-adv-x="660" 
d="M458 381q58 -24 93.5 -75t35.5 -114q0 -84 -57.5 -143t-136.5 -59q-43 0 -88.5 18.5t-73.5 47.5l30 48q21 -22 54 -37t67 -15q56 1 97.5 42t41.5 101q0 61 -44 104t-107 43h-62v56h26q61 0 104 43.5t43 105.5t-44 103t-113 41q-71 0 -118 -42.5t-47 -107.5v-541h-65v541
q0 90 65 149.5t164 59.5q96 0 158.5 -57.5t62.5 -143.5q0 -107 -86 -168z" />
    <glyph glyph-name="agrave" unicode="&#xe0;" horiz-adv-x="536" 
d="M292 600h-56l-105 150h69zM259 510q88 0 143.5 -47t55.5 -136v-327h-59l-3 82q-95 -92 -199 -92q-67 0 -109.5 43t-42.5 110q0 76 61.5 117.5t187.5 16.5l100 -19v72q0 62 -38.5 92.5t-100.5 30.5q-105 0 -148 -77l-46 40q58 94 198 94zM211 49q92 0 183 93v65l-99 21
q-95 19 -139 -6.5t-44 -75.5q0 -43 27 -70t72 -27z" />
    <glyph glyph-name="aacute" unicode="&#xe1;" horiz-adv-x="536" 
d="M402 750l-105 -150h-56l92 150h69zM259 510q88 0 143.5 -47t55.5 -136v-327h-59l-3 82q-95 -92 -199 -92q-67 0 -109.5 43t-42.5 110q0 76 61.5 117.5t187.5 16.5l100 -19v72q0 62 -38.5 92.5t-100.5 30.5q-105 0 -148 -77l-46 40q58 94 198 94zM211 49q92 0 183 93v65
l-99 21q-95 19 -139 -6.5t-44 -75.5q0 -43 27 -70t72 -27z" />
    <glyph glyph-name="acircumflex" unicode="&#xe2;" horiz-adv-x="536" 
d="M267 716l-80 -137h-56l100 171h71l100 -171h-56zM259 510q88 0 143.5 -47t55.5 -136v-327h-59l-3 82q-95 -92 -199 -92q-67 0 -109.5 43t-42.5 110q0 76 61.5 117.5t187.5 16.5l100 -19v72q0 62 -38.5 92.5t-100.5 30.5q-105 0 -148 -77l-46 40q58 94 198 94zM211 49
q92 0 183 93v65l-99 21q-95 19 -139 -6.5t-44 -75.5q0 -43 27 -70t72 -27z" />
    <glyph glyph-name="atilde" unicode="&#xe3;" horiz-adv-x="536" 
d="M148 603h-44q-5 52 21 86t70 34q56 0 90 -53q20 -33 53 -33q25 0 39 21t10 55h43q6 -52 -20 -85.5t-71 -33.5q-57 0 -90 53q-20 33 -52 33q-26 0 -39.5 -21.5t-9.5 -55.5zM259 510q88 0 143.5 -47t55.5 -136v-327h-59l-3 82q-95 -92 -199 -92q-67 0 -109.5 43t-42.5 110
q0 76 61.5 117.5t187.5 16.5l100 -19v72q0 62 -38.5 92.5t-100.5 30.5q-105 0 -148 -77l-46 40q58 94 198 94zM211 49q92 0 183 93v65l-99 21q-95 19 -139 -6.5t-44 -75.5q0 -43 27 -70t72 -27z" />
    <glyph glyph-name="adieresis" unicode="&#xe4;" horiz-adv-x="536" 
d="M180 595q-20 0 -34.5 14.5t-14.5 34.5t14.5 34.5t34.5 14.5t34.5 -14.5t14.5 -34.5t-14.5 -34.5t-34.5 -14.5zM355 595q-20 0 -34.5 14.5t-14.5 34.5t14.5 34.5t34.5 14.5t34 -14.5t14 -34.5t-14 -34.5t-34 -14.5zM259 510q88 0 143.5 -47t55.5 -136v-327h-59l-3 82
q-95 -92 -199 -92q-67 0 -109.5 43t-42.5 110q0 76 61.5 117.5t187.5 16.5l100 -19v72q0 62 -38.5 92.5t-100.5 30.5q-105 0 -148 -77l-46 40q58 94 198 94zM211 49q92 0 183 93v65l-99 21q-95 19 -139 -6.5t-44 -75.5q0 -43 27 -70t72 -27z" />
    <glyph glyph-name="aring" unicode="&#xe5;" horiz-adv-x="536" 
d="M267 561q-40 0 -68.5 28.5t-28.5 67.5q0 40 28.5 68.5t68.5 28.5q39 0 67 -28.5t28 -68.5q0 -39 -28 -67.5t-67 -28.5zM267 721q-26 0 -44.5 -19t-18.5 -45t18.5 -44t44.5 -18t44 18t18 44t-18.5 45t-43.5 19zM259 510q88 0 143.5 -47t55.5 -136v-327h-59l-3 82
q-95 -92 -199 -92q-67 0 -109.5 43t-42.5 110q0 76 61.5 117.5t187.5 16.5l100 -19v72q0 62 -38.5 92.5t-100.5 30.5q-105 0 -148 -77l-46 40q58 94 198 94zM211 49q92 0 183 93v65l-99 21q-95 19 -139 -6.5t-44 -75.5q0 -43 27 -70t72 -27z" />
    <glyph glyph-name="ae" unicode="&#xe6;" horiz-adv-x="887" 
d="M845 254q0 -17 -1 -26h-400q5 -81 51.5 -130.5t122.5 -49.5q93 0 148 85l47 -33q-65 -110 -197 -110q-67 0 -119 30.5t-83 85.5q-105 -116 -220 -116q-67 0 -109.5 43t-42.5 110q0 76 61 117.5t188 16.5l88 -17q1 35 11 74q-1 60 -39.5 89.5t-99.5 29.5q-103 0 -148 -77
l-46 40q58 94 198 94q141 0 176 -91q67 91 185 91q104 0 166.5 -71.5t62.5 -184.5zM617 453q-73 0 -118.5 -47t-53.5 -126h340q-5 78 -50 125.5t-118 47.5zM207 49q91 0 188 100q-10 31 -14 60l-89 19q-95 19 -139.5 -6.5t-44.5 -75.5q0 -43 27 -70t72 -27z" />
    <glyph glyph-name="ccedilla" unicode="&#xe7;" horiz-adv-x="456" 
d="M283 453q-80 0 -128.5 -57.5t-48.5 -145.5q0 -87 48.5 -145t128.5 -58q78 0 129 56v-67q-51 -42 -125 -46l-28 -60q53 11 90.5 -15.5t37.5 -74.5q0 -42 -29 -71t-71 -29q-32 0 -65 17t-49 42l32 16q13 -16 36.5 -27.5t45.5 -11.5q27 0 45 18.5t18 45.5q0 38 -31 53
t-76 -1l-31 22l38 77q-95 10 -151.5 82t-56.5 177q0 112 64.5 186t170.5 74q77 0 135 -46v-68q-52 57 -129 57z" />
    <glyph glyph-name="egrave" unicode="&#xe8;" horiz-adv-x="549" 
d="M304 606h-56l-105 150h69zM508 254q0 -17 -1 -26h-401q6 -81 52.5 -130.5t122.5 -49.5q93 0 148 85l46 -33q-64 -110 -196 -110q-107 0 -172 74t-65 186t65 186t172 74q104 0 166.5 -71.5t62.5 -184.5zM280 453q-73 0 -119 -47.5t-54 -125.5h341q-7 78 -51.5 125.5
t-116.5 47.5z" />
    <glyph glyph-name="eacute" unicode="&#xe9;" horiz-adv-x="549" 
d="M415 756l-105 -150h-56l92 150h69zM508 254q0 -17 -1 -26h-401q6 -81 52.5 -130.5t122.5 -49.5q93 0 148 85l46 -33q-64 -110 -196 -110q-107 0 -172 74t-65 186t65 186t172 74q104 0 166.5 -71.5t62.5 -184.5zM280 453q-73 0 -119 -47.5t-54 -125.5h341
q-7 78 -51.5 125.5t-116.5 47.5z" />
    <glyph glyph-name="ecircumflex" unicode="&#xea;" horiz-adv-x="549" 
d="M280 722l-80 -137h-56l100 171h71l100 -171h-56zM508 254q0 -17 -1 -26h-401q6 -81 52.5 -130.5t122.5 -49.5q93 0 148 85l46 -33q-64 -110 -196 -110q-107 0 -172 74t-65 186t65 186t172 74q104 0 166.5 -71.5t62.5 -184.5zM280 453q-73 0 -119 -47.5t-54 -125.5h341
q-7 78 -51.5 125.5t-116.5 47.5z" />
    <glyph glyph-name="edieresis" unicode="&#xeb;" horiz-adv-x="549" 
d="M192 601q-20 0 -34.5 14.5t-14.5 34.5t14.5 34.5t34.5 14.5t34.5 -14.5t14.5 -34.5t-14.5 -34.5t-34.5 -14.5zM367 601q-20 0 -34.5 14.5t-14.5 34.5t14.5 34.5t34.5 14.5t34 -14.5t14 -34.5t-14 -34.5t-34 -14.5zM508 254q0 -17 -1 -26h-401q6 -81 52.5 -130.5
t122.5 -49.5q93 0 148 85l46 -33q-64 -110 -196 -110q-107 0 -172 74t-65 186t65 186t172 74q104 0 166.5 -71.5t62.5 -184.5zM280 453q-73 0 -119 -47.5t-54 -125.5h341q-7 78 -51.5 125.5t-116.5 47.5z" />
    <glyph glyph-name="igrave" unicode="&#xec;" horiz-adv-x="226" 
d="M82 600l-106 150h70l92 -150h-56zM80 0v500h66v-500h-66z" />
    <glyph glyph-name="iacute" unicode="&#xed;" horiz-adv-x="226" 
d="M88 600l92 150h69l-105 -150h-56zM80 0v500h66v-500h-66z" />
    <glyph glyph-name="icircumflex" unicode="&#xee;" horiz-adv-x="226" 
d="M-24 579l101 171h71l100 -171h-56l-79 137l-80 -137h-57zM80 0v500h66v-500h-66z" />
    <glyph glyph-name="idieresis" unicode="&#xef;" horiz-adv-x="226" 
d="M26 595q-20 0 -35 14.5t-15 34.5t15 34.5t35 14.5t34.5 -14.5t14.5 -34.5t-14.5 -34.5t-34.5 -14.5zM201 595q-20 0 -34.5 14.5t-14.5 34.5t14.5 34.5t34.5 14.5t34 -14.5t14 -34.5t-14 -34.5t-34 -14.5zM80 0v500h66v-500h-66z" />
    <glyph glyph-name="eth" unicode="&#xf0;" horiz-adv-x="618" 
d="M395 681q83 -70 131.5 -183t48.5 -248q0 -108 -78 -184t-189 -76q-110 0 -188 76t-78 184t78 184t188 76q98 0 172 -61q-38 118 -120 187l-56 -71l-25 21l55 69q-77 51 -167 53l11 54q103 0 191 -61l47 59l25 -20zM308 49q83 0 142 59t59 142q0 84 -59 142.5t-142 58.5
t-142 -58.5t-59 -142.5q0 -83 59 -142t142 -59z" />
    <glyph glyph-name="ntilde" unicode="&#xf1;" horiz-adv-x="582" 
d="M173 603h-44q-5 52 21 86t70 34q56 0 90 -53q20 -33 53 -33q25 0 39 21t10 55h43q6 -52 -20 -85.5t-71 -33.5q-57 0 -90 53q-20 33 -52 33q-26 0 -39.5 -21.5t-9.5 -55.5zM310 510q83 0 138.5 -55.5t55.5 -138.5v-316h-66v310q0 59 -41.5 100t-102.5 41q-62 0 -105 -42
t-43 -102v-307h-66v500h61l3 -75q59 85 166 85z" />
    <glyph glyph-name="ograve" unicode="&#xf2;" horiz-adv-x="565" 
d="M251 600l-105 150h69l92 -150h-56zM282 -10q-106 0 -173 75t-67 185t67 185t173 75t173.5 -75t67.5 -185t-67.5 -185t-173.5 -75zM282 49q79 0 127.5 58t48.5 143q0 86 -48.5 143.5t-127.5 57.5t-127.5 -57.5t-48.5 -143.5q0 -85 48.5 -143t127.5 -58z" />
    <glyph glyph-name="oacute" unicode="&#xf3;" horiz-adv-x="565" 
d="M257 600l92 150h69l-105 -150h-56zM282 -10q-106 0 -173 75t-67 185t67 185t173 75t173.5 -75t67.5 -185t-67.5 -185t-173.5 -75zM282 49q79 0 127.5 58t48.5 143q0 86 -48.5 143.5t-127.5 57.5t-127.5 -57.5t-48.5 -143.5q0 -85 48.5 -143t127.5 -58z" />
    <glyph glyph-name="ocircumflex" unicode="&#xf4;" horiz-adv-x="565" 
d="M147 579l100 171h71l100 -171h-56l-79 137l-80 -137h-56zM282 -10q-106 0 -173 75t-67 185t67 185t173 75t173.5 -75t67.5 -185t-67.5 -185t-173.5 -75zM282 49q79 0 127.5 58t48.5 143q0 86 -48.5 143.5t-127.5 57.5t-127.5 -57.5t-48.5 -143.5q0 -85 48.5 -143
t127.5 -58z" />
    <glyph glyph-name="otilde" unicode="&#xf5;" horiz-adv-x="565" 
d="M354 594q-57 0 -90 53q-20 33 -52 33q-26 0 -39.5 -21.5t-9.5 -55.5h-44q-5 52 21 86t70 34q56 0 90 -53q20 -33 53 -33q25 0 39 21t10 55h43q6 -52 -20 -85.5t-71 -33.5zM282 -10q-106 0 -173 75t-67 185t67 185t173 75t173.5 -75t67.5 -185t-67.5 -185t-173.5 -75z
M282 49q79 0 127.5 58t48.5 143q0 86 -48.5 143.5t-127.5 57.5t-127.5 -57.5t-48.5 -143.5q0 -85 48.5 -143t127.5 -58z" />
    <glyph glyph-name="odieresis" unicode="&#xf6;" horiz-adv-x="565" 
d="M195 595q-20 0 -34.5 14.5t-14.5 34.5t14.5 34.5t34.5 14.5t34.5 -14.5t14.5 -34.5t-14.5 -34.5t-34.5 -14.5zM370 595q-20 0 -34.5 14.5t-14.5 34.5t14.5 34.5t34.5 14.5t34 -14.5t14 -34.5t-14 -34.5t-34 -14.5zM282 -10q-106 0 -173 75t-67 185t67 185t173 75
t173.5 -75t67.5 -185t-67.5 -185t-173.5 -75zM282 49q79 0 127.5 58t48.5 143q0 86 -48.5 143.5t-127.5 57.5t-127.5 -57.5t-48.5 -143.5q0 -85 48.5 -143t127.5 -58z" />
    <glyph glyph-name="divide" unicode="&#xf7;" horiz-adv-x="727" 
d="M364 400q-18 0 -32 13t-14 32t14 32.5t32 13.5t32 -13.5t14 -32.5t-14 -32t-32 -13zM64 256v39h600v-39h-600zM364 60q-18 0 -32 13t-14 32t14 32.5t32 13.5t32 -13.5t14 -32.5t-14 -32t-32 -13z" />
    <glyph glyph-name="oslash" unicode="&#xf8;" horiz-adv-x="565" 
d="M439 452q84 -76 84 -202q0 -110 -67.5 -185t-173.5 -75q-72 0 -131 38l-39 -58h-38l53 77q-85 76 -85 203q0 110 67 185t173 75q74 0 132 -39l40 58h37zM106 250q0 -93 56 -151l218 321q-42 31 -98 31q-79 0 -127.5 -57.5t-48.5 -143.5zM282 49q79 0 127.5 58t48.5 143
q0 92 -55 150l-217 -322q42 -29 96 -29z" />
    <glyph glyph-name="ugrave" unicode="&#xf9;" horiz-adv-x="585" 
d="M318 600h-56l-105 150h69zM440 500h65v-500h-60l-4 76q-27 -40 -70.5 -63t-92.5 -23q-82 0 -139.5 57.5t-57.5 139.5v313h66v-306q0 -60 42 -102.5t103 -42.5t104.5 42.5t43.5 102.5v306z" />
    <glyph glyph-name="uacute" unicode="&#xfa;" horiz-adv-x="585" 
d="M429 750l-105 -150h-56l92 150h69zM440 500h65v-500h-60l-4 76q-27 -40 -70.5 -63t-92.5 -23q-82 0 -139.5 57.5t-57.5 139.5v313h66v-306q0 -60 42 -102.5t103 -42.5t104.5 42.5t43.5 102.5v306z" />
    <glyph glyph-name="ucircumflex" unicode="&#xfb;" horiz-adv-x="585" 
d="M294 716l-80 -137h-56l100 171h71l100 -171h-56zM440 500h65v-500h-60l-4 76q-27 -40 -70.5 -63t-92.5 -23q-82 0 -139.5 57.5t-57.5 139.5v313h66v-306q0 -60 42 -102.5t103 -42.5t104.5 42.5t43.5 102.5v306z" />
    <glyph glyph-name="udieresis" unicode="&#xfc;" horiz-adv-x="585" 
d="M206 595q-20 0 -34.5 14.5t-14.5 34.5t14.5 34.5t34.5 14.5t34.5 -14.5t14.5 -34.5t-14.5 -34.5t-34.5 -14.5zM381 595q-20 0 -34.5 14.5t-14.5 34.5t14.5 34.5t34.5 14.5t34 -14.5t14 -34.5t-14 -34.5t-34 -14.5zM440 500h65v-500h-60l-4 76q-27 -40 -70.5 -63
t-92.5 -23q-82 0 -139.5 57.5t-57.5 139.5v313h66v-306q0 -60 42 -102.5t103 -42.5t104.5 42.5t43.5 102.5v306z" />
    <glyph glyph-name="yacute" unicode="&#xfd;" horiz-adv-x="586" 
d="M429 750l-105 -150h-56l92 150h69zM505 500l1 -525q0 -103 -56.5 -167.5t-167.5 -64.5q-102 0 -176 55v74q73 -70 180 -70q79 0 116.5 46t37.5 127v98q-28 -38 -70.5 -60.5t-91.5 -22.5q-82 0 -139.5 57.5t-57.5 139.5v313h66v-306q0 -60 42 -102.5t103 -42.5t104.5 42.5
t43.5 102.5v306h65z" />
    <glyph glyph-name="thorn" unicode="&#xfe;" horiz-adv-x="651" 
d="M355 510q106 0 180.5 -76t74.5 -184t-74.5 -184t-180.5 -76q-66 0 -121 32t-88 87v-358h-66v999h66v-359q33 55 88 87t121 32zM347 49q83 0 142 59t59 142q0 84 -59 142.5t-142 58.5t-142 -58.5t-59 -142.5q0 -83 59 -142t142 -59z" />
    <glyph glyph-name="ydieresis" unicode="&#xff;" horiz-adv-x="586" 
d="M206 595q-20 0 -34.5 14.5t-14.5 34.5t14.5 34.5t34.5 14.5t34.5 -14.5t14.5 -34.5t-14.5 -34.5t-34.5 -14.5zM381 595q-20 0 -34.5 14.5t-14.5 34.5t14.5 34.5t34.5 14.5t34 -14.5t14 -34.5t-14 -34.5t-34 -14.5zM505 500l1 -525q0 -103 -56.5 -167.5t-167.5 -64.5
q-102 0 -176 55v74q73 -70 180 -70q79 0 116.5 46t37.5 127v98q-28 -38 -70.5 -60.5t-91.5 -22.5q-82 0 -139.5 57.5t-57.5 139.5v313h66v-306q0 -60 42 -102.5t103 -42.5t104.5 42.5t43.5 102.5v306h65z" />
    <glyph glyph-name="Amacron" unicode="&#x100;" horiz-adv-x="723" 
d="M517 903v-46h-310v46h310zM626 0l-63 163h-403l-63 -163h-74l301 750h75l301 -750h-74zM183 221h357l-179 458z" />
    <glyph glyph-name="amacron" unicode="&#x101;" horiz-adv-x="536" 
d="M422 653v-46h-310v46h310zM259 510q88 0 143.5 -47t55.5 -136v-327h-59l-3 82q-95 -92 -199 -92q-67 0 -109.5 43t-42.5 110q0 76 61.5 117.5t187.5 16.5l100 -19v72q0 62 -38.5 92.5t-100.5 30.5q-105 0 -148 -77l-46 40q58 94 198 94zM211 49q92 0 183 93v65l-99 21
q-95 19 -139 -6.5t-44 -75.5q0 -43 27 -70t72 -27z" />
    <glyph glyph-name="Abreve" unicode="&#x102;" horiz-adv-x="723" 
d="M361 819q-70 0 -115.5 41t-45.5 108h43q0 -44 34 -75t84 -31q51 0 85.5 31t34.5 75h42q0 -67 -45.5 -108t-116.5 -41zM626 0l-63 163h-403l-63 -163h-74l301 750h75l301 -750h-74zM183 221h357l-179 458z" />
    <glyph glyph-name="abreve" unicode="&#x103;" horiz-adv-x="536" 
d="M266 569q-70 0 -115.5 41t-45.5 108h43q0 -44 34 -75t84 -31q51 0 85.5 31t34.5 75h42q0 -67 -45.5 -108t-116.5 -41zM259 510q88 0 143.5 -47t55.5 -136v-327h-59l-3 82q-95 -92 -199 -92q-67 0 -109.5 43t-42.5 110q0 76 61.5 117.5t187.5 16.5l100 -19v72
q0 62 -38.5 92.5t-100.5 30.5q-105 0 -148 -77l-46 40q58 94 198 94zM211 49q92 0 183 93v65l-99 21q-95 19 -139 -6.5t-44 -75.5q0 -43 27 -70t72 -27z" />
    <glyph glyph-name="Aogonek" unicode="&#x104;" horiz-adv-x="723" 
d="M741 -178l23 -33q-52 -51 -129 -49q-49 2 -77.5 29t-28.5 73q0 84 115 158h-18l-63 163h-403l-63 -163h-74l301 750h75l301 -750h1q-48 -21 -86.5 -62.5t-38.5 -89.5q0 -31 18 -50t51 -19q58 0 96 43zM183 221h357l-179 458z" />
    <glyph glyph-name="aogonek" unicode="&#x105;" horiz-adv-x="536" 
d="M499 -178l23 -33q-52 -51 -129 -49q-49 2 -77.5 29t-28.5 73q0 84 115 158h-3l-3 82q-95 -92 -199 -92q-67 0 -109.5 43t-42.5 110q0 76 61.5 117.5t187.5 16.5l100 -19v72q0 62 -38.5 92.5t-100.5 30.5q-105 0 -148 -77l-46 40q58 94 198 94q88 0 143.5 -47t55.5 -136
v-327h1q-48 -21 -86.5 -62.5t-38.5 -89.5q0 -31 18 -50t51 -19q58 0 96 43zM211 49q92 0 183 93v65l-99 21q-95 19 -139 -6.5t-44 -75.5q0 -43 27 -70t72 -27z" />
    <glyph glyph-name="Cacute" unicode="&#x106;" horiz-adv-x="682" 
d="M394 850l92 150h69l-105 -150h-56zM419 -10q-158 0 -262 111.5t-104 273.5t104 273.5t262 111.5q122 0 216 -78v-83q-91 97 -216 97q-132 0 -217 -92.5t-85 -228.5q0 -135 85 -227.5t217 -92.5q127 0 216 96v-82q-95 -79 -216 -79z" />
    <glyph glyph-name="cacute" unicode="&#x107;" horiz-adv-x="456" 
d="M247 600l92 150h69l-105 -150h-56zM277 -10q-106 0 -170.5 74t-64.5 186t64.5 186t170.5 74q77 0 135 -46v-68q-52 57 -129 57q-80 0 -128.5 -57.5t-48.5 -145.5q0 -87 48.5 -145t128.5 -58q78 0 129 56v-67q-56 -46 -135 -46z" />
    <glyph glyph-name="Cdotaccent" unicode="&#x10a;" horiz-adv-x="682" 
d="M420 845q-20 0 -34.5 14.5t-14.5 34.5t14.5 34.5t34.5 14.5t34.5 -14.5t14.5 -34.5t-14.5 -34.5t-34.5 -14.5zM419 -10q-158 0 -262 111.5t-104 273.5t104 273.5t262 111.5q122 0 216 -78v-83q-91 97 -216 97q-132 0 -217 -92.5t-85 -228.5q0 -135 85 -227.5t217 -92.5
q127 0 216 96v-82q-95 -79 -216 -79z" />
    <glyph glyph-name="cdotaccent" unicode="&#x10b;" horiz-adv-x="456" 
d="M273 595q-20 0 -34.5 14.5t-14.5 34.5t14.5 34.5t34.5 14.5t34.5 -14.5t14.5 -34.5t-14.5 -34.5t-34.5 -14.5zM277 -10q-106 0 -170.5 74t-64.5 186t64.5 186t170.5 74q77 0 135 -46v-68q-52 57 -129 57q-80 0 -128.5 -57.5t-48.5 -145.5q0 -87 48.5 -145t128.5 -58
q78 0 129 56v-67q-56 -46 -135 -46z" />
    <glyph glyph-name="Ccaron" unicode="&#x10c;" horiz-adv-x="682" 
d="M384 829l-100 171h54l82 -133l81 133h54l-100 -171h-71zM419 -10q-158 0 -262 111.5t-104 273.5t104 273.5t262 111.5q122 0 216 -78v-83q-91 97 -216 97q-132 0 -217 -92.5t-85 -228.5q0 -135 85 -227.5t217 -92.5q127 0 216 96v-82q-95 -79 -216 -79z" />
    <glyph glyph-name="ccaron" unicode="&#x10d;" horiz-adv-x="456" 
d="M237 579l-100 171h54l82 -133l81 133h54l-100 -171h-71zM277 -10q-106 0 -170.5 74t-64.5 186t64.5 186t170.5 74q77 0 135 -46v-68q-52 57 -129 57q-80 0 -128.5 -57.5t-48.5 -145.5q0 -87 48.5 -145t128.5 -58q78 0 129 56v-67q-56 -46 -135 -46z" />
    <glyph glyph-name="Dcaron" unicode="&#x10e;" horiz-adv-x="707" 
d="M243 829l-100 171h54l82 -133l81 133h54l-100 -171h-71zM80 0v750h199q155 0 265 -110t110 -265t-110 -265t-265 -110h-199zM147 61h131q129 0 218.5 91.5t89.5 222.5t-89.5 223t-218.5 92h-131v-629z" />
    <glyph glyph-name="dcaron" unicode="&#x10f;" horiz-adv-x="749" 
d="M695 753q29 0 44 -28t15 -71q0 -65 -29 -121.5t-75 -57.5v35q24 1 42 40t18 74q0 32 -16 32q-20 0 -34 14t-14 35q0 20 14 34t35 14zM454 413v337h64v-750h-59l-4 90q-66 -100 -182 -100q-103 0 -167 75t-64 185q0 111 64 185.5t167 74.5q115 0 181 -97zM282 49
q65 0 111.5 43t60.5 111v94q-14 68 -60.5 111t-111.5 43q-79 0 -127.5 -57.5t-48.5 -143.5q0 -85 48.5 -143t127.5 -58z" />
    <glyph glyph-name="Dcroat" unicode="&#x110;" horiz-adv-x="707" 
d="M279 750q155 0 265 -110t110 -265t-110 -265t-265 -110h-199v351h-78v49h78v350h199zM278 61q129 0 218.5 91.5t89.5 222.5t-89.5 223t-218.5 92h-131v-290h137v-49h-137v-290h131z" />
    <glyph glyph-name="dcroat" unicode="&#x111;" horiz-adv-x="598" 
d="M586 646v-49h-68v-597h-59l-4 90q-66 -100 -182 -100q-103 0 -167 75t-64 185q0 111 64 185.5t167 74.5q115 0 181 -97v184h-150v49h150v104h64v-104h68zM282 49q65 0 111.5 43t60.5 111v94q-14 68 -60.5 111t-111.5 43q-79 0 -127.5 -57.5t-48.5 -143.5q0 -85 48.5 -143
t127.5 -58z" />
    <glyph glyph-name="Emacron" unicode="&#x112;" horiz-adv-x="541" 
d="M437 903v-46h-310v46h310zM484 690h-336v-284h294v-61h-294v-284h336v-61h-404v750h404v-60z" />
    <glyph glyph-name="emacron" unicode="&#x113;" horiz-adv-x="549" 
d="M435 659v-46h-310v46h310zM508 254q0 -17 -1 -26h-401q6 -81 52.5 -130.5t122.5 -49.5q93 0 148 85l46 -33q-64 -110 -196 -110q-107 0 -172 74t-65 186t65 186t172 74q104 0 166.5 -71.5t62.5 -184.5zM280 453q-73 0 -119 -47.5t-54 -125.5h341q-7 78 -51.5 125.5
t-116.5 47.5z" />
    <glyph glyph-name="Edotaccent" unicode="&#x116;" horiz-adv-x="541" 
d="M282 845q-20 0 -34.5 14.5t-14.5 34.5t14.5 34.5t34.5 14.5t34.5 -14.5t14.5 -34.5t-14.5 -34.5t-34.5 -14.5zM484 690h-336v-284h294v-61h-294v-284h336v-61h-404v750h404v-60z" />
    <glyph glyph-name="edotaccent" unicode="&#x117;" horiz-adv-x="549" 
d="M280 601q-20 0 -34.5 14.5t-14.5 34.5t14.5 34.5t34.5 14.5t34.5 -14.5t14.5 -34.5t-14.5 -34.5t-34.5 -14.5zM508 254q0 -17 -1 -26h-401q6 -81 52.5 -130.5t122.5 -49.5q93 0 148 85l46 -33q-64 -110 -196 -110q-107 0 -172 74t-65 186t65 186t172 74
q104 0 166.5 -71.5t62.5 -184.5zM280 453q-73 0 -119 -47.5t-54 -125.5h341q-7 78 -51.5 125.5t-116.5 47.5z" />
    <glyph glyph-name="Eogonek" unicode="&#x118;" horiz-adv-x="541" 
d="M524 -178l23 -33q-52 -51 -129 -49q-49 2 -77.5 29t-28.5 73q0 84 115 158h-347v750h404v-60h-336v-284h294v-61h-294v-284h336v-61q-48 -21 -86.5 -62.5t-38.5 -89.5q0 -31 18 -50t51 -19q58 0 96 43z" />
    <glyph glyph-name="eogonek" unicode="&#x119;" horiz-adv-x="549" 
d="M492 -104l23 -33q-52 -51 -129 -49q-49 2 -77.5 29t-28.5 73q0 38 24 75q-8 -1 -25 -1q-107 0 -172 74t-65 186t65 186t172 74q104 0 166.5 -71.5t62.5 -184.5q0 -17 -1 -26h-401q6 -81 52.5 -130.5t122.5 -49.5q93 0 148 85l46 -33q-42 -72 -117 -98q-31 -40 -31 -80
q0 -31 18 -50t51 -19q58 0 96 43zM280 453q-73 0 -119 -47.5t-54 -125.5h341q-7 78 -51.5 125.5t-116.5 47.5z" />
    <glyph glyph-name="Ecaron" unicode="&#x11a;" horiz-adv-x="541" 
d="M317 829h-71l-100 171h54l82 -133l81 133h54zM484 690h-336v-284h294v-61h-294v-284h336v-61h-404v750h404v-60z" />
    <glyph glyph-name="ecaron" unicode="&#x11b;" horiz-adv-x="549" 
d="M315 585h-71l-100 171h54l82 -133l81 133h54zM508 254q0 -17 -1 -26h-401q6 -81 52.5 -130.5t122.5 -49.5q93 0 148 85l46 -33q-64 -110 -196 -110q-107 0 -172 74t-65 186t65 186t172 74q104 0 166.5 -71.5t62.5 -184.5zM280 453q-73 0 -119 -47.5t-54 -125.5h341
q-7 78 -51.5 125.5t-116.5 47.5z" />
    <glyph glyph-name="Gbreve" unicode="&#x11e;" horiz-adv-x="736" 
d="M450 819q-70 0 -115.5 41t-45.5 108h43q0 -44 34 -75t84 -31q51 0 85.5 31t34.5 75h42q0 -67 -45.5 -108t-116.5 -41zM449 696q-132 0 -222.5 -91t-90.5 -232q0 -140 90.5 -231t221.5 -91q79 0 147 37v238h-194v61h255v-338q-97 -63 -209 -63q-157 0 -265.5 110
t-108.5 277t109 277t264 110q115 0 210 -62v-85q-85 83 -207 83z" />
    <glyph glyph-name="gbreve" unicode="&#x11f;" horiz-adv-x="598" 
d="M279 569q-70 0 -115.5 41t-45.5 108h43q0 -44 34 -75t84 -31q51 0 85.5 31t34.5 75h42q0 -67 -45.5 -108t-116.5 -41zM459 500h59v-493q0 -110 -65.5 -183.5t-169.5 -73.5q-88 0 -156 55v74q67 -70 160 -70q72 0 119.5 55.5t47.5 142.5v83q-67 -100 -181 -100
q-103 0 -167 75t-64 185q0 111 64 185.5t167 74.5q116 0 182 -102zM282 49q63 0 110.5 44t61.5 112v91q-14 67 -62 111t-110 44q-79 0 -127.5 -57.5t-48.5 -143.5q0 -85 48.5 -143t127.5 -58z" />
    <glyph glyph-name="Gdotaccent" unicode="&#x120;" horiz-adv-x="736" 
d="M451 845q-20 0 -34.5 14.5t-14.5 34.5t14.5 34.5t34.5 14.5t34.5 -14.5t14.5 -34.5t-14.5 -34.5t-34.5 -14.5zM449 696q-132 0 -222.5 -91t-90.5 -232q0 -140 90.5 -231t221.5 -91q79 0 147 37v238h-194v61h255v-338q-97 -63 -209 -63q-157 0 -265.5 110t-108.5 277
t109 277t264 110q115 0 210 -62v-85q-85 83 -207 83z" />
    <glyph glyph-name="gdotaccent" unicode="&#x121;" horiz-adv-x="598" 
d="M280 595q-20 0 -34.5 14.5t-14.5 34.5t14.5 34.5t34.5 14.5t34.5 -14.5t14.5 -34.5t-14.5 -34.5t-34.5 -14.5zM459 500h59v-493q0 -110 -65.5 -183.5t-169.5 -73.5q-88 0 -156 55v74q67 -70 160 -70q72 0 119.5 55.5t47.5 142.5v83q-67 -100 -181 -100q-103 0 -167 75
t-64 185q0 111 64 185.5t167 74.5q116 0 182 -102zM282 49q63 0 110.5 44t61.5 112v91q-14 67 -62 111t-110 44q-79 0 -127.5 -57.5t-48.5 -143.5q0 -85 48.5 -143t127.5 -58z" />
    <glyph glyph-name="Gcommaaccent" unicode="&#x122;" horiz-adv-x="736" 
d="M449 696q-132 0 -222.5 -91t-90.5 -232q0 -140 90.5 -231t221.5 -91q79 0 147 37v238h-194v61h255v-338q-97 -63 -209 -63q-157 0 -265.5 110t-108.5 277t109 277t264 110q115 0 210 -62v-85q-85 83 -207 83zM446 -40q21 0 35 -15t14 -38q1 -60 -24 -106.5t-70 -45.5v29
q23 0 37 20.5t13 37.5t-5 20q-21 0 -35 13.5t-14 35.5q0 21 14 35t35 14z" />
    <glyph glyph-name="gcommaaccent" unicode="&#x123;" horiz-adv-x="598" 
d="M280 590q-21 0 -35 15t-14 37q-1 54 29 101.5t65 51.5v-29q-20 -6 -33.5 -26.5t-14.5 -34.5t3 -17q20 0 34.5 -14t14.5 -35q0 -20 -14.5 -34.5t-34.5 -14.5zM459 500h59v-493q0 -110 -65.5 -183.5t-169.5 -73.5q-88 0 -156 55v74q67 -70 160 -70q72 0 119.5 55.5
t47.5 142.5v83q-67 -100 -181 -100q-103 0 -167 75t-64 185q0 111 64 185.5t167 74.5q116 0 182 -102zM282 49q63 0 110.5 44t61.5 112v91q-14 67 -62 111t-110 44q-79 0 -127.5 -57.5t-48.5 -143.5q0 -85 48.5 -143t127.5 -58z" />
    <glyph glyph-name="Hbar" unicode="&#x126;" horiz-adv-x="724" 
d="M715 601v-33h-71v-568h-67v345h-429v-345h-68v568h-72v33h72v149h68v-149h429v149h67v-149h71zM577 406v162h-429v-162h429z" />
    <glyph glyph-name="hbar" unicode="&#x127;" horiz-adv-x="582" 
d="M310 510q83 0 138.5 -55.5t55.5 -138.5v-316h-66v310q0 59 -41.5 100t-102.5 41q-62 0 -105 -42t-43 -102v-307h-66v600h-53v49h53v101h66v-101h163v-49h-163v-173q59 83 164 83z" />
    <glyph glyph-name="Itilde" unicode="&#x128;" horiz-adv-x="228" 
d="M185 844q-57 0 -90 53q-20 33 -52 33q-26 0 -40 -21.5t-10 -55.5h-44q-5 52 21.5 86t70.5 34q56 0 90 -53q20 -33 53 -33q25 0 39 21t10 55h43q6 -52 -20 -85.5t-71 -33.5zM80 0v750h68v-750h-68z" />
    <glyph glyph-name="itilde" unicode="&#x129;" horiz-adv-x="226" 
d="M185 594q-57 0 -90 53q-20 33 -52 33q-26 0 -40 -21.5t-10 -55.5h-44q-5 52 21.5 86t70.5 34q56 0 90 -53q20 -33 53 -33q25 0 39 21t10 55h43q6 -52 -20 -85.5t-71 -33.5zM80 0v500h66v-500h-66z" />
    <glyph glyph-name="Imacron" unicode="&#x12a;" horiz-adv-x="228" 
d="M-42 857v46h311v-46h-311zM80 0v750h68v-750h-68z" />
    <glyph glyph-name="imacron" unicode="&#x12b;" horiz-adv-x="226" 
d="M-43 607v46h311v-46h-311zM80 0v500h66v-500h-66z" />
    <glyph glyph-name="Iogonek" unicode="&#x12e;" horiz-adv-x="228" 
d="M182 -178l23 -33q-52 -51 -129 -49q-49 2 -78 29t-29 73q0 83 116 158h-5v750h68v-750h-6q-48 -21 -86.5 -62.5t-38.5 -89.5q0 -31 18 -50t51 -19q58 0 96 43z" />
    <glyph glyph-name="iogonek" unicode="&#x12f;" horiz-adv-x="226" 
d="M113 595q-20 0 -34.5 14.5t-14.5 34.5t14.5 34.5t34.5 14.5t34.5 -14.5t14.5 -34.5t-14.5 -34.5t-34.5 -14.5zM181 -178l23 -33q-52 -51 -129 -49q-49 2 -78 29t-29 73q0 83 116 158h-4v500h66v-500h-5q-48 -21 -86.5 -62.5t-38.5 -89.5q0 -31 18 -50t51 -19q58 0 96 43z
" />
    <glyph glyph-name="Idotaccent" unicode="&#x130;" horiz-adv-x="228" 
d="M114 845q-20 0 -34.5 14.5t-14.5 34.5t14.5 34.5t34.5 14.5t34.5 -14.5t14.5 -34.5t-14.5 -34.5t-34.5 -14.5zM80 0v750h68v-750h-68z" />
    <glyph glyph-name="dotlessi" unicode="&#x131;" horiz-adv-x="226" 
d="M80 0v500h66v-500h-66z" />
    <glyph glyph-name="IJ" unicode="&#x132;" horiz-adv-x="603" 
d="M80 0v750h68v-750h-68zM357 -10q-44 0 -75 9v70q33 -11 75 -11q39 0 67.5 28t28.5 68v596h67v-596q0 -68 -47.5 -116t-115.5 -48z" />
    <glyph glyph-name="ij" unicode="&#x133;" horiz-adv-x="522" 
d="M408 595q-20 0 -34.5 14.5t-14.5 34.5t14.5 34.5t34.5 14.5t34.5 -14.5t14.5 -34.5t-14.5 -34.5t-34.5 -14.5zM131 595q-20 0 -34.5 14.5t-14.5 34.5t14.5 34.5t34.5 14.5t34.5 -14.5t14.5 -34.5t-14.5 -34.5t-34.5 -14.5zM98 0v500h66v-500h-66zM302 -260q-38 0 -61 16
v59q24 -19 55 -19q33 0 56 24t23 58v622h66v-625q0 -56 -40.5 -95.5t-98.5 -39.5z" />
    <glyph glyph-name="Kcommaaccent" unicode="&#x136;" horiz-adv-x="589" 
d="M217 411l345 -341v-90l-414 410v-390h-68v750h68v-323l321 323h88zM301 -40q21 0 35 -15t14 -38q1 -60 -24 -106.5t-70 -45.5v29q23 0 37 20.5t13 37.5t-5 20q-21 0 -35 13.5t-14 35.5q0 21 14 35t35 14z" />
    <glyph glyph-name="kcommaaccent" unicode="&#x137;" horiz-adv-x="479" 
d="M211 280l264 -241v-82l-329 300v-256h-66v750h66v-454l225 203h85zM244 -40q21 0 35 -15t14 -38q1 -60 -24 -106.5t-70 -45.5v29q23 0 37 20.5t13 37.5t-5 20q-21 0 -35 13.5t-14 35.5q0 21 14 35t35 14z" />
    <glyph glyph-name="Lacute" unicode="&#x139;" horiz-adv-x="454" 
d="M88 850l92 150h69l-105 -150h-56zM80 0v750h68v-689h283v-61h-351z" />
    <glyph glyph-name="lacute" unicode="&#x13a;" horiz-adv-x="306" 
d="M86 850l92 150h69l-105 -150h-56zM215 -10q-60 0 -96 36t-36 94v630h65l1 -630q0 -35 17.5 -53.5t49.5 -18.5q33 0 53 21l37 -45q-34 -34 -91 -34z" />
    <glyph glyph-name="Lcommaaccent" unicode="&#x13b;" horiz-adv-x="454" 
d="M80 0v750h68v-689h283v-61h-351zM212 -245v29q23 0 37 20.5t13 37.5t-5 20q-21 0 -35 13.5t-14 35.5q0 21 14 35t35 14t35 -15t14 -38q1 -60 -24 -106.5t-70 -45.5z" />
    <glyph glyph-name="lcommaaccent" unicode="&#x13c;" horiz-adv-x="306" 
d="M215 -10q-60 0 -96 36t-36 94v630h65l1 -630q0 -35 17.5 -53.5t49.5 -18.5q33 0 53 21l37 -45q-34 -34 -91 -34zM154 -245v29q23 0 37 20.5t13 37.5t-5 20q-21 0 -35 13.5t-14 35.5q0 21 14 35t35 14t35 -15t14 -38q1 -60 -24 -106.5t-70 -45.5z" />
    <glyph glyph-name="Lcaron" unicode="&#x13d;" horiz-adv-x="467" 
d="M340 475v35q24 1 42 40t18 74q0 32 -16 32q-20 0 -34 14t-14 35q0 20 14 34t35 14q29 0 44 -28t15 -71q0 -65 -29 -121.5t-75 -57.5zM80 0v750h68v-689h283v-61h-351z" />
    <glyph glyph-name="lcaron" unicode="&#x13e;" horiz-adv-x="315" 
d="M221 475v35q24 1 42.5 40t18.5 74q0 32 -16 32q-20 0 -34.5 14t-14.5 35q0 20 14.5 34t34.5 14q29 0 44 -28t15 -71q0 -65 -29 -121.5t-75 -57.5zM215 -10q-60 0 -96 36t-36 94v630h65l1 -630q0 -35 17.5 -53.5t49.5 -18.5q33 0 53 21l37 -45q-34 -34 -91 -34z" />
    <glyph glyph-name="ldot" unicode="&#x140;" horiz-adv-x="306" 
d="M215 -10q-60 0 -96 36t-36 94v630h65l1 -630q0 -35 17.5 -53.5t49.5 -18.5q33 0 53 21l37 -45q-34 -34 -91 -34zM225 319q-17 0 -29 12t-12 29q0 16 12 28.5t29 12.5t29 -12.5t12 -28.5q0 -17 -12 -29t-29 -12z" />
    <glyph glyph-name="Lslash" unicode="&#x141;" horiz-adv-x="454" 
d="M148 61h283v-61h-351v312l-56 -59h-53l109 117v380h68v-308l55 60h56l-111 -118v-323z" />
    <glyph glyph-name="lslash" unicode="&#x142;" horiz-adv-x="306" 
d="M269 69l37 -45q-34 -34 -91 -34q-60 0 -96 36t-36 94v182l-62 -65h-53l115 123v390h65v-320l52 56h56l-108 -114l1 -252q0 -35 17.5 -53.5t49.5 -18.5q33 0 53 21z" />
    <glyph glyph-name="Nacute" unicode="&#x143;" horiz-adv-x="765" 
d="M515 1000l-105 -150h-56l92 150h69zM618 750h67v-750h-61l-476 636v-636h-68v750h61l477 -636v636z" />
    <glyph glyph-name="nacute" unicode="&#x144;" horiz-adv-x="582" 
d="M428 750l-105 -150h-56l92 150h69zM310 510q83 0 138.5 -55.5t55.5 -138.5v-316h-66v310q0 59 -41.5 100t-102.5 41q-62 0 -105 -42t-43 -102v-307h-66v500h61l3 -75q59 85 166 85z" />
    <glyph glyph-name="Ncommaaccent" unicode="&#x145;" horiz-adv-x="765" 
d="M618 750h67v-750h-61l-476 636v-636h-68v750h61l477 -636v636zM387 -40q21 0 35 -15t14 -38q1 -60 -24 -106.5t-70 -45.5v29q23 0 37 20.5t13 37.5t-5 20q-21 0 -35 13.5t-14 35.5q0 21 14 35t35 14z" />
    <glyph glyph-name="ncommaaccent" unicode="&#x146;" horiz-adv-x="582" 
d="M310 510q83 0 138.5 -55.5t55.5 -138.5v-316h-66v310q0 59 -41.5 100t-102.5 41q-62 0 -105 -42t-43 -102v-307h-66v500h61l3 -75q59 85 166 85zM293 -40q21 0 35 -15t14 -38q1 -60 -24 -106.5t-70 -45.5v29q23 0 37 20.5t13 37.5t-5 20q-21 0 -35 13.5t-14 35.5
q0 21 14 35t35 14z" />
    <glyph glyph-name="Ncaron" unicode="&#x147;" horiz-adv-x="765" 
d="M415 829h-71l-100 171h54l82 -133l81 133h54zM618 750h67v-750h-61l-476 636v-636h-68v750h61l477 -636v636z" />
    <glyph glyph-name="ncaron" unicode="&#x148;" horiz-adv-x="582" 
d="M328 579h-71l-100 171h54l82 -133l81 133h54zM310 510q83 0 138.5 -55.5t55.5 -138.5v-316h-66v310q0 59 -41.5 100t-102.5 41q-62 0 -105 -42t-43 -102v-307h-66v500h61l3 -75q59 85 166 85z" />
    <glyph glyph-name="Eng" unicode="&#x14a;" horiz-adv-x="790" 
d="M631 750h65v-834q0 -54 -37 -81.5t-94 -25.5v48q28 -2 46 11.5t18 47.5v96l-470 621v-633h-65v750h58l479 -633v633z" />
    <glyph glyph-name="eng" unicode="&#x14b;" horiz-adv-x="601" 
d="M322 510q82 0 139 -57.5t57 -139.5v-400q0 -54 -37.5 -81.5t-94.5 -25.5v47q66 -4 66 60v394q0 60 -42.5 102t-102.5 42q-62 0 -105 -42t-43 -102v-307h-65v500h65v-80q59 90 163 90z" />
    <glyph glyph-name="Omacron" unicode="&#x14c;" horiz-adv-x="838" 
d="M265 857v46h310v-46h-310zM419 -10q-158 0 -262 111.5t-104 273.5t104 273.5t262 111.5q157 0 261.5 -111.5t104.5 -273.5t-104.5 -273.5t-261.5 -111.5zM419 55q132 0 216.5 92.5t84.5 227.5q0 136 -84.5 228.5t-216.5 92.5t-217 -92.5t-85 -228.5q0 -135 85 -227.5
t217 -92.5z" />
    <glyph glyph-name="omacron" unicode="&#x14d;" horiz-adv-x="565" 
d="M128 607v46h310v-46h-310zM282 -10q-106 0 -173 75t-67 185t67 185t173 75t173.5 -75t67.5 -185t-67.5 -185t-173.5 -75zM282 49q79 0 127.5 58t48.5 143q0 86 -48.5 143.5t-127.5 57.5t-127.5 -57.5t-48.5 -143.5q0 -85 48.5 -143t127.5 -58z" />
    <glyph glyph-name="Ohungarumlaut" unicode="&#x150;" horiz-adv-x="838" 
d="M316 827l149 173h66l-163 -173h-52zM472 827l150 173h65l-162 -173h-53zM419 -10q-158 0 -262 111.5t-104 273.5t104 273.5t262 111.5q157 0 261.5 -111.5t104.5 -273.5t-104.5 -273.5t-261.5 -111.5zM419 55q132 0 216.5 92.5t84.5 227.5q0 136 -84.5 228.5t-216.5 92.5
t-217 -92.5t-85 -228.5q0 -135 85 -227.5t217 -92.5z" />
    <glyph glyph-name="ohungarumlaut" unicode="&#x151;" horiz-adv-x="565" 
d="M179 577l149 173h66l-163 -173h-52zM335 577l150 173h65l-162 -173h-53zM282 -10q-106 0 -173 75t-67 185t67 185t173 75t173.5 -75t67.5 -185t-67.5 -185t-173.5 -75zM282 49q79 0 127.5 58t48.5 143q0 86 -48.5 143.5t-127.5 57.5t-127.5 -57.5t-48.5 -143.5
q0 -85 48.5 -143t127.5 -58z" />
    <glyph glyph-name="OE" unicode="&#x152;" horiz-adv-x="1275" 
d="M1181 692h-337v-287h295v-59h-295v-287h337v-59h-394v174q-52 -85 -138.5 -134.5t-189.5 -49.5q-160 0 -272.5 112.5t-112.5 272.5t112.5 272.5t272.5 112.5q103 0 189.5 -49.5t138.5 -134.5v174h394v-58zM459 55q133 0 226.5 93.5t93.5 226.5t-93.5 226.5t-226.5 93.5
t-226.5 -93.5t-93.5 -226.5t93.5 -226.5t226.5 -93.5z" />
    <glyph glyph-name="oe" unicode="&#x153;" horiz-adv-x="967" 
d="M925 254q0 -17 -1 -26h-400q5 -81 51.5 -130.5t122.5 -49.5q93 0 148 85l47 -33q-65 -110 -197 -110q-70 0 -123.5 33t-82.5 91q-31 -58 -85 -91t-123 -33q-106 0 -173 75t-67 185t67 185t173 75q69 0 123 -33.5t85 -90.5q30 58 83 91t123 33q104 0 166.5 -71.5
t62.5 -184.5zM697 453q-73 0 -118.5 -47t-53.5 -126h340q-5 78 -50 125.5t-118 47.5zM282 49q79 0 127.5 58t48.5 143q0 86 -48.5 143.5t-127.5 57.5t-127.5 -57.5t-48.5 -143.5q0 -85 48.5 -143t127.5 -58z" />
    <glyph glyph-name="Racute" unicode="&#x154;" horiz-adv-x="579" 
d="M431 1000l-105 -150h-56l92 150h69zM372 345l192 -345h-76l-185 342h-155v-342h-68v750h261q86 0 146 -60.5t60 -146.5q0 -76 -50 -132t-125 -66zM148 399h191q61 0 103.5 42.5t42.5 103.5q0 60 -43 102.5t-103 42.5h-191v-291z" />
    <glyph glyph-name="racute" unicode="&#x155;" horiz-adv-x="378" 
d="M350 750l-105 -150h-56l92 150h69zM297 510q61 0 96 -24l-31 -48q-28 13 -68 13q-59 0 -103.5 -46t-44.5 -113v-292h-66v500h61l3 -82q27 42 67.5 67t85.5 25z" />
    <glyph glyph-name="Rcommaaccent" unicode="&#x156;" horiz-adv-x="579" 
d="M372 345l192 -345h-76l-185 342h-155v-342h-68v750h261q86 0 146 -60.5t60 -146.5q0 -76 -50 -132t-125 -66zM148 399h191q61 0 103.5 42.5t42.5 103.5q0 60 -43 102.5t-103 42.5h-191v-291zM297 -40q21 0 35 -15t14 -38q1 -60 -24 -106.5t-70 -45.5v29q23 0 37 20.5
t13 37.5t-5 20q-21 0 -35 13.5t-14 35.5q0 21 14 35t35 14z" />
    <glyph glyph-name="rcommaaccent" unicode="&#x157;" horiz-adv-x="378" 
d="M297 510q61 0 96 -24l-31 -48q-28 13 -68 13q-59 0 -103.5 -46t-44.5 -113v-292h-66v500h61l3 -82q27 42 67.5 67t85.5 25zM114 -40q21 0 35 -15t14 -38q1 -60 -24 -106.5t-70 -45.5v29q23 0 37 20.5t13 37.5t-5 20q-21 0 -35 13.5t-14 35.5q0 21 14 35t35 14z" />
    <glyph glyph-name="Rcaron" unicode="&#x158;" horiz-adv-x="579" 
d="M331 829h-71l-100 171h54l82 -133l81 133h54zM372 345l192 -345h-76l-185 342h-155v-342h-68v750h261q86 0 146 -60.5t60 -146.5q0 -76 -50 -132t-125 -66zM148 399h191q61 0 103.5 42.5t42.5 103.5q0 60 -43 102.5t-103 42.5h-191v-291z" />
    <glyph glyph-name="rcaron" unicode="&#x159;" horiz-adv-x="378" 
d="M250 579h-71l-100 171h54l82 -133l81 133h54zM297 510q61 0 96 -24l-31 -48q-28 13 -68 13q-59 0 -103.5 -46t-44.5 -113v-292h-66v500h61l3 -82q27 42 67.5 67t85.5 25z" />
    <glyph glyph-name="Sacute" unicode="&#x15a;" horiz-adv-x="622" 
d="M327 849l92 150h69l-105 -150h-56zM322 -10q-91 0 -164.5 40.5t-109.5 103.5l48 50q23 -56 85 -92.5t142 -36.5q78 0 128 34.5t50 103.5q0 30 -11.5 54.5t-26.5 40.5t-45.5 32.5t-51 25t-58.5 22.5q-43 16 -63 24.5t-54.5 27.5t-50.5 36.5t-29.5 46.5t-13.5 64
q0 93 65 143t160 50q76 0 137 -27t98 -71l-46 -47q-61 86 -189 86q-66 0 -111 -32.5t-45 -96.5q0 -30 13 -54t41.5 -42t52.5 -29t67 -27q47 -18 67.5 -26.5t58.5 -30t56 -41.5t33 -53t15 -73q0 -100 -69.5 -153t-178.5 -53z" />
    <glyph glyph-name="sacute" unicode="&#x15b;" horiz-adv-x="468" 
d="M214 600l92 150h69l-105 -150h-56zM239 -10q-62 0 -119 24t-81 60l38 42q17 -29 63.5 -49.5t95.5 -21.5q53 -1 88.5 22.5t35.5 65.5q0 17 -8 30.5t-16.5 22t-30 17.5t-32 12.5t-39.5 11.5q-7 2 -10 3q-29 8 -46.5 14t-41.5 18t-37 25.5t-23 35t-10 47.5q0 64 53 102
t123 38q46 0 90.5 -16t71.5 -40l-39 -45q-41 44 -112 47q-48 2 -84.5 -18.5t-36.5 -59.5q0 -41 31.5 -60.5t93.5 -35.5q34 -9 49.5 -14t43.5 -17.5t41 -26t24 -36t11 -51.5q0 -64 -53.5 -105.5t-133.5 -41.5z" />
    <glyph glyph-name="Scedilla" unicode="&#x15e;" horiz-adv-x="622" 
d="M322 -10q-2 0 -5.5 0.5t-4.5 0.5l-27 -60q53 11 90.5 -15.5t37.5 -74.5q0 -42 -29 -71t-71 -29q-32 0 -65 17t-49 42l32 16q13 -16 36.5 -27.5t45.5 -11.5q27 0 45 18.5t18 45.5q0 38 -31 53t-76 -1l-31 22l38 78q-76 10 -136.5 48t-91.5 93l48 50q23 -56 85 -92.5
t142 -36.5q78 0 128 34.5t50 103.5q0 30 -11.5 54.5t-26.5 40.5t-45.5 32.5t-51 25t-58.5 22.5q-43 16 -63 24.5t-54.5 27.5t-50.5 36.5t-29.5 46.5t-13.5 64q0 93 65 143t160 50q76 0 137 -27t98 -71l-46 -47q-61 86 -189 86q-66 0 -111 -32.5t-45 -96.5q0 -30 13 -54
t41.5 -42t52.5 -29t67 -27q47 -18 67.5 -26.5t58.5 -30t56 -41.5t33 -53t15 -73q0 -100 -69.5 -153t-178.5 -53z" />
    <glyph glyph-name="scedilla" unicode="&#x15f;" horiz-adv-x="468" 
d="M426 137q0 -61 -48 -101t-122 -45l-28 -61q53 11 90.5 -15.5t37.5 -74.5q0 -42 -29 -71t-71 -29q-32 0 -65 17t-49 42l32 16q13 -16 36.5 -27.5t45.5 -11.5q27 0 45 18.5t18 45.5q0 38 -31 53t-76 -1l-31 22l37 77q-57 4 -107 27t-72 56l38 42q17 -29 63.5 -49.5
t95.5 -21.5q53 -1 88.5 22.5t35.5 65.5q0 17 -8 30.5t-16.5 22t-30 17.5t-32 12.5t-39.5 11.5q-7 2 -10 3q-29 8 -46.5 14t-41.5 18t-37 25.5t-23 35t-10 47.5q0 64 53 102t123 38q46 0 90.5 -16t71.5 -40l-39 -45q-41 44 -112 47q-48 2 -84.5 -18.5t-36.5 -59.5
q0 -41 31.5 -60.5t93.5 -35.5q34 -9 49.5 -14t43.5 -17.5t41 -26t24 -36t11 -51.5z" />
    <glyph glyph-name="Scaron" unicode="&#x160;" horiz-adv-x="622" 
d="M317 828l-100 171h54l82 -133l81 133h54l-100 -171h-71zM322 -10q-91 0 -164.5 40.5t-109.5 103.5l48 50q23 -56 85 -92.5t142 -36.5q78 0 128 34.5t50 103.5q0 30 -11.5 54.5t-26.5 40.5t-45.5 32.5t-51 25t-58.5 22.5q-43 16 -63 24.5t-54.5 27.5t-50.5 36.5
t-29.5 46.5t-13.5 64q0 93 65 143t160 50q76 0 137 -27t98 -71l-46 -47q-61 86 -189 86q-66 0 -111 -32.5t-45 -96.5q0 -30 13 -54t41.5 -42t52.5 -29t67 -27q47 -18 67.5 -26.5t58.5 -30t56 -41.5t33 -53t15 -73q0 -100 -69.5 -153t-178.5 -53z" />
    <glyph glyph-name="scaron" unicode="&#x161;" horiz-adv-x="468" 
d="M204 579l-100 171h54l82 -133l81 133h54l-100 -171h-71zM239 -10q-62 0 -119 24t-81 60l38 42q17 -29 63.5 -49.5t95.5 -21.5q53 -1 88.5 22.5t35.5 65.5q0 17 -8 30.5t-16.5 22t-30 17.5t-32 12.5t-39.5 11.5q-7 2 -10 3q-29 8 -46.5 14t-41.5 18t-37 25.5t-23 35
t-10 47.5q0 64 53 102t123 38q46 0 90.5 -16t71.5 -40l-39 -45q-41 44 -112 47q-48 2 -84.5 -18.5t-36.5 -59.5q0 -41 31.5 -60.5t93.5 -35.5q34 -9 49.5 -14t43.5 -17.5t41 -26t24 -36t11 -51.5q0 -64 -53.5 -105.5t-133.5 -41.5z" />
    <glyph glyph-name="uni0162" unicode="&#x162;" horiz-adv-x="514" 
d="M14 751h487v-61h-210v-689h-67v689h-210v61zM243 -70q53 11 90.5 -15.5t37.5 -74.5q0 -42 -29 -71t-71 -29q-32 0 -65 17t-49 42l32 16q13 -16 36.5 -27.5t45.5 -11.5q27 0 45 18.5t18 45.5q0 38 -31 53t-76 -1l-31 22l42 86h37z" />
    <glyph glyph-name="uni0163" unicode="&#x163;" horiz-adv-x="321" 
d="M205 -70q53 11 90.5 -15.5t37.5 -74.5q0 -42 -29 -71t-71 -29q-32 0 -65 17t-49 42l32 16q13 -16 36.5 -27.5t45.5 -11.5q27 0 45 18.5t18 45.5q0 38 -31 53t-76 -1l-31 22l38 78q-47 9 -75 43.5t-28 84.5v328h-69v52h69v170h66v-170h129v-52h-129v-328q0 -35 18 -53.5
t50 -18.5t52 21l37 -45q-31 -31 -83 -34z" />
    <glyph glyph-name="Tcaron" unicode="&#x164;" horiz-adv-x="514" 
d="M292 829h-71l-100 171h54l82 -133l81 133h54zM501 751v-61h-210v-689h-67v689h-210v61h487z" />
    <glyph glyph-name="tcaron" unicode="&#x165;" horiz-adv-x="345" 
d="M301 717q-20 0 -34.5 14t-14.5 35q0 20 14.5 34t34.5 14q29 0 44 -28t15 -71q0 -65 -29 -121.5t-75 -57.5v35q24 1 42.5 40t18.5 74q0 32 -16 32zM227 48q32 0 52 21l37 -45q-34 -34 -91 -34q-60 0 -96 36t-36 94v328h-69v52h69v170h66v-170h129v-52h-129v-328
q0 -35 18 -53.5t50 -18.5z" />
    <glyph glyph-name="Tbar" unicode="&#x166;" horiz-adv-x="514" 
d="M501 690h-210v-290h107v-49h-107v-350h-67v350h-108v49h108v290h-210v61h487v-61z" />
    <glyph glyph-name="tbar" unicode="&#x167;" horiz-adv-x="321" 
d="M279 69l37 -45q-34 -34 -91 -34q-60 0 -96 36t-36 94v105h-67v49h67v174h-69v52h69v170h66v-170h129v-52h-129v-174h149v-49h-149v-105q0 -35 18 -53.5t50 -18.5t52 21z" />
    <glyph glyph-name="Utilde" unicode="&#x168;" horiz-adv-x="720" 
d="M432 844q-57 0 -90 53q-20 33 -52 33q-26 0 -39.5 -21.5t-9.5 -55.5h-44q-5 52 21 86t70 34q56 0 90 -53q20 -33 53 -33q25 0 39 21t10 55h43q6 -52 -20 -85.5t-71 -33.5zM360 -10q-116 0 -196.5 75t-80.5 182v503h68v-493q0 -86 61 -146t148 -60q88 0 149 60t61 146v493
h67v-503q0 -107 -80.5 -182t-196.5 -75z" />
    <glyph glyph-name="Umacron" unicode="&#x16a;" horiz-adv-x="720" 
d="M206 857v46h310v-46h-310zM360 -10q-116 0 -196.5 75t-80.5 182v503h68v-493q0 -86 61 -146t148 -60q88 0 149 60t61 146v493h67v-503q0 -107 -80.5 -182t-196.5 -75z" />
    <glyph glyph-name="umacron" unicode="&#x16b;" horiz-adv-x="585" 
d="M449 653v-46h-310v46h310zM440 500h65v-500h-60l-4 76q-27 -40 -70.5 -63t-92.5 -23q-82 0 -139.5 57.5t-57.5 139.5v313h66v-306q0 -60 42 -102.5t103 -42.5t104.5 42.5t43.5 102.5v306z" />
    <glyph glyph-name="Uring" unicode="&#x16e;" horiz-adv-x="720" 
d="M361 811q-40 0 -68.5 28.5t-28.5 67.5q0 40 28.5 68.5t68.5 28.5q39 0 67 -28.5t28 -68.5q0 -39 -28 -67.5t-67 -28.5zM361 845q26 0 44 18t18 44t-18.5 45t-43.5 19q-26 0 -44.5 -19t-18.5 -45t18.5 -44t44.5 -18zM360 -10q-116 0 -196.5 75t-80.5 182v503h68v-493
q0 -86 61 -146t148 -60q88 0 149 60t61 146v493h67v-503q0 -107 -80.5 -182t-196.5 -75z" />
    <glyph glyph-name="uring" unicode="&#x16f;" horiz-adv-x="585" 
d="M294 561q-40 0 -68.5 28.5t-28.5 67.5q0 40 28.5 68.5t68.5 28.5q39 0 67 -28.5t28 -68.5q0 -39 -28 -67.5t-67 -28.5zM294 721q-26 0 -44.5 -19t-18.5 -45t18.5 -44t44.5 -18t44 18t18 44t-18.5 45t-43.5 19zM440 500h65v-500h-60l-4 76q-27 -40 -70.5 -63t-92.5 -23
q-82 0 -139.5 57.5t-57.5 139.5v313h66v-306q0 -60 42 -102.5t103 -42.5t104.5 42.5t43.5 102.5v306z" />
    <glyph glyph-name="Uhungarumlaut" unicode="&#x170;" horiz-adv-x="720" 
d="M257 827l149 173h66l-163 -173h-52zM413 827l150 173h65l-162 -173h-53zM360 -10q-116 0 -196.5 75t-80.5 182v503h68v-493q0 -86 61 -146t148 -60q88 0 149 60t61 146v493h67v-503q0 -107 -80.5 -182t-196.5 -75z" />
    <glyph glyph-name="uhungarumlaut" unicode="&#x171;" horiz-adv-x="585" 
d="M405 750l-163 -173h-52l149 173h66zM399 577h-53l150 173h65zM440 194v306h65v-500h-60l-4 76q-27 -40 -70.5 -63t-92.5 -23q-82 0 -139.5 57.5t-57.5 139.5v313h66v-306q0 -60 42 -102.5t103 -42.5t104.5 42.5t43.5 102.5z" />
    <glyph glyph-name="Uogonek" unicode="&#x172;" horiz-adv-x="720" 
d="M570 750h67v-503q0 -88 -56.5 -156t-145.5 -92q-44 -23 -76.5 -61.5t-32.5 -82.5q0 -31 18 -50t51 -19q58 0 96 43l23 -33q-52 -51 -129 -49q-49 2 -77.5 29t-28.5 73q0 75 91 141h-10q-116 0 -196.5 75t-80.5 182v503h68v-493q0 -86 61 -146t148 -60q88 0 149 60t61 146
v493z" />
    <glyph glyph-name="uogonek" unicode="&#x173;" horiz-adv-x="585" 
d="M546 -178l23 -33q-52 -51 -129 -49q-49 2 -77.5 29t-28.5 73q0 84 115 158h-4l-4 76q-27 -40 -70.5 -63t-92.5 -23q-82 0 -139.5 57.5t-57.5 139.5v313h66v-306q0 -60 42 -102.5t103 -42.5t104.5 42.5t43.5 102.5v306h65v-500h1q-48 -21 -86.5 -62.5t-38.5 -89.5
q0 -31 18 -50t51 -19q58 0 96 43z" />
    <glyph glyph-name="Wcircumflex" unicode="&#x174;" horiz-adv-x="1046" 
d="M524 966l-80 -137h-56l100 171h71l100 -171h-56zM983 750h73l-317 -750h-73l-143 338l-142 -338h-73l-318 750h73l283 -669l143 338l-140 331h70l282 -670z" />
    <glyph glyph-name="wcircumflex" unicode="&#x175;" horiz-adv-x="701" 
d="M306 716l-80 -137h-56l100 171h71l100 -171h-56zM617 500h72l-171 -500h-73l-96 273l-92 -273h-72l-172 500h73l139 -421l94 281l-49 140h65l143 -423z" />
    <glyph glyph-name="Ycircumflex" unicode="&#x176;" horiz-adv-x="636" 
d="M319 966l-80 -137h-56l100 171h71l100 -171h-56zM613 750l-261 -394v-356h-67v354l-262 396h76l219 -336l220 336h75z" />
    <glyph glyph-name="ycircumflex" unicode="&#x177;" horiz-adv-x="586" 
d="M294 716l-80 -137h-56l100 171h71l100 -171h-56zM505 500l1 -525q0 -103 -56.5 -167.5t-167.5 -64.5q-102 0 -176 55v74q73 -70 180 -70q79 0 116.5 46t37.5 127v98q-28 -38 -70.5 -60.5t-91.5 -22.5q-82 0 -139.5 57.5t-57.5 139.5v313h66v-306q0 -60 42 -102.5
t103 -42.5t104.5 42.5t43.5 102.5v306h65z" />
    <glyph glyph-name="Ydieresis" unicode="&#x178;" horiz-adv-x="636" 
d="M232 845q-20 0 -34.5 14.5t-14.5 34.5t14.5 34.5t34.5 14.5t34.5 -14.5t14.5 -34.5t-14.5 -34.5t-34.5 -14.5zM407 845q-20 0 -34.5 14.5t-14.5 34.5t14.5 34.5t34.5 14.5t34 -14.5t14 -34.5t-14 -34.5t-34 -14.5zM613 750l-261 -394v-356h-67v354l-262 396h76l219 -336
l220 336h75z" />
    <glyph glyph-name="Zacute" unicode="&#x179;" horiz-adv-x="661" 
d="M467 1000l-105 -150h-56l92 150h69zM141 61h472v-61h-566v34l455 656h-444v60h538v-34z" />
    <glyph glyph-name="zacute" unicode="&#x17a;" horiz-adv-x="515" 
d="M242 600l92 150h69l-105 -150h-56zM42 0v44l331 400h-323v56h413v-41l-331 -403h341v-56h-431z" />
    <glyph glyph-name="Zdotaccent" unicode="&#x17b;" horiz-adv-x="661" 
d="M332 845q-20 0 -34.5 14.5t-14.5 34.5t14.5 34.5t34.5 14.5t34.5 -14.5t14.5 -34.5t-14.5 -34.5t-34.5 -14.5zM141 61h472v-61h-566v34l455 656h-444v60h538v-34z" />
    <glyph glyph-name="zdotaccent" unicode="&#x17c;" horiz-adv-x="515" 
d="M268 595q-20 0 -34.5 14.5t-14.5 34.5t14.5 34.5t34.5 14.5t34.5 -14.5t14.5 -34.5t-14.5 -34.5t-34.5 -14.5zM42 0v44l331 400h-323v56h413v-41l-331 -403h341v-56h-431z" />
    <glyph glyph-name="Zcaron" unicode="&#x17d;" horiz-adv-x="661" 
d="M367 829h-71l-100 171h54l82 -133l81 133h54zM141 61h472v-61h-566v34l455 656h-444v60h538v-34z" />
    <glyph glyph-name="zcaron" unicode="&#x17e;" horiz-adv-x="515" 
d="M232 579l-100 171h54l82 -133l81 133h54l-100 -171h-71zM42 0v44l331 400h-323v56h413v-41l-331 -403h341v-56h-431z" />
    <glyph glyph-name="florin" unicode="&#x192;" horiz-adv-x="418" 
d="M341 710q-37 0 -65.5 -25.5t-35.5 -65.5l-19 -119h142l-8 -52h-142l-111 -698h-60l110 698h-83l8 52h84l20 128q9 56 54 94t102 38q38 0 61 -17l-6 -51q-20 18 -51 18z" />
    <glyph glyph-name="uni01CD" unicode="&#x1cd;" horiz-adv-x="723" 
d="M397 829h-71l-100 171h54l82 -133l81 133h54zM626 0l-63 163h-403l-63 -163h-74l301 750h75l301 -750h-74zM183 221h357l-179 458z" />
    <glyph glyph-name="uni01CE" unicode="&#x1ce;" horiz-adv-x="536" 
d="M302 579h-71l-100 171h54l82 -133l81 133h54zM259 510q88 0 143.5 -47t55.5 -136v-327h-59l-3 82q-95 -92 -199 -92q-67 0 -109.5 43t-42.5 110q0 76 61.5 117.5t187.5 16.5l100 -19v72q0 62 -38.5 92.5t-100.5 30.5q-105 0 -148 -77l-46 40q58 94 198 94zM211 49
q92 0 183 93v65l-99 21q-95 19 -139 -6.5t-44 -75.5q0 -43 27 -70t72 -27z" />
    <glyph glyph-name="uni01CF" unicode="&#x1cf;" horiz-adv-x="228" 
d="M78 829l-101 171h55l82 -133l81 133h54l-100 -171h-71zM80 0v750h68v-750h-68z" />
    <glyph glyph-name="uni01D0" unicode="&#x1d0;" horiz-adv-x="226" 
d="M77 579l-101 171h55l82 -133l81 133h54l-100 -171h-71zM80 0v500h66v-500h-66z" />
    <glyph glyph-name="uni01D1" unicode="&#x1d1;" horiz-adv-x="838" 
d="M384 829l-100 171h54l82 -133l81 133h54l-100 -171h-71zM419 -10q-158 0 -262 111.5t-104 273.5t104 273.5t262 111.5q157 0 261.5 -111.5t104.5 -273.5t-104.5 -273.5t-261.5 -111.5zM419 55q132 0 216.5 92.5t84.5 227.5q0 136 -84.5 228.5t-216.5 92.5t-217 -92.5
t-85 -228.5q0 -135 85 -227.5t217 -92.5z" />
    <glyph glyph-name="uni01D2" unicode="&#x1d2;" horiz-adv-x="565" 
d="M247 579l-100 171h54l82 -133l81 133h54l-100 -171h-71zM282 -10q-106 0 -173 75t-67 185t67 185t173 75t173.5 -75t67.5 -185t-67.5 -185t-173.5 -75zM282 49q79 0 127.5 58t48.5 143q0 86 -48.5 143.5t-127.5 57.5t-127.5 -57.5t-48.5 -143.5q0 -85 48.5 -143
t127.5 -58z" />
    <glyph glyph-name="uni01D3" unicode="&#x1d3;" horiz-adv-x="720" 
d="M325 829l-100 171h54l82 -133l81 133h54l-100 -171h-71zM360 -10q-116 0 -196.5 75t-80.5 182v503h68v-493q0 -86 61 -146t148 -60q88 0 149 60t61 146v493h67v-503q0 -107 -80.5 -182t-196.5 -75z" />
    <glyph glyph-name="uni01D4" unicode="&#x1d4;" horiz-adv-x="585" 
d="M329 579h-71l-100 171h54l82 -133l81 133h54zM440 500h65v-500h-60l-4 76q-27 -40 -70.5 -63t-92.5 -23q-82 0 -139.5 57.5t-57.5 139.5v313h66v-306q0 -60 42 -102.5t103 -42.5t104.5 42.5t43.5 102.5v306z" />
    <glyph glyph-name="Gcaron" unicode="&#x1e6;" horiz-adv-x="736" 
d="M486 829h-71l-100 171h54l82 -133l81 133h54zM449 696q-132 0 -222.5 -91t-90.5 -232q0 -140 90.5 -231t221.5 -91q79 0 147 37v238h-194v61h255v-338q-97 -63 -209 -63q-157 0 -265.5 110t-108.5 277t109 277t264 110q115 0 210 -62v-85q-85 83 -207 83z" />
    <glyph glyph-name="gcaron" unicode="&#x1e7;" horiz-adv-x="598" 
d="M315 579h-71l-100 171h54l82 -133l81 133h54zM459 500h59v-493q0 -110 -65.5 -183.5t-169.5 -73.5q-88 0 -156 55v74q67 -70 160 -70q72 0 119.5 55.5t47.5 142.5v83q-67 -100 -181 -100q-103 0 -167 75t-64 185q0 111 64 185.5t167 74.5q116 0 182 -102zM282 49
q63 0 110.5 44t61.5 112v91q-14 67 -62 111t-110 44q-79 0 -127.5 -57.5t-48.5 -143.5q0 -85 48.5 -143t127.5 -58z" />
    <glyph glyph-name="Oslashacute" unicode="&#x1fe;" horiz-adv-x="838" 
d="M555 1000l-105 -150h-56l92 150h69zM651 677q63 -54 98.5 -133t35.5 -169q0 -162 -104.5 -273.5t-261.5 -111.5q-107 0 -195 56l-37 -54h-52l54 80q-64 53 -100 132t-36 171q0 162 104 273.5t262 111.5q110 0 198 -58l37 55h51zM117 375q0 -76 28.5 -141t79.5 -109
l356 524q-72 47 -162 47q-132 0 -217 -92.5t-85 -228.5zM419 55q132 0 216.5 92.5t84.5 227.5q0 156 -105 248l-355 -524q71 -44 159 -44z" />
    <glyph glyph-name="oslashacute" unicode="&#x1ff;" horiz-adv-x="565" 
d="M418 750l-105 -150h-56l92 150h69zM439 452q84 -76 84 -202q0 -110 -67.5 -185t-173.5 -75q-72 0 -131 38l-39 -58h-38l53 77q-85 76 -85 203q0 110 67 185t173 75q74 0 132 -39l40 58h37zM106 250q0 -93 56 -151l218 321q-42 31 -98 31q-79 0 -127.5 -57.5t-48.5 -143.5
zM282 49q79 0 127.5 58t48.5 143q0 92 -55 150l-217 -322q42 -29 96 -29z" />
    <glyph glyph-name="Scommaaccent" unicode="&#x218;" horiz-adv-x="622" 
d="M322 -10q-91 0 -164.5 40.5t-109.5 103.5l48 50q23 -56 85 -92.5t142 -36.5q78 0 128 34.5t50 103.5q0 30 -11.5 54.5t-26.5 40.5t-45.5 32.5t-51 25t-58.5 22.5q-43 16 -63 24.5t-54.5 27.5t-50.5 36.5t-29.5 46.5t-13.5 64q0 93 65 143t160 50q76 0 137 -27t98 -71
l-46 -47q-61 86 -189 86q-66 0 -111 -32.5t-45 -96.5q0 -30 13 -54t41.5 -42t52.5 -29t67 -27q47 -18 67.5 -26.5t58.5 -30t56 -41.5t33 -53t15 -73q0 -100 -69.5 -153t-178.5 -53zM254 -244v29q23 0 37 20.5t13 37.5t-5 20q-21 0 -35 13.5t-14 35.5q0 21 14 35t35 14
t35 -15t14 -38q1 -60 -24 -106.5t-70 -45.5z" />
    <glyph glyph-name="scommaaccent" unicode="&#x219;" horiz-adv-x="468" 
d="M239 -10q-62 0 -119 24t-81 60l38 42q17 -29 63.5 -49.5t95.5 -21.5q53 -1 88.5 22.5t35.5 65.5q0 17 -8 30.5t-16.5 22t-30 17.5t-32 12.5t-39.5 11.5q-7 2 -10 3q-29 8 -46.5 14t-41.5 18t-37 25.5t-23 35t-10 47.5q0 64 53 102t123 38q46 0 90.5 -16t71.5 -40l-39 -45
q-41 44 -112 47q-48 2 -84.5 -18.5t-36.5 -59.5q0 -41 31.5 -60.5t93.5 -35.5q34 -9 49.5 -14t43.5 -17.5t41 -26t24 -36t11 -51.5q0 -64 -53.5 -105.5t-133.5 -41.5zM198 -245v29q23 0 37 20.5t13 37.5t-5 20q-21 0 -35 13.5t-14 35.5q0 21 14 35t35 14t35 -15t14 -38
q1 -60 -24 -106.5t-70 -45.5z" />
    <glyph glyph-name="uni021A" unicode="&#x21a;" horiz-adv-x="514" 
d="M14 751h487v-61h-210v-689h-67v689h-210v61zM258 -40q21 0 35 -15t14 -38q1 -60 -24 -106.5t-70 -45.5v29q23 0 37 20.5t13 37.5t-5 20q-21 0 -35 13.5t-14 35.5q0 21 14 35t35 14z" />
    <glyph glyph-name="uni021B" unicode="&#x21b;" horiz-adv-x="321" 
d="M279 69l37 -45q-34 -34 -91 -34q-60 0 -96 36t-36 94v328h-69v52h69v170h66v-170h129v-52h-129v-328q0 -35 18 -53.5t50 -18.5t52 21zM219 -40q21 0 35 -15t14 -38q1 -60 -24 -106.5t-70 -45.5v29q23 0 37 20.5t13 37.5t-5 20q-21 0 -35 13.5t-14 35.5q0 21 14 35t35 14z
" />
    <glyph glyph-name="uni0228" unicode="&#x228;" horiz-adv-x="541" 
d="M484 690h-336v-284h294v-61h-294v-284h336v-61h-184l-32 -70q53 11 90.5 -15.5t37.5 -74.5q0 -42 -29 -71t-71 -29q-32 0 -65 17t-49 42l32 16q13 -16 36.5 -27.5t45.5 -11.5q27 0 45 18.5t18 45.5q0 38 -31 53t-76 -1l-31 22l42 86h-183v750h404v-60z" />
    <glyph glyph-name="uni0229" unicode="&#x229;" horiz-adv-x="549" 
d="M508 254q0 -17 -1 -26h-401q6 -81 52.5 -130.5t122.5 -49.5q93 0 148 85l46 -33q-59 -103 -181 -110l-28 -60q53 11 90.5 -15.5t37.5 -74.5q0 -42 -29 -71t-71 -29q-32 0 -65 17t-49 42l32 16q13 -16 36.5 -27.5t45.5 -11.5q27 0 45 18.5t18 45.5q0 38 -31 53t-76 -1
l-31 22l38 77q-98 8 -156.5 80t-58.5 179q0 112 65 186t172 74q104 0 166.5 -71.5t62.5 -184.5zM280 453q-73 0 -119 -47.5t-54 -125.5h341q-7 78 -51.5 125.5t-116.5 47.5z" />
    <glyph glyph-name="uni0237" unicode="&#x237;" horiz-adv-x="279" 
d="M44 -260q-39 0 -62 16v59q24 -19 56 -19q33 0 56 24t23 58v622h66v-625q0 -56 -40.5 -95.5t-98.5 -39.5z" />
    <glyph glyph-name="circumflex" unicode="&#x2c6;" horiz-adv-x="53" 
d="M34 579l100 171h71l100 -171h-56l-79 137l-80 -137h-56z" />
    <glyph glyph-name="caron" unicode="&#x2c7;" horiz-adv-x="53" 
d="M134 579l-100 171h54l82 -133l81 133h54l-100 -171h-71z" />
    <glyph glyph-name="breve" unicode="&#x2d8;" horiz-adv-x="53" 
d="M289 569q-70 0 -115.5 41t-45.5 108h43q0 -44 34 -75t84 -31q51 0 85.5 31t34.5 75h42q0 -67 -45.5 -108t-116.5 -41z" />
    <glyph glyph-name="dotaccent" unicode="&#x2d9;" horiz-adv-x="53" 
d="M143 595q-20 0 -34.5 14.5t-14.5 34.5t14.5 34.5t34.5 14.5t34.5 -14.5t14.5 -34.5t-14.5 -34.5t-34.5 -14.5z" />
    <glyph glyph-name="ring" unicode="&#x2da;" horiz-adv-x="53" 
d="M88 561q-40 0 -69 28.5t-29 67.5q0 40 29 68.5t69 28.5q39 0 67 -28.5t28 -68.5q0 -39 -28 -67.5t-67 -28.5zM88 595q26 0 44 18t18 44t-18.5 45t-43.5 19q-26 0 -44.5 -19t-18.5 -45t18.5 -44t44.5 -18z" />
    <glyph glyph-name="ogonek" unicode="&#x2db;" horiz-adv-x="53" 
d="M132 -260q-49 2 -77.5 29t-28.5 73q0 91 135 170l37 -12q-48 -21 -86.5 -62.5t-38.5 -89.5q0 -31 18 -50t51 -19q58 0 96 43l23 -33q-52 -51 -129 -49z" />
    <glyph glyph-name="tilde" unicode="&#x2dc;" horiz-adv-x="56" 
d="M270 624q-57 0 -90 53q-20 33 -52 33q-26 0 -39.5 -21.5t-9.5 -55.5h-44q-5 52 21 86t70 34q56 0 90 -53q20 -33 53 -33q25 0 39 21t10 55h43q6 -52 -20 -85.5t-71 -33.5z" />
    <glyph glyph-name="hungarumlaut" unicode="&#x2dd;" horiz-adv-x="53" 
d="M34 577l149 173h66l-163 -173h-52zM190 577l150 173h65l-162 -173h-53z" />
    <glyph glyph-name="gravecomb" unicode="&#x300;" 
d="M-90 600l-105 150h69l92 -150h-56z" />
    <glyph glyph-name="acutecomb" unicode="&#x301;" 
d="M-195 600l92 150h69l-105 -150h-56z" />
    <glyph glyph-name="uni0302" unicode="&#x302;" 
d="M-305 579l100 171h71l100 -171h-56l-79 137l-80 -137h-56z" />
    <glyph glyph-name="tildecomb" unicode="&#x303;" 
d="M-127 624q-57 0 -90 53q-20 33 -52 33q-26 0 -39.5 -21.5t-9.5 -55.5h-44q-5 52 21 86t70 34q56 0 90 -53q20 -33 53 -33q25 0 39 21t10 55h43q6 -52 -20 -85.5t-71 -33.5z" />
    <glyph glyph-name="uni0304" unicode="&#x304;" 
d="M-343 607v46h310v-46h-310z" />
    <glyph glyph-name="uni0306" unicode="&#x306;" 
d="M-338 569q-70 0 -115.5 41t-45.5 108h43q0 -44 34 -75t84 -31q51 0 85.5 31t34.5 75h42q0 -67 -45.5 -108t-116.5 -41z" />
    <glyph glyph-name="uni0307" unicode="&#x307;" 
d="M-142 595q-20 0 -34.5 14.5t-14.5 34.5t14.5 34.5t34.5 14.5t34.5 -14.5t14.5 -34.5t-14.5 -34.5t-34.5 -14.5z" />
    <glyph glyph-name="uni0308" unicode="&#x308;" 
d="M-289 595q-20 0 -34.5 14.5t-14.5 34.5t14.5 34.5t34.5 14.5t34.5 -14.5t14.5 -34.5t-14.5 -34.5t-34.5 -14.5zM-114 595q-20 0 -34.5 14.5t-14.5 34.5t14.5 34.5t34.5 14.5t34 -14.5t14 -34.5t-14 -34.5t-34 -14.5z" />
    <glyph glyph-name="uni030A" unicode="&#x30a;" 
d="M-86 561q-40 0 -69 28.5t-29 67.5q0 40 29 68.5t69 28.5q39 0 67 -28.5t28 -68.5q0 -39 -28 -67.5t-67 -28.5zM-86 595q26 0 44 18t18 44t-18.5 45t-43.5 19q-26 0 -44.5 -19t-18.5 -45t18.5 -44t44.5 -18z" />
    <glyph glyph-name="uni030B" unicode="&#x30b;" 
d="M-405 577l149 173h66l-163 -173h-52zM-249 577l150 173h65l-162 -173h-53z" />
    <glyph glyph-name="uni030C" unicode="&#x30c;" 
d="M-205 579l-100 171h54l82 -133l81 133h54l-100 -171h-71z" />
    <glyph glyph-name="uni0312" unicode="&#x312;" 
d="M-84 555q-21 0 -35 15t-14 37q-1 54 29 101.5t65 51.5v-29q-20 -6 -33.5 -26.5t-14.5 -34.5t3 -17q20 0 34.5 -14t14.5 -35q0 -20 -14.5 -34.5t-34.5 -14.5z" />
    <glyph glyph-name="dotbelowcomb" unicode="&#x323;" 
d="M-82 -250q-20 0 -34.5 14.5t-14.5 34.5t14.5 34.5t34.5 14.5t34.5 -15t14.5 -34q0 -20 -14.5 -34.5t-34.5 -14.5z" />
    <glyph glyph-name="uni0326" unicode="&#x326;" 
d="M-128 -117v29q23 0 37 20.5t13 37.5t-5 20q-21 0 -35 14t-14 35t14 35t35 14t35 -15t14 -37q1 -38 -9 -72t-32 -57.5t-53 -23.5z" />
    <glyph glyph-name="uni0327" unicode="&#x327;" 
d="M-133 -260q-32 0 -65 17t-49 42l32 16q13 -16 36.5 -27.5t45.5 -11.5q27 0 45 18.5t18 45.5q0 38 -31 53t-76 -1l-31 22l42 86h37l-32 -70q53 11 90.5 -15.5t37.5 -74.5q0 -42 -29 -71t-71 -29z" />
    <glyph glyph-name="uni0328" unicode="&#x328;" 
d="M-162 -260q-49 2 -77.5 29t-28.5 73q0 91 135 170l37 -12q-48 -21 -86.5 -62.5t-38.5 -89.5q0 -31 18 -50t51 -19q58 0 96 43l23 -33q-52 -51 -129 -49z" />
    <glyph glyph-name="uni0335" unicode="&#x335;" 
d="M-456 239v49h282v-49h-282z" />
    <glyph glyph-name="uni0336" unicode="&#x336;" 
d="M-741 244v33h707v-33h-707z" />
    <glyph glyph-name="uni0337" unicode="&#x337;" 
d="M-407 130l231 249h56l-235 -249h-52z" />
    <glyph glyph-name="uni0338" unicode="&#x338;" 
d="M-595 -7l519 765h51l-518 -765h-52z" />
    <glyph glyph-name="uni0394" unicode="&#x394;" horiz-adv-x="788" 
d="M38 0v46l319 713h78l315 -712v-47h-712zM102 53h580l-195 436q-4 9 -41.5 96t-46.5 114h-12q-4 -13 -18 -47t-33.5 -78t-27.5 -64z" />
    <glyph glyph-name="Lambda" unicode="&#x39b;" horiz-adv-x="723" 
d="M700 0h-74l-265 673l-264 -673h-74l301 750h75z" />
    <glyph glyph-name="Xi" unicode="&#x39e;" horiz-adv-x="590" 
d="M72 690v60h423v-60h-423zM120 345v61h328v-61h-328zM72 0v61h423v-61h-423z" />
    <glyph glyph-name="uni03A9" unicode="&#x3a9;" horiz-adv-x="895" 
d="M63 0v50h179v8q-70 52 -116 138.5t-46 192.5q0 154 105.5 258t264.5 104q106 0 190.5 -51t129 -132.5t44.5 -175.5q0 -107 -48.5 -197.5t-114.5 -136.5v-8h181v-50h-284v36q83 42 142 134t59 213q-1 78 -34 149t-102.5 120t-161.5 49q-135 0 -220 -93t-85 -227
q0 -118 59.5 -211t140.5 -134v-36h-283z" />
    <glyph glyph-name="uni03BC" unicode="&#x3bc;" horiz-adv-x="607" 
d="M442 500h66v-500h-66v80q-27 -42 -70 -66t-93 -24q-86 0 -144 63v-303h-51v750h65v-306q0 -60 42.5 -102.5t102.5 -42.5q61 0 104.5 42.5t43.5 102.5v306z" />
    <glyph glyph-name="pi" unicode="&#x3c0;" horiz-adv-x="682" 
d="M77 0q33 81 60 225t32 267q-102 0 -149 -15l-8 38q52 26 163 26h483l-6 -49h-106v-331q0 -110 18 -161h-63q-17 31 -17 151v341l-252 1q-6 -116 -33.5 -270.5t-59.5 -222.5h-62z" />
    <glyph glyph-name="uni1E04" unicode="&#x1e04;" horiz-adv-x="643" 
d="M434 385q70 -14 115 -65t45 -123q0 -85 -58.5 -141t-143.5 -56h-312v750h251q86 0 145 -56t59 -141q0 -56 -27 -99.5t-74 -68.5zM467 547q0 59 -41.5 101t-100.5 42h-178v-286h178q59 0 100.5 42t41.5 101zM384 61q59 0 100.5 42t41.5 101t-41.5 101t-100.5 42h-237v-286
h237zM306 -75q20 0 34.5 -14.5t14.5 -34.5t-14.5 -34.5t-34.5 -14.5t-34.5 14.5t-14.5 34.5t14.5 34.5t34.5 14.5z" />
    <glyph glyph-name="uni1E05" unicode="&#x1e05;" horiz-adv-x="598" 
d="M325 510q103 0 167 -74.5t64 -185.5q0 -110 -64 -185t-167 -75q-117 0 -183 100l-2 -90h-60v750h65v-337q64 97 180 97zM316 49q79 0 127.5 58t48.5 143q0 86 -48.5 143.5t-127.5 57.5q-65 0 -111.5 -43t-59.5 -111v-94q13 -68 59.5 -111t111.5 -43zM344 -75
q20 0 34.5 -14.5t14.5 -34.5t-14.5 -34.5t-34.5 -14.5t-34.5 14.5t-14.5 34.5t14.5 34.5t34.5 14.5z" />
    <glyph glyph-name="uni1E24" unicode="&#x1e24;" horiz-adv-x="724" 
d="M577 750h67v-750h-67v345h-429v-345h-68v750h68v-344h429v344zM366 -75q20 0 34.5 -14.5t14.5 -34.5t-14.5 -34.5t-34.5 -14.5t-34.5 14.5t-14.5 34.5t14.5 34.5t34.5 14.5z" />
    <glyph glyph-name="uni1E25" unicode="&#x1e25;" horiz-adv-x="582" 
d="M310 510q83 0 138.5 -55.5t55.5 -138.5v-316h-66v310q0 59 -41.5 100t-102.5 41q-62 0 -105 -42t-43 -102v-307h-66v750h66v-323q59 83 164 83zM286 -75q20 0 34.5 -14.5t14.5 -34.5t-14.5 -34.5t-34.5 -14.5t-34.5 14.5t-14.5 34.5t14.5 34.5t34.5 14.5z" />
    <glyph glyph-name="uni1E36" unicode="&#x1e36;" horiz-adv-x="454" 
d="M80 0v750h68v-689h283v-61h-351zM256 -173q-20 0 -34.5 14.5t-14.5 34.5t14.5 34.5t34.5 14.5t34.5 -14.5t14.5 -34.5t-14.5 -34.5t-34.5 -14.5z" />
    <glyph glyph-name="uni1E37" unicode="&#x1e37;" horiz-adv-x="306" 
d="M215 -10q-60 0 -96 36t-36 94v630h65l1 -630q0 -35 17.5 -53.5t49.5 -18.5q33 0 53 21l37 -45q-34 -34 -91 -34zM198 -173q-20 0 -34.5 14.5t-14.5 34.5t14.5 34.5t34.5 14.5t34.5 -14.5t14.5 -34.5t-14.5 -34.5t-34.5 -14.5z" />
    <glyph glyph-name="uni1E44" unicode="&#x1e44;" horiz-adv-x="765" 
d="M380 845q-20 0 -34.5 14.5t-14.5 34.5t14.5 34.5t34.5 14.5t34.5 -14.5t14.5 -34.5t-14.5 -34.5t-34.5 -14.5zM618 750h67v-750h-61l-476 636v-636h-68v750h61l477 -636v636z" />
    <glyph glyph-name="uni1E45" unicode="&#x1e45;" horiz-adv-x="582" 
d="M293 595q-20 0 -34.5 14.5t-14.5 34.5t14.5 34.5t34.5 14.5t34.5 -14.5t14.5 -34.5t-14.5 -34.5t-34.5 -14.5zM310 510q83 0 138.5 -55.5t55.5 -138.5v-316h-66v310q0 59 -41.5 100t-102.5 41q-62 0 -105 -42t-43 -102v-307h-66v500h61l3 -75q59 85 166 85z" />
    <glyph glyph-name="uni1E46" unicode="&#x1e46;" horiz-adv-x="765" 
d="M618 750h67v-750h-61l-476 636v-636h-68v750h61l477 -636v636zM387 -75q19 0 34 -14.5t15 -34.5t-14.5 -34.5t-34.5 -14.5t-34.5 14.5t-14.5 34.5t14.5 34.5t34.5 14.5z" />
    <glyph glyph-name="uni1E47" unicode="&#x1e47;" horiz-adv-x="582" 
d="M310 510q83 0 138.5 -55.5t55.5 -138.5v-316h-66v310q0 59 -41.5 100t-102.5 41q-62 0 -105 -42t-43 -102v-307h-66v500h61l3 -75q59 85 166 85zM293 -75q19 0 34 -14.5t15 -34.5t-14.5 -34.5t-34.5 -14.5t-34.5 14.5t-14.5 34.5t14.5 34.5t34.5 14.5z" />
    <glyph glyph-name="uni1E62" unicode="&#x1e62;" horiz-adv-x="622" 
d="M322 -10q-91 0 -164.5 40.5t-109.5 103.5l48 50q23 -56 85 -92.5t142 -36.5q78 0 128 34.5t50 103.5q0 30 -11.5 54.5t-26.5 40.5t-45.5 32.5t-51 25t-58.5 22.5q-43 16 -63 24.5t-54.5 27.5t-50.5 36.5t-29.5 46.5t-13.5 64q0 93 65 143t160 50q76 0 137 -27t98 -71
l-46 -47q-61 86 -189 86q-66 0 -111 -32.5t-45 -96.5q0 -30 13 -54t41.5 -42t52.5 -29t67 -27q47 -18 67.5 -26.5t58.5 -30t56 -41.5t33 -53t15 -73q0 -100 -69.5 -153t-178.5 -53zM299 -172q-20 0 -34.5 14.5t-14.5 34.5t14.5 34.5t34.5 14.5q19 0 34 -15t15 -34
q0 -20 -14.5 -34.5t-34.5 -14.5z" />
    <glyph glyph-name="uni1E63" unicode="&#x1e63;" horiz-adv-x="468" 
d="M239 -10q-62 0 -119 24t-81 60l38 42q17 -29 63.5 -49.5t95.5 -21.5q53 -1 88.5 22.5t35.5 65.5q0 17 -8 30.5t-16.5 22t-30 17.5t-32 12.5t-39.5 11.5q-7 2 -10 3q-29 8 -46.5 14t-41.5 18t-37 25.5t-23 35t-10 47.5q0 64 53 102t123 38q46 0 90.5 -16t71.5 -40l-39 -45
q-41 44 -112 47q-48 2 -84.5 -18.5t-36.5 -59.5q0 -41 31.5 -60.5t93.5 -35.5q34 -9 49.5 -14t43.5 -17.5t41 -26t24 -36t11 -51.5q0 -64 -53.5 -105.5t-133.5 -41.5zM242 -173q-20 0 -34.5 14.5t-14.5 34.5t14.5 34.5t34.5 14.5t34.5 -14.5t14.5 -34.5t-14.5 -34.5
t-34.5 -14.5z" />
    <glyph glyph-name="uni1E6C" unicode="&#x1e6c;" horiz-adv-x="514" 
d="M14 751h487v-61h-210v-689h-67v689h-210v61zM257 -75q19 0 34 -14.5t15 -34.5t-14.5 -34.5t-34.5 -14.5t-34.5 14.5t-14.5 34.5t14.5 34.5t34.5 14.5z" />
    <glyph glyph-name="uni1E6D" unicode="&#x1e6d;" horiz-adv-x="321" 
d="M279 69l37 -45q-34 -34 -91 -34q-60 0 -96 36t-36 94v328h-69v52h69v170h66v-170h129v-52h-129v-328q0 -35 18 -53.5t50 -18.5t52 21zM219 -75q19 0 34 -14.5t15 -34.5t-14.5 -34.5t-34.5 -14.5t-34.5 14.5t-14.5 34.5t14.5 34.5t34.5 14.5z" />
    <glyph glyph-name="Wgrave" unicode="&#x1e80;" horiz-adv-x="1046" 
d="M548 850h-56l-105 150h69zM983 750h73l-317 -750h-73l-143 338l-142 -338h-73l-318 750h73l283 -669l143 338l-140 331h70l282 -670z" />
    <glyph glyph-name="wgrave" unicode="&#x1e81;" horiz-adv-x="701" 
d="M331 600h-56l-105 150h69zM617 500h72l-171 -500h-73l-96 273l-92 -273h-72l-172 500h73l139 -421l94 281l-49 140h65l143 -423z" />
    <glyph glyph-name="Wacute" unicode="&#x1e82;" horiz-adv-x="1046" 
d="M659 1000l-105 -150h-56l92 150h69zM983 750h73l-317 -750h-73l-143 338l-142 -338h-73l-318 750h73l283 -669l143 338l-140 331h70l282 -670z" />
    <glyph glyph-name="wacute" unicode="&#x1e83;" horiz-adv-x="701" 
d="M441 750l-105 -150h-56l92 150h69zM617 500h72l-171 -500h-73l-96 273l-92 -273h-72l-172 500h73l139 -421l94 281l-49 140h65l143 -423z" />
    <glyph glyph-name="Wdieresis" unicode="&#x1e84;" horiz-adv-x="1046" 
d="M436 845q-20 0 -34.5 14.5t-14.5 34.5t14.5 34.5t34.5 14.5t34.5 -14.5t14.5 -34.5t-14.5 -34.5t-34.5 -14.5zM611 845q-20 0 -34.5 14.5t-14.5 34.5t14.5 34.5t34.5 14.5t34 -14.5t14 -34.5t-14 -34.5t-34 -14.5zM983 750h73l-317 -750h-73l-143 338l-142 -338h-73
l-318 750h73l283 -669l143 338l-140 331h70l282 -670z" />
    <glyph glyph-name="wdieresis" unicode="&#x1e85;" horiz-adv-x="701" 
d="M219 595q-20 0 -34.5 14.5t-14.5 34.5t14.5 34.5t34.5 14.5t34.5 -14.5t14.5 -34.5t-14.5 -34.5t-34.5 -14.5zM394 595q-20 0 -34.5 14.5t-14.5 34.5t14.5 34.5t34.5 14.5t34 -14.5t14 -34.5t-14 -34.5t-34 -14.5zM617 500h72l-171 -500h-73l-96 273l-92 -273h-72
l-172 500h73l139 -421l94 281l-49 140h65l143 -423z" />
    <glyph glyph-name="uni1E92" unicode="&#x1e92;" horiz-adv-x="661" 
d="M141 61h472v-61h-566v34l455 656h-444v60h538v-34zM327 -75q19 0 34 -14.5t15 -34.5t-14.5 -34.5t-34.5 -14.5t-34.5 14.5t-14.5 34.5t14.5 34.5t34.5 14.5z" />
    <glyph glyph-name="uni1E93" unicode="&#x1e93;" horiz-adv-x="515" 
d="M42 0v44l331 400h-323v56h413v-41l-331 -403h341v-56h-431zM258 -173q-20 0 -34.5 14.5t-14.5 34.5t14.5 34.5t34.5 14.5t34.5 -14.5t14.5 -34.5t-14.5 -34.5t-34.5 -14.5z" />
    <glyph glyph-name="uni1EA0" unicode="&#x1ea0;" horiz-adv-x="723" 
d="M700 0h-74l-63 163h-403l-63 -163h-74l301 750h75zM183 221h357l-179 458zM362 -75q20 0 34.5 -14.5t14.5 -34.5t-14.5 -34.5t-34.5 -14.5t-34.5 14.5t-14.5 34.5t14.5 34.5t34.5 14.5z" />
    <glyph glyph-name="uni1EA1" unicode="&#x1ea1;" horiz-adv-x="536" 
d="M259 510q88 0 143.5 -47t55.5 -136v-327h-59l-3 82q-95 -92 -199 -92q-67 0 -109.5 43t-42.5 110q0 76 61.5 117.5t187.5 16.5l100 -19v72q0 62 -38.5 92.5t-100.5 30.5q-105 0 -148 -77l-46 40q58 94 198 94zM211 49q92 0 183 93v65l-99 21q-95 19 -139 -6.5t-44 -75.5
q0 -43 27 -70t72 -27zM252 -75q20 0 34.5 -14.5t14.5 -34.5t-14.5 -34.5t-34.5 -14.5t-34.5 14.5t-14.5 34.5t14.5 34.5t34.5 14.5z" />
    <glyph glyph-name="uni1EB8" unicode="&#x1eb8;" horiz-adv-x="541" 
d="M484 690h-336v-284h294v-61h-294v-284h336v-61h-404v750h404v-60zM282 -75q20 0 34.5 -14.5t14.5 -34.5t-14.5 -34.5t-34.5 -14.5t-34.5 14.5t-14.5 34.5t14.5 34.5t34.5 14.5z" />
    <glyph glyph-name="uni1EB9" unicode="&#x1eb9;" horiz-adv-x="549" 
d="M508 254q0 -17 -1 -26h-401q6 -81 52.5 -130.5t122.5 -49.5q93 0 148 85l46 -33q-64 -110 -196 -110q-107 0 -172 74t-65 186t65 186t172 74q104 0 166.5 -71.5t62.5 -184.5zM280 453q-73 0 -119 -47.5t-54 -125.5h341q-7 78 -51.5 125.5t-116.5 47.5zM280 -75
q20 0 34.5 -14.5t14.5 -34.5t-14.5 -34.5t-34.5 -14.5t-34.5 14.5t-14.5 34.5t14.5 34.5t34.5 14.5z" />
    <glyph glyph-name="uni1EBC" unicode="&#x1ebc;" horiz-adv-x="541" 
d="M163 853h-44q-5 52 21 86t70 34q56 0 90 -53q20 -33 53 -33q25 0 39 21t10 55h43q6 -52 -20 -85.5t-71 -33.5q-57 0 -90 53q-20 33 -52 33q-26 0 -39.5 -21.5t-9.5 -55.5zM484 690h-336v-284h294v-61h-294v-284h336v-61h-404v750h404v-60z" />
    <glyph glyph-name="uni1EBD" unicode="&#x1ebd;" horiz-adv-x="549" 
d="M160 608h-44q-5 52 21 86t70 34q56 0 90 -53q20 -33 53 -33q25 0 39 21t10 55h43q6 -52 -20 -85.5t-71 -33.5q-57 0 -90 53q-20 33 -52 33q-26 0 -39.5 -21.5t-9.5 -55.5zM508 254q0 -17 -1 -26h-401q6 -81 52.5 -130.5t122.5 -49.5q93 0 148 85l46 -33
q-64 -110 -196 -110q-107 0 -172 74t-65 186t65 186t172 74q104 0 166.5 -71.5t62.5 -184.5zM280 453q-73 0 -119 -47.5t-54 -125.5h341q-7 78 -51.5 125.5t-116.5 47.5z" />
    <glyph glyph-name="uni1ECA" unicode="&#x1eca;" horiz-adv-x="228" 
d="M80 0v750h68v-750h-68zM114 -173q-20 0 -34.5 14.5t-14.5 34.5t14.5 34.5t34.5 14.5t34.5 -14.5t14.5 -34.5t-14.5 -34.5t-34.5 -14.5z" />
    <glyph glyph-name="uni1ECB" unicode="&#x1ecb;" horiz-adv-x="262" 
d="M131 595q-20 0 -34.5 14.5t-14.5 34.5t14.5 34.5t34.5 14.5t34.5 -14.5t14.5 -34.5t-14.5 -34.5t-34.5 -14.5zM98 0v500h66v-500h-66zM136 -185q-20 0 -34.5 14.5t-14.5 34.5t14.5 34.5t34.5 14.5t34.5 -14.5t14.5 -34.5t-14.5 -34.5t-34.5 -14.5z" />
    <glyph glyph-name="uni1ECC" unicode="&#x1ecc;" horiz-adv-x="838" 
d="M419 -10q-158 0 -262 111.5t-104 273.5t104 273.5t262 111.5q157 0 261.5 -111.5t104.5 -273.5t-104.5 -273.5t-261.5 -111.5zM419 55q132 0 216.5 92.5t84.5 227.5q0 136 -84.5 228.5t-216.5 92.5t-217 -92.5t-85 -228.5q0 -135 85 -227.5t217 -92.5zM420 -173
q-20 0 -34.5 14.5t-14.5 34.5t14.5 34.5t34.5 14.5t34.5 -14.5t14.5 -34.5t-14.5 -34.5t-34.5 -14.5z" />
    <glyph glyph-name="uni1ECD" unicode="&#x1ecd;" horiz-adv-x="565" 
d="M282 -10q-106 0 -173 75t-67 185t67 185t173 75t173.5 -75t67.5 -185t-67.5 -185t-173.5 -75zM282 49q79 0 127.5 58t48.5 143q0 86 -48.5 143.5t-127.5 57.5t-127.5 -57.5t-48.5 -143.5q0 -85 48.5 -143t127.5 -58zM283 -173q-20 0 -34.5 14.5t-14.5 34.5t14.5 34.5
t34.5 14.5q19 0 34 -14.5t15 -34.5t-14.5 -34.5t-34.5 -14.5z" />
    <glyph glyph-name="uni1EE4" unicode="&#x1ee4;" horiz-adv-x="720" 
d="M360 -10q-116 0 -196.5 75t-80.5 182v503h68v-493q0 -86 61 -146t148 -60q88 0 149 60t61 146v493h67v-503q0 -107 -80.5 -182t-196.5 -75zM361 -173q-20 0 -34.5 14.5t-14.5 34.5t14.5 34.5t34.5 14.5q19 0 34 -14.5t15 -34.5t-14.5 -34.5t-34.5 -14.5z" />
    <glyph glyph-name="Ygrave" unicode="&#x1ef2;" horiz-adv-x="636" 
d="M344 850h-56l-105 150h69zM613 750l-261 -394v-356h-67v354l-262 396h76l219 -336l220 336h75z" />
    <glyph glyph-name="ygrave" unicode="&#x1ef3;" horiz-adv-x="586" 
d="M318 600h-56l-105 150h69zM505 500l1 -525q0 -103 -56.5 -167.5t-167.5 -64.5q-102 0 -176 55v74q73 -70 180 -70q79 0 116.5 46t37.5 127v98q-28 -38 -70.5 -60.5t-91.5 -22.5q-82 0 -139.5 57.5t-57.5 139.5v313h66v-306q0 -60 42 -102.5t103 -42.5t104.5 42.5
t43.5 102.5v306h65z" />
    <glyph glyph-name="uni1EF4" unicode="&#x1ef4;" horiz-adv-x="636" 
d="M285 0v354l-262 396h76l219 -336l220 336h75l-261 -394v-356h-67zM319 -75q19 0 34 -14.5t15 -34.5t-14.5 -34.5t-34.5 -14.5t-34.5 14.5t-14.5 34.5t14.5 34.5t34.5 14.5z" />
    <glyph glyph-name="uni1EF8" unicode="&#x1ef8;" horiz-adv-x="636" 
d="M200 853h-44q-5 52 21 86t70 34q56 0 90 -53q20 -33 53 -33q25 0 39 21t10 55h43q6 -52 -20 -85.5t-71 -33.5q-57 0 -90 53q-20 33 -52 33q-26 0 -39.5 -21.5t-9.5 -55.5zM613 750l-261 -394v-356h-67v354l-262 396h76l219 -336l220 336h75z" />
    <glyph glyph-name="endash" unicode="&#x2013;" horiz-adv-x="687" 
d="M94 236v48h500v-48h-500z" />
    <glyph glyph-name="emdash" unicode="&#x2014;" horiz-adv-x="1019" 
d="M10 236v48h1000v-48h-1000z" />
    <glyph glyph-name="quoteleft" unicode="&#x2018;" horiz-adv-x="237" 
d="M93 475q-48 0 -58 69t20.5 138.5t82.5 70.5v-35q-23 -1 -42 -39t-19 -70t16 -37q20 0 34.5 -14t14.5 -35q0 -20 -14.5 -34t-34.5 -14z" />
    <glyph glyph-name="quoteright" unicode="&#x2019;" horiz-adv-x="180" 
d="M43 475v35q24 1 42 40t18 74q0 32 -16 32q-20 0 -34 14t-14 35q0 20 14 34t35 14q29 0 44 -28t15 -71q0 -65 -29 -121.5t-75 -57.5z" />
    <glyph glyph-name="quotesinglbase" unicode="&#x201a;" horiz-adv-x="239" 
d="M47 -191v35q28 0 47.5 36t19.5 72q0 38 -23 38q-20 0 -34 14.5t-14 34.5q0 21 14 35t35 14q32 0 48.5 -29.5t16.5 -74.5q0 -65 -30.5 -120t-79.5 -55z" />
    <glyph glyph-name="quotedblleft" unicode="&#x201c;" horiz-adv-x="400" 
d="M243 760v-35q-24 -1 -42 -40.5t-18 -74.5q0 -31 16 -31q20 0 34 -14.5t14 -34.5q0 -21 -14 -35t-35 -14q-29 0 -44 28.5t-15 70.5q0 66 29 122.5t75 57.5zM378 760v-35q-24 -1 -42 -40.5t-18 -74.5q0 -31 16 -31q20 0 34 -14.5t14 -34.5q0 -21 -14 -35t-35 -14
q-29 0 -44 28.5t-15 70.5q0 66 29 122.5t75 57.5z" />
    <glyph glyph-name="quotedblright" unicode="&#x201d;" horiz-adv-x="385" 
d="M45 475v35q24 1 42 40t18 74q0 32 -16 32q-20 0 -34 14t-14 35q0 20 14 34t35 14q29 0 44 -28t15 -71q0 -65 -29 -121.5t-75 -57.5zM180 475v35q24 1 42 40t18 74q0 32 -16 32q-20 0 -34 14t-14 35q0 20 14 34t35 14q29 0 44 -28t15 -71q0 -65 -29 -121.5t-75 -57.5z" />
    <glyph glyph-name="quotedblbase" unicode="&#x201e;" horiz-adv-x="388" 
d="M47 -191v35q28 0 47.5 36t19.5 72q0 38 -23 38q-20 0 -34 14.5t-14 34.5q0 21 14 35t35 14q32 0 48.5 -29.5t16.5 -74.5q0 -65 -30.5 -120t-79.5 -55zM201 -191v35q28 0 47.5 36t19.5 72q0 38 -23 38q-20 0 -34 14.5t-14 34.5q0 21 14 35t35 14q32 0 48.5 -29.5
t16.5 -74.5q0 -65 -30.5 -120t-79.5 -55z" />
    <glyph glyph-name="dagger" unicode="&#x2020;" horiz-adv-x="665" 
d="M531 467v-46h-178v-591h-46v591h-173v46h173v203h46v-203h178z" />
    <glyph glyph-name="daggerdbl" unicode="&#x2021;" horiz-adv-x="665" 
d="M531 421h-178v-338h178v-46h-178v-207h-46v207h-173v46h173v338h-173v46h173v203h46v-203h178v-46z" />
    <glyph glyph-name="bullet" unicode="&#x2022;" horiz-adv-x="453" 
d="M227 211q-46 0 -79.5 32.5t-33.5 79.5q0 46 33.5 79.5t79.5 33.5q45 0 78.5 -33.5t33.5 -79.5q0 -47 -33 -79.5t-79 -32.5z" />
    <glyph glyph-name="ellipsis" unicode="&#x2026;" horiz-adv-x="691" 
d="M84 -10q-20 0 -34.5 14.5t-14.5 34.5t14.5 34.5t34.5 14.5t34.5 -14.5t14.5 -34.5t-14.5 -34.5t-34.5 -14.5zM291 -10q-20 0 -34.5 14.5t-14.5 34.5t14.5 34.5t34.5 14.5t34.5 -14.5t14.5 -34.5t-14.5 -34.5t-34.5 -14.5zM490 -10q-20 0 -34.5 14.5t-14.5 34.5t14.5 34.5
t34.5 14.5t34.5 -14.5t14.5 -34.5t-14.5 -34.5t-34.5 -14.5z" />
    <glyph glyph-name="perthousand" unicode="&#x2030;" horiz-adv-x="1026" 
d="M191 458q-54 0 -92 44.5t-38 106.5t38 106.5t92 44.5t92 -44.5t38 -106.5t-38 -106.5t-92 -44.5zM69 0l516 750h69l-516 -750h-69zM191 510q32 0 55 29t23 70t-23 70t-55 29t-54.5 -29t-22.5 -70t22.5 -70t54.5 -29zM533 -10q-54 0 -92 44.5t-38 107.5q0 62 38 106.5
t92 44.5t92 -44.5t38 -106.5q0 -63 -38 -107.5t-92 -44.5zM843 -10q-54 0 -92 44.5t-38 107.5q0 62 38 106.5t92 44.5t92 -44.5t38 -106.5q0 -63 -38 -107.5t-92 -44.5zM533 43q32 0 54.5 28.5t22.5 70.5q0 41 -22.5 69.5t-54.5 28.5t-55 -28.5t-23 -69.5q0 -42 23 -70.5
t55 -28.5zM843 43q32 0 54.5 28.5t22.5 70.5q0 41 -22.5 69.5t-54.5 28.5t-55 -28.5t-23 -69.5q0 -42 23 -70.5t55 -28.5z" />
    <glyph glyph-name="guilsinglleft" unicode="&#x2039;" horiz-adv-x="339" 
d="M207 95l-152 184l152 184h58l-152 -184l152 -184h-58z" />
    <glyph glyph-name="guilsinglright" unicode="&#x203a;" horiz-adv-x="339" 
d="M74 95l152 184l-152 184h58l152 -184l-152 -184h-58z" />
    <glyph glyph-name="fraction" unicode="&#x2044;" horiz-adv-x="578" 
d="M-15 0l524 750h69l-523 -750h-70z" />
    <glyph glyph-name="Euro" unicode="&#x20ac;" horiz-adv-x="644" 
d="M349 43q52 0 94.5 32t55.5 81l51 -21q-20 -63 -77 -104t-124 -41q-95 0 -155 62t-60 160v57h-90l23 46h67v116h-90l23 46h67v62q0 98 60 159.5t155 61.5q67 0 124 -40.5t77 -103.5l-51 -22q-13 49 -55.5 81.5t-94.5 32.5q-73 0 -118 -46.5t-45 -122.5v-62h207l-23 -46
h-184v-116h207l-23 -46h-184v-57q0 -76 44.5 -122.5t118.5 -46.5z" />
    <glyph glyph-name="uni2113" unicode="&#x2113;" horiz-adv-x="606" 
d="M324 -5q-93 0 -142.5 57t-54.5 140v12q-12 -8 -36.5 -27t-35.5 -27l-23 43q11 9 31 23.5t35.5 26.5t27.5 24v299q0 71 16 123t43 80t56.5 40.5t63.5 12.5q72 0 109.5 -50t37.5 -124q0 -98 -66 -195.5t-192 -206.5l1 -27q1 -82 42.5 -125t99.5 -43q56 0 102 35t72 83
l36 -31q-81 -143 -223 -143zM194 314q98 96 151 174t53 155q0 127 -95 127q-42 0 -75.5 -47t-33.5 -147v-262z" />
    <glyph glyph-name="trademark" unicode="&#x2122;" horiz-adv-x="713" 
d="M20 716v34h234v-34h-98v-318h-38v318h-98zM603 750h40v-352h-37v292l-137 -203l-136 202v-291h-38v352h41l133 -199z" />
    <glyph glyph-name="estimated" unicode="&#x212e;" horiz-adv-x="918" 
d="M458 -9q-177 0 -302 112.5t-125 270.5q0 160 125 273t302 113q178 0 303 -113t125 -273v-10h-692q-6 0 -6 -4v-210q0 -11 9 -24q111 -114 262 -114q81 0 153 34t123 94h61q-58 -69 -147 -109t-191 -40zM194 385h531q4 0 4 7v210q0 16 -10 25q-112 110 -260 110t-261 -113
q-10 -12 -10 -26v-206q0 -7 6 -7z" />
    <glyph glyph-name="arrowleft" unicode="&#x2190;" horiz-adv-x="840" 
d="M755 413v-121h-537l30 -127l-243 188l243 188l-30 -128h537z" />
    <glyph glyph-name="arrowup" unicode="&#x2191;" horiz-adv-x="515" 
d="M183 0v537l-128 -30l188 243l188 -243l-127 30v-537h-121z" />
    <glyph glyph-name="arrowright" unicode="&#x2192;" horiz-adv-x="840" 
d="M85 413h537l-30 128l243 -188l-243 -188l30 127h-537v121z" />
    <glyph glyph-name="arrowdown" unicode="&#x2193;" horiz-adv-x="486" 
d="M183 750h121v-537l127 30l-188 -243l-188 243l128 -30v537z" />
    <glyph glyph-name="arrowboth" unicode="&#x2194;" horiz-adv-x="856" 
d="M176 144l-241 189l243 188l-31 -127l561 -1l-30 127l243 -188l-242 -188l30 128l-562 1z" />
    <glyph glyph-name="arrowupdn" unicode="&#x2195;" horiz-adv-x="486" 
d="M243 -71l-188 242l128 -30v390l-128 -30l188 242l188 -243l-127 30v-388l127 30z" />
    <glyph glyph-name="uni2196" unicode="&#x2196;" horiz-adv-x="535" 
d="M600 152l-85 -85l-380 379l-69 -111l-39 305l305 -39l-112 -69z" />
    <glyph glyph-name="uni2197" unicode="&#x2197;" horiz-adv-x="535" 
d="M-65 152l380 380l-112 69l305 39l-39 -305l-69 111l-380 -379z" />
    <glyph glyph-name="uni2198" unicode="&#x2198;" horiz-adv-x="536" 
d="M-64 598l85 85l380 -379l69 111l39 -305l-305 39l112 69z" />
    <glyph glyph-name="uni2199" unicode="&#x2199;" horiz-adv-x="536" 
d="M600 598l-380 -380l112 -69l-305 -39l39 305l69 -111l380 379z" />
    <glyph glyph-name="partialdiff" unicode="&#x2202;" horiz-adv-x="524" 
d="M175 704q125 14 211 -95.5t84 -280.5q-1 -135 -67.5 -227t-163.5 -92q-113 0 -159.5 84.5t-0.5 206.5q43 114 134 156t185 -5q-24 104 -85 161t-138 43v49zM411 328q0 37 -4 65q-82 55 -158 24.5t-115 -133.5q-35 -95 -4.5 -162t109.5 -67q71 0 121 79.5t51 193.5z" />
    <glyph glyph-name="emptyset" unicode="&#x2205;" horiz-adv-x="825" 
d="M635 491q77 -85 77 -200q0 -124 -87.5 -211.5t-211.5 -87.5q-114 0 -200 76l-43 -42l-23 23l43 42q-76 84 -76 200q0 124 87.5 211.5t211.5 87.5q113 0 199 -76l43 43l23 -23zM168 291q0 -91 60 -161l346 345q-69 61 -161 61q-102 0 -173.5 -71.5t-71.5 -173.5zM413 47
q102 0 173 71t71 173q0 91 -60 161l-346 -345q68 -60 162 -60z" />
    <glyph glyph-name="product" unicode="&#x220f;" horiz-adv-x="737" 
d="M684 703v-49h-289v-774h-49h-3v774h-289v49h630z" />
    <glyph glyph-name="summation" unicode="&#x2211;" horiz-adv-x="755" 
d="M94 -119v35l376 376l-376 376v35h567v-52h-476l356 -359l-356 -359h476v-52h-567z" />
    <glyph glyph-name="minus" unicode="&#x2212;" horiz-adv-x="727" 
d="M64 264v47h600v-47h-600z" />
    <glyph glyph-name="radical" unicode="&#x221a;" horiz-adv-x="725" 
d="M255 -78l-117 359h-64v46h97l106 -322l362 755l42 -18l-393 -820h-33z" />
    <glyph glyph-name="infinity" unicode="&#x221e;" horiz-adv-x="759" 
d="M197 151q-55 0 -93 40t-40 100q2 60 40 100t93 40q87 0 183 -105q93 105 183 105q56 0 93.5 -39t39.5 -101q-2 -62 -39.5 -101t-93.5 -39q-89 0 -183 105q-96 -105 -183 -105zM197 197q69 0 152 94q-82 94 -152 94q-35 0 -60.5 -27t-26.5 -67q2 -39 27 -66.5t60 -27.5z
M563 197q35 0 60.5 27t26.5 67q-1 40 -26.5 67t-60.5 27q-71 0 -153 -94q83 -94 153 -94z" />
    <glyph glyph-name="integral" unicode="&#x222b;" horiz-adv-x="453" 
d="M171 -189q-35 0 -57.5 24.5t-18.5 63.5h38q0 -49 38 -49q14 0 25 10.5t11 28.5v774q0 35 22.5 56.5t54.5 21.5q34 0 56 -24.5t18 -63.5h-38q0 49 -37 49q-15 0 -26 -10.5t-11 -28.5v-774q0 -35 -22 -56.5t-53 -21.5z" />
    <glyph glyph-name="approxequal" unicode="&#x2248;" horiz-adv-x="574" 
d="M396 321q-28 0 -54 13t-38.5 25.5t-33.5 35.5q-46 55 -89 55q-42 0 -68.5 -33.5t-24.5 -82.5h-40q-2 69 36.5 112t97.5 43q37 0 64.5 -18.5t57.5 -55.5q22 -27 41.5 -41t47.5 -14q42 0 68.5 32.5t24.5 82.5h40q3 -66 -34.5 -110t-95.5 -44zM396 131q-28 0 -54 13
t-38.5 25.5t-33.5 35.5q-46 55 -89 55q-42 0 -68.5 -33t-24.5 -83h-40q-2 69 36.5 112.5t97.5 43.5q37 0 64 -18.5t58 -55.5q43 -56 89 -56q42 0 68.5 32.5t24.5 83.5h40q3 -66 -34.5 -110.5t-95.5 -44.5z" />
    <glyph glyph-name="notequal" unicode="&#x2260;" horiz-adv-x="727" 
d="M664 336h-207l-121 -141h328v-46h-367l-124 -146h-47l125 146h-187v46h226l121 141h-347v46h386l104 121h47l-105 -121h168v-46z" />
    <glyph glyph-name="lessequal" unicode="&#x2264;" horiz-adv-x="799" 
d="M676 677v-58l-497 -237l497 -238v-58l-552 266v61zM124 0v43h552v-43h-552z" />
    <glyph glyph-name="greaterequal" unicode="&#x2265;" horiz-adv-x="799" 
d="M124 677l552 -264v-61l-552 -266v58l496 238l-496 237v58zM124 0v43h552v-43h-552z" />
    <glyph glyph-name="lozenge" unicode="&#x25ca;" horiz-adv-x="791" 
d="M396 52l-302 301l302 302l301 -301zM396 128l225 226l-225 226l-226 -227z" />
    <glyph glyph-name="uniF8FF" unicode="&#xf8ff;" horiz-adv-x="970" 
d="M485 0q-157 0 -268.5 111.5t-111.5 268.5t111.5 268.5t268.5 111.5t268.5 -111t111.5 -269q0 -157 -111.5 -268.5t-268.5 -111.5zM485 36q142 0 243 101t101 243t-100.5 243t-243.5 101q-142 0 -243 -101t-101 -243t101 -243t243 -101zM684 217q-8 0 -12 6l-145 144
q-12 14 0 26l145 145q12 12 25 0q13 -13 0 -26l-132 -132l132 -132q12 -12 0 -25q-5 -6 -13 -6zM286 217q-8 0 -13 5.5t-5 12.5v290q0 7 5 12.5t13 5.5t13 -5.5t5 -12.5v-290q0 -7 -5 -12.5t-13 -5.5zM485 217q-7 0 -12.5 5.5t-5.5 12.5v290q0 7 5.5 12.5t12.5 5.5
t12.5 -5.5t5.5 -12.5v-290q0 -7 -5.5 -12.5t-12.5 -5.5zM340 362q-8 0 -13 5t-5 13t5 13t13 5h91q7 0 12.5 -5t5.5 -13t-5.5 -13t-12.5 -5h-91z" />
    <glyph glyph-name="i.loclTRK" horiz-adv-x="226" 
d="M113 595q-20 0 -34.5 14.5t-14.5 34.5t14.5 34.5t34.5 14.5t34.5 -14.5t14.5 -34.5t-14.5 -34.5t-34.5 -14.5zM80 0v500h66v-500h-66z" />
    <glyph glyph-name="arrow" horiz-adv-x="486" 
d="M183 0v537l-128 -30l188 243l188 -243l-127 30v-537h-121z" />
    </font>
</defs>
</svg>
