<?xml version="1.0" standalone="no"?>
<!DOCTYPE svg PUBLIC "-//W3C//DTD SVG 1.1//EN" "http://www.w3.org/Graphics/SVG/1.1/DTD/svg11.dtd" >
<svg>
<metadata>
Created by FontForge 20120731 at Wed Jul  6 00:19:00 2016
 By ,,,
(c)2013-2015 Orkney is a trademark of Samuel Oakes and Alfredo Marco Pradil. All rights reserved.
</metadata>
<defs>
<font id="Orkney-Bold" horiz-adv-x="0" >
  <font-face 
    font-family="Orkney"
    font-weight="700"
    font-stretch="normal"
    units-per-em="1000"
    panose-1="0 0 8 0 0 0 0 0 0 0"
    ascent="750"
    descent="-250"
    x-height="500"
    cap-height="750"
    bbox="-756 -363 1181 1036"
    underline-thickness="52"
    underline-position="-48"
    unicode-range="U+0020-FB02"
  />
<missing-glyph horiz-adv-x="603" 
d="M74 0v750h455v-750h-455zM183 110h237v531h-237v-531z" />
    <glyph glyph-name="fi" unicode="fi" horiz-adv-x="630" 
d="M386 641q-60 0 -96.5 -31t-36.5 -83v-27h313v-500h-146v391h-167v-391h-145v391h-84v109h84v36q0 100 72.5 162t188.5 62q110 0 199 -40v-131q-91 52 -182 52z" />
    <glyph glyph-name="fl" unicode="fl" horiz-adv-x="745" 
d="M690 131l70 -104q-42 -37 -114 -37q-98 0 -148 49.5t-50 135.5v459q-29 7 -62 7q-60 0 -96.5 -31t-36.5 -83v-27h120v-109h-120v-391h-145v391h-84v109h84v36q0 100 72 162t188 62q48 0 103 -10h122v-44h1v-135h-1l1 -397q0 -61 51 -61q30 0 45 18z" />
    <glyph glyph-name=".notdef" horiz-adv-x="603" 
d="M74 0v750h455v-750h-455zM183 110h237v531h-237v-531z" />
    <glyph glyph-name=".null" 
 />
    <glyph glyph-name="nonmarkingreturn" horiz-adv-x="333" 
 />
    <glyph glyph-name="space" unicode=" " horiz-adv-x="245" 
 />
    <glyph glyph-name="exclam" unicode="!" horiz-adv-x="312" 
d="M101 252l-18 498h145l-18 -498h-109zM156 -10q-34 0 -58 24t-24 58t24 58.5t58 24.5t58 -24.5t24 -58.5t-24 -58t-58 -24z" />
    <glyph glyph-name="quotedbl" unicode="&#x22;" horiz-adv-x="492" 
d="M92 462l-18 288h137l-18 -288h-101zM300 462l-18 288h136l-17 -288h-101z" />
    <glyph glyph-name="numbersign" unicode="#" horiz-adv-x="824" 
d="M174 0l23 165h-141l14 103h141l29 192h-143l17 102h139l24 167h102l-23 -167h168l23 167h103l-24 -167h143l-17 -102h-140l-27 -192h140l-14 -103h-140l-25 -165h-101l23 165h-170l-22 -165h-102zM314 268h168l28 192h-169z" />
    <glyph glyph-name="dollar" unicode="$" horiz-adv-x="659" 
d="M595 226q0 -90 -61.5 -147.5t-148.5 -74.5v-85h-127v87q-66 15 -119.5 54.5t-81.5 90.5l104 64q23 -43 68.5 -70t101.5 -27q59 0 97.5 27.5t38.5 72.5q0 31 -21 53t-55 35.5t-75 25.5t-82 27.5t-75 36.5t-55 58.5t-21 87.5q0 81 49.5 134t125.5 69v87h127v-88
q95 -24 157 -87l-84 -72q-54 56 -130 56q-50 0 -83.5 -25t-33.5 -66q0 -40 39.5 -66t96 -42.5t113 -37t96 -65.5t39.5 -113z" />
    <glyph glyph-name="percent" unicode="%" horiz-adv-x="806" 
d="M195 401q-67 0 -113 52.5t-46 126.5q0 75 46 127.5t113 52.5q66 0 112 -52.5t46 -127.5q0 -74 -46 -126.5t-112 -52.5zM75 0l505 750h150l-505 -750h-150zM195 510q19 0 34 20.5t15 49.5t-15 50t-34 21q-20 0 -34.5 -20.5t-14.5 -50.5q0 -29 14.5 -49.5t34.5 -20.5z
M612 -10q-66 0 -112.5 52.5t-46.5 127.5t46.5 127.5t112.5 52.5t112 -53t46 -127t-46 -127t-112 -53zM611 100q20 0 34.5 20t14.5 50t-14.5 50t-34.5 20t-34.5 -20t-14.5 -50t14.5 -50t34.5 -20z" />
    <glyph glyph-name="ampersand" unicode="&#x26;" horiz-adv-x="700" 
d="M676 77l-91 -92l-91 90l-19 -19q-67 -67 -162 -66.5t-161 66.5q-67 67 -66.5 161.5t66.5 160.5l20 19l-8 8q-60 60 -60 147q0 85 61 145.5t147 60.5t147 -60.5t61 -145.5h-129q0 32 -23.5 55.5t-55.5 23.5q-33 0 -56.5 -23.5t-23.5 -57.5q0 -31 24 -55l239 -238l89 88
l91 -90l-89 -89zM385 147l18 19l-141 140l-19 -19q-29 -30 -29 -70.5t29 -69.5q31 -29 71.5 -29t70.5 29z" />
    <glyph glyph-name="quotesingle" unicode="'" horiz-adv-x="284" 
d="M92 462l-18 288h137l-18 -288h-101z" />
    <glyph glyph-name="parenleft" unicode="(" horiz-adv-x="405" 
d="M355 -356q-134 2 -217.5 155.5t-83.5 448.5q0 296 83.5 451t217.5 157v-104q-77 -2 -125.5 -131.5t-48.5 -372.5q0 -241 48.5 -369.5t125.5 -130.5v-104z" />
    <glyph glyph-name="parenright" unicode=")" horiz-adv-x="405" 
d="M50 -356v104q77 2 125.5 130.5t48.5 369.5q0 243 -48.5 372.5t-125.5 131.5v104q134 -2 218 -157t84 -451q0 -295 -84 -448.5t-218 -155.5z" />
    <glyph glyph-name="asterisk" unicode="*" horiz-adv-x="344" 
d="M134 481l-62 37l58 77l-96 -12v72l96 -12l-58 77l62 37l38 -90l39 90l62 -37l-59 -77l97 12v-72l-97 12l59 -77l-62 -37l-39 90z" />
    <glyph glyph-name="plus" unicode="+" horiz-adv-x="767" 
d="M329 0v255h-255v110h255v255h110v-255h255v-110h-255v-255h-110z" />
    <glyph glyph-name="comma" unicode="," horiz-adv-x="234" 
d="M45 -174v64q30 0 49 23.5t24 50.5q4 27 -6 27q-34 0 -57.5 24t-23.5 58q0 35 23.5 58.5t58.5 23.5q44 0 67.5 -34.5t23.5 -87.5q0 -77 -44 -142t-115 -65z" />
    <glyph glyph-name="hyphen" unicode="-" horiz-adv-x="497" 
d="M74 212v97h350v-97h-350z" />
    <glyph glyph-name="period" unicode="." horiz-adv-x="225" 
d="M112 -10q-33 0 -57.5 24.5t-24.5 57.5q0 34 24.5 58.5t57.5 24.5q34 0 58.5 -24.5t24.5 -58.5q0 -33 -24.5 -57.5t-58.5 -24.5z" />
    <glyph glyph-name="slash" unicode="/" horiz-adv-x="613" 
d="M-35 -250l533 1000h136l-532 -1000h-137z" />
    <glyph glyph-name="zero" unicode="0" horiz-adv-x="665" 
d="M333 -10q-124 0 -201.5 107.5t-77.5 277.5t77.5 277.5t201.5 107.5q122 0 200 -107.5t78 -277.5t-78 -277.5t-200 -107.5zM333 118q58 0 95 72t37 185q0 114 -37 186t-95 72q-59 0 -96 -72t-37 -186q0 -113 37 -185t96 -72z" />
    <glyph glyph-name="one" unicode="1" horiz-adv-x="431" 
d="M181 0v585l-156 -120v160l165 125h137v-750h-146z" />
    <glyph glyph-name="two" unicode="2" horiz-adv-x="570" 
d="M45 0v107q162 173 228 249.5t86 111t20 67.5q0 50 -28 73.5t-68 24.5q-44 0 -71 -29t-23 -77l-140 1q-8 101 64 167t177 66q98 0 163 -59.5t66 -152.5q1 -59 -25 -111.5t-77 -112t-183 -197.5h301v-128h-490z" />
    <glyph glyph-name="three" unicode="3" horiz-adv-x="592" 
d="M420 426q55 -30 86.5 -79.5t31.5 -111.5q0 -103 -71.5 -174t-175.5 -71q-103 0 -175 63.5t-72 154.5l143 2q0 -35 30 -59.5t74 -24.5q45 0 74.5 31.5t29.5 78.5t-29.5 77.5t-74.5 30.5h-59l-1 115h50h1q37 0 61 25.5t24 63.5q0 34 -24 56t-61 22q-32 0 -54.5 -19
t-22.5 -47l-140 3q0 83 63 140t154 57t153.5 -57t62.5 -140q0 -87 -78 -137z" />
    <glyph glyph-name="four" unicode="4" horiz-adv-x="625" 
d="M582 286v-128h-66v-158h-145v158h-356v92l318 500h183v-464h66zM181 286h190v321z" />
    <glyph glyph-name="five" unicode="5" horiz-adv-x="616" 
d="M311 -10q-71 0 -138.5 29t-108.5 77l92 101q24 -34 64 -54t81 -20q55 0 90 35.5t35 90.5q0 56 -35.5 93t-89.5 37q-33 0 -66.5 -14.5t-55.5 -39.5l-117 53l36 370h425v-127h-312l-17 -161q54 46 146 46q101 0 166.5 -71t65.5 -180q0 -116 -73.5 -190.5t-187.5 -74.5z" />
    <glyph glyph-name="six" unicode="6" horiz-adv-x="641" 
d="M598 254q0 -110 -80.5 -186t-194.5 -78q-115 -1 -196.5 74.5t-82.5 185.5q0 83 61 168l243 332h166l-182 -236q5 0 14.5 -0.5t13.5 -0.5q101 -11 169 -85.5t69 -173.5zM323 114q59 1 96.5 41.5t36.5 98.5q-2 59 -40.5 98t-96.5 38q-59 -1 -95.5 -41.5t-35.5 -98.5
q0 -59 38 -98t97 -38z" />
    <glyph glyph-name="seven" unicode="7" horiz-adv-x="564" 
d="M45 0l346 623h-356v127h514v-106l-346 -644h-158z" />
    <glyph glyph-name="eight" unicode="8" horiz-adv-x="586" 
d="M442 418q53 -31 83 -81t30 -111q0 -101 -74.5 -168.5t-187.5 -67.5q-112 0 -186.5 67.5t-74.5 168.5q0 61 30 111t82 80q-67 56 -67 145q0 84 61.5 141t154.5 57t154.5 -57t61.5 -141q0 -90 -67 -144zM294 646q-40 0 -67.5 -27t-27.5 -68t27.5 -68t67.5 -27t67 27.5
t27 67.5t-27 67.5t-67 27.5zM293 118q49 0 82 34.5t33 84.5q0 49 -32.5 81.5t-82.5 32.5q-49 0 -82 -32.5t-33 -81.5q0 -50 33 -84.5t82 -34.5z" />
    <glyph glyph-name="nine" unicode="9" horiz-adv-x="641" 
d="M598 500q0 -82 -60 -168l-244 -332h-166l184 237q-11 -1 -30 1q-101 10 -169 84.5t-69 173.5q-1 110 80.5 186t194.5 78q115 1 196.5 -74.5t82.5 -185.5zM323 361q58 0 95.5 40.5t36.5 99.5q-2 58 -40 97.5t-96 38.5q-59 -1 -97 -41.5t-36 -98.5q1 -59 39.5 -98t97.5 -38
z" />
    <glyph glyph-name="colon" unicode=":" horiz-adv-x="312" 
d="M156 346q-34 0 -58 24t-24 58t24 58t58 24t58 -24t24 -58t-24 -58t-58 -24zM156 -10q-34 0 -58 24.5t-24 57.5q0 34 24 58.5t58 24.5t58 -24.5t24 -58.5q0 -33 -24 -57.5t-58 -24.5z" />
    <glyph glyph-name="semicolon" unicode=";" horiz-adv-x="315" 
d="M156 346q-33 0 -57.5 24t-24.5 58t24.5 58t57.5 24q34 0 58.5 -24t24.5 -58t-24.5 -58t-58.5 -24zM89 -174v64q29 0 49.5 26.5t21.5 48.5t-5 26q-34 0 -57.5 24t-23.5 58t24 58t58 24q64 0 83 -71q20 -73 -16 -154q-37 -85 -107 -101q-13 -3 -27 -3z" />
    <glyph glyph-name="less" unicode="&#x3c;" horiz-adv-x="699" 
d="M626 712v-120l-441 -222l441 -223v-121l-552 279v130z" />
    <glyph glyph-name="equal" unicode="=" horiz-adv-x="687" 
d="M44 319v91h600v-91h-600zM44 120v92h600v-92h-600z" />
    <glyph glyph-name="greater" unicode="&#x3e;" horiz-adv-x="699" 
d="M74 712l552 -277v-130l-552 -279v121l440 223l-440 222v120z" />
    <glyph glyph-name="question" unicode="?" horiz-adv-x="576" 
d="M223 224v45q0 48 13.5 80.5t33.5 45.5t43.5 25t43.5 20.5t33.5 31t13.5 58.5q0 43 -33.5 72.5t-82.5 29.5q-56 0 -89.5 -37.5t-25.5 -91.5h-129q-9 108 61.5 182t182.5 74q103 0 173.5 -66t70.5 -163q0 -57 -18.5 -95.5t-44.5 -55.5t-52 -29t-44.5 -29t-18.5 -43v-54
h-131zM292 -10q-34 0 -58 24t-24 58t24 58.5t58 24.5t58 -24.5t24 -58.5t-24 -58t-58 -24z" />
    <glyph glyph-name="at" unicode="@" horiz-adv-x="593" 
d="M520 149h-84v22q-38 -33 -89 -33t-87.5 36.5t-36.5 89.5q0 52 36 88.5t87 36.5q52 0 90 -36v13q0 41 -36 69.5t-89 28.5q-76 0 -129.5 -54.5t-53.5 -133.5q0 -81 58.5 -136.5t142.5 -55.5h191v-84h-191q-120 0 -202.5 80t-82.5 196q0 114 77.5 193.5t189.5 79.5
q88 0 148.5 -53t60.5 -130v-217zM382 208q37 0 54 30v52q-17 29 -54 29q-26 0 -43.5 -15.5t-17.5 -39.5t17.5 -40t43.5 -16z" />
    <glyph glyph-name="A" unicode="A" horiz-adv-x="774" 
d="M609 0l-53 142h-339l-53 -142h-163l301 750h169l301 -750h-163zM263 266h247l-123 331z" />
    <glyph glyph-name="B" unicode="B" horiz-adv-x="654" 
d="M478 387q65 -20 102.5 -66t37.5 -117q0 -94 -62.5 -149t-157.5 -55h-338v750h280q96 0 159 -56t63 -151q0 -108 -84 -156zM412 528q0 37 -26.5 64t-63.5 27h-112v-183h112q37 0 63.5 27.5t26.5 64.5zM376 132q38 0 64.5 27t26.5 64t-26.5 64t-64.5 27h-166v-182h166z" />
    <glyph glyph-name="C" unicode="C" horiz-adv-x="625" 
d="M404 -10q-161 0 -263.5 111t-102.5 274t102.5 274t263.5 111q96 0 174 -49v-168q-70 73 -174 73q-103 0 -163 -68.5t-60 -172.5q0 -105 60 -173.5t163 -68.5q106 0 174 74v-168q-81 -49 -174 -49z" />
    <glyph glyph-name="D" unicode="D" horiz-adv-x="712" 
d="M60 0v750h240q155 0 265 -110t110 -265t-110 -265t-265 -110h-240zM210 132h89q95 0 160.5 70.5t65.5 172.5q0 103 -65.5 173.5t-160.5 70.5h-89v-487z" />
    <glyph glyph-name="E" unicode="E" horiz-adv-x="540" 
d="M505 619h-294v-178h252v-132h-252v-177h294v-132h-445v750h445v-131z" />
    <glyph glyph-name="F" unicode="F" horiz-adv-x="536" 
d="M505 619h-294v-178h252v-132h-252v-309h-151v750h445v-131z" />
    <glyph glyph-name="G" unicode="G" horiz-adv-x="737" 
d="M454 621q-114 0 -186 -67t-72 -183q0 -112 70.5 -178.5t178.5 -66.5q49 0 96 14v157h-143v129h279v-376q-112 -69 -226 -69q-176 0 -287 107.5t-111 282.5q0 172 111.5 280.5t274.5 108.5q139 0 238 -69v-172q-92 102 -223 102z" />
    <glyph glyph-name="H" unicode="H" horiz-adv-x="744" 
d="M533 750h151v-750h-151v309h-322v-309h-151v750h151v-308h322v308z" />
    <glyph glyph-name="I" unicode="I" horiz-adv-x="271" 
d="M60 0v750h151v-750h-151z" />
    <glyph glyph-name="J" unicode="J" horiz-adv-x="373" 
d="M116 -10q-52 0 -80 10v153q33 -12 70 -12q22 0 38 16t16 38v555h150v-570q0 -85 -54.5 -137.5t-139.5 -52.5z" />
    <glyph glyph-name="K" unicode="K" horiz-adv-x="702" 
d="M677 750l-311 -327l293 -271v-202l-448 425v-375h-151v750h151v-293l273 293h193z" />
    <glyph glyph-name="L" unicode="L" horiz-adv-x="496" 
d="M60 0v750h151v-618h253v-132h-404z" />
    <glyph glyph-name="M" unicode="M" horiz-adv-x="936" 
d="M715 750h161v-750h-150v538l-259 -394l-256 394v-538h-151v750h163l245 -365z" />
    <glyph glyph-name="N" unicode="N" horiz-adv-x="808" 
d="M598 750h150v-750h-154l-383 522v-522h-151v750h154l384 -521v521z" />
    <glyph glyph-name="O" unicode="O" horiz-adv-x="807" 
d="M404 -10q-161 0 -263.5 111t-102.5 274t102.5 274t263.5 111q160 0 263 -111.5t103 -273.5t-103 -273.5t-263 -111.5zM404 136q102 0 161 67.5t59 171.5q0 105 -59 172.5t-161 67.5q-103 0 -162.5 -67.5t-59.5 -172.5q0 -104 60 -171.5t162 -67.5z" />
    <glyph glyph-name="P" unicode="P" horiz-adv-x="610" 
d="M370 750q93 0 157.5 -65t64.5 -158t-64 -155.5t-158 -62.5h-159v-309h-151v750h310zM356 432q42 0 70.5 26t28.5 68q0 41 -28.5 67t-70.5 26h-145v-187h145z" />
    <glyph glyph-name="Q" unicode="Q" horiz-adv-x="803" 
d="M771 114h19v-114h-42q-69 0 -122 56l-5 4q-94 -70 -217 -70q-161 0 -263.5 111t-102.5 274t102.5 274t263.5 111q160 0 263 -111.5t103 -273.5q0 -127 -66 -226l12 -12q23 -23 55 -23zM404 136q68 0 117 30l-104 110l83 85l100 -104q24 53 24 118q0 105 -59 172.5
t-161 67.5q-103 0 -162.5 -67.5t-59.5 -172.5q0 -104 60 -171.5t162 -67.5z" />
    <glyph glyph-name="R" unicode="R" horiz-adv-x="613" 
d="M436 328l182 -328h-169l-164 318h-74v-318h-151v750h310q93 0 157.5 -65t64.5 -159q0 -73 -43.5 -126.5t-112.5 -71.5zM364 435q39 0 65 26.5t26 65.5t-26.5 65.5t-64.5 26.5h-153v-184h153z" />
    <glyph glyph-name="S" unicode="S" horiz-adv-x="647" 
d="M332 -10q-89 0 -168.5 38t-127.5 101l104 103q66 -102 197 -102q54 0 86.5 20t33.5 61q0 20 -10.5 38t-23 29.5t-40.5 26t-44.5 21t-52.5 20.5q-39 15 -62 25.5t-55 29.5t-49.5 38.5t-30.5 49t-13 64.5q0 93 71.5 150t181.5 57q173 0 275 -109l-98 -95q-69 78 -173 78
q-45 0 -73.5 -20.5t-28.5 -54.5q0 -18 10 -33t33.5 -29t42 -22t55.5 -23t56 -23t52.5 -25t52 -33.5t39 -40t29.5 -53t9 -64.5q0 -109 -78 -166t-200 -57z" />
    <glyph glyph-name="T" unicode="T" horiz-adv-x="580" 
d="M557 750v-131h-192v-619h-149v619h-193v131h534z" />
    <glyph glyph-name="U" unicode="U" horiz-adv-x="738" 
d="M369 -10q-129 0 -218 73t-89 179v508h151v-481q0 -61 45.5 -104t110.5 -43t110.5 43t45.5 104v481h151v-508q0 -106 -89 -179t-218 -73z" />
    <glyph glyph-name="V" unicode="V" horiz-adv-x="774" 
d="M603 750h169l-301 -750h-169l-301 750h169l217 -575z" />
    <glyph glyph-name="W" unicode="W" horiz-adv-x="1170" 
d="M1019 750h162l-317 -750h-164l-115 274l-115 -274h-163l-319 750h163l243 -585l118 281l-127 304h149l242 -586z" />
    <glyph glyph-name="X" unicode="X" horiz-adv-x="683" 
d="M681 0h-172l-168 262l-168 -262h-172l259 385l-245 365h171l155 -241l156 241h171l-246 -364z" />
    <glyph glyph-name="Y" unicode="Y" horiz-adv-x="678" 
d="M677 750l-262 -395v-355h-150v352l-264 398h168l170 -269l172 269h166z" />
    <glyph glyph-name="Z" unicode="Z" horiz-adv-x="639" 
d="M233 132h372v-132h-573v81l369 538h-359v131h561v-81z" />
    <glyph glyph-name="bracketleft" unicode="[" horiz-adv-x="306" 
d="M65 -363v1226h256v-88h-129v-1050h129v-88h-256z" />
    <glyph glyph-name="backslash" unicode="\" horiz-adv-x="613" 
d="M498 -250l-533 1000h137l532 -1000h-136z" />
    <glyph glyph-name="bracketright" unicode="]" horiz-adv-x="306" 
d="M65 -363v88h129v1050h-129v88h256v-1226h-256z" />
    <glyph glyph-name="asciicircum" unicode="^" horiz-adv-x="713" 
d="M699 198h-121l-222 440l-221 -440h-121l278 552h129z" />
    <glyph glyph-name="underscore" unicode="_" horiz-adv-x="647" 
d="M74 -96v96h500v-96h-500z" />
    <glyph glyph-name="grave" unicode="`" horiz-adv-x="23" 
d="M134 583l-120 167h146l83 -167h-109z" />
    <glyph glyph-name="a" unicode="a" horiz-adv-x="559" 
d="M275 510q103 0 165 -48t62 -144v-318h-123l-7 49q-76 -59 -165 -59q-72 0 -117 41.5t-45 111.5q0 75 64.5 118.5t179.5 25.5l71 -11v43q0 41 -28.5 61t-70.5 20q-73 0 -123 -60l-87 83q42 46 94 66.5t130 20.5zM197 151q0 -25 17 -39.5t44 -14.5q51 0 102 45v51l-40 8
q-66 13 -94.5 -3t-28.5 -47z" />
    <glyph glyph-name="b" unicode="b" horiz-adv-x="603" 
d="M341 510q101 0 166.5 -74.5t65.5 -185.5t-65.5 -185.5t-166.5 -74.5q-88 0 -146 63l-6 -54l-129 1v750h144v-294q56 54 137 54zM312 118q52 0 84.5 38t32.5 94t-32.5 94.5t-84.5 38.5q-36 0 -65.5 -22.5t-42.5 -58.5v-104q13 -36 42 -58t66 -22z" />
    <glyph glyph-name="c" unicode="c" horiz-adv-x="434" 
d="M275 -10q-110 0 -177 73t-67 187t67 187t177 73q72 0 124 -26v-135q-36 39 -101 39q-56 0 -89.5 -38.5t-33.5 -99.5q0 -60 33.5 -99t89.5 -39q65 0 101 39v-133q-46 -28 -124 -28z" />
    <glyph glyph-name="d" unicode="d" horiz-adv-x="603" 
d="M399 750h144v-750l-129 -1l-8 52q-58 -61 -143 -61q-102 0 -167 74.5t-65 185.5t65 185.5t167 74.5q80 0 136 -54v294zM292 118q36 0 64.5 21.5t42.5 57.5v106q-14 36 -43 58t-64 22q-52 0 -84.5 -38t-32.5 -95t32.5 -94.5t84.5 -37.5z" />
    <glyph glyph-name="e" unicode="e" horiz-adv-x="548" 
d="M518 251q0 -21 -3 -43h-339q13 -106 110 -106q37 0 63.5 15.5t52.5 53.5l103 -51q-28 -61 -85 -95.5t-131 -34.5q-126 0 -192 71.5t-66 188.5q0 114 68 187.5t185 73.5q108 0 171 -70.5t63 -189.5zM282 397q-83 0 -103 -91h201q-16 91 -98 91z" />
    <glyph glyph-name="f" unicode="f" horiz-adv-x="393" 
d="M253 570v-70h120v-109h-120v-391h-145v391h-84v109h84v80q0 76 55 128t135 52q92 0 143 -62l-76 -87q-21 30 -56 30q-25 0 -40.5 -20t-15.5 -51z" />
    <glyph glyph-name="g" unicode="g" horiz-adv-x="604" 
d="M414 500h130v-498q0 -114 -70.5 -183t-186.5 -69q-79 0 -145 30v139q65 -49 146 -49q48 0 79.5 34t31.5 98v42q-56 -54 -136 -54q-102 0 -167 74.5t-65 185.5t65 185.5t167 74.5q87 0 144 -62zM292 118q36 0 64.5 21.5t42.5 57.5v106q-14 36 -43 58t-64 22
q-52 0 -84.5 -38t-32.5 -95t32.5 -94.5t84.5 -37.5z" />
    <glyph glyph-name="h" unicode="h" horiz-adv-x="605" 
d="M351 510q88 0 142 -53t54 -141v-316h-146v298q0 38 -26 61.5t-67 23.5q-43 0 -72.5 -27t-29.5 -66v-290h-146v750h146v-301q59 61 145 61z" />
    <glyph glyph-name="i" unicode="i" horiz-adv-x="289" 
d="M144 586q-33 0 -57.5 24t-24.5 58t24.5 58t57.5 24q34 0 58.5 -24t24.5 -58t-24.5 -58t-58.5 -24zM71 0v500h146v-500h-146z" />
    <glyph glyph-name="j" unicode="j" horiz-adv-x="276" 
d="M149 586q-34 0 -58.5 24t-24.5 58t24.5 58t58.5 24q33 0 57.5 -24t24.5 -58t-24.5 -58t-57.5 -24zM32 -260q-51 0 -74 16v122q24 -19 56 -19q26 0 44 20t18 51v570h146v-580q0 -76 -55 -128t-135 -52z" />
    <glyph glyph-name="k" unicode="k" horiz-adv-x="566" 
d="M552 500l-223 -215l215 -191v-181l-338 310v-223h-146v750h146v-414l169 164h177z" />
    <glyph glyph-name="l" unicode="l" horiz-adv-x="363" 
d="M264 -10q-99 0 -149 49.5t-50 135.5v575h146v-576q0 -30 14 -45.5t38 -15.5q28 0 45 18l70 -104q-43 -37 -114 -37z" />
    <glyph glyph-name="m" unicode="m" horiz-adv-x="905" 
d="M661 510q85 0 136 -52.5t51 -139.5v-318h-146v300q0 37 -23 60t-60 23q-39 0 -65.5 -27t-26.5 -66v-290h-146v300q0 37 -22.5 60t-59.5 23q-39 0 -66 -27t-27 -66v-290h-146v500h131l7 -53q57 63 142 63q105 0 156 -78q63 78 165 78z" />
    <glyph glyph-name="n" unicode="n" horiz-adv-x="605" 
d="M351 510q88 0 142 -53t54 -141v-316h-146v298q0 38 -26 61.5t-67 23.5q-43 0 -72.5 -27t-29.5 -66v-290h-146v500h131l8 -58q62 68 152 68z" />
    <glyph glyph-name="o" unicode="o" horiz-adv-x="583" 
d="M292 -10q-113 0 -187 75t-74 185t74 185t187 75q112 0 186.5 -75t74.5 -185t-74.5 -185t-186.5 -75zM292 118q51 0 84 38t33 94t-33 94.5t-84 38.5q-52 0 -84.5 -38t-32.5 -95t32.5 -94.5t84.5 -37.5z" />
    <glyph glyph-name="p" unicode="p" horiz-adv-x="603" 
d="M341 510q101 0 166.5 -74.5t65.5 -185.5t-65.5 -185.5t-166.5 -74.5q-81 0 -137 54v-295l-144 1v750h144v-44q56 54 137 54zM312 118q52 0 84.5 38t32.5 94t-32.5 94.5t-84.5 38.5q-36 0 -65.5 -22.5t-42.5 -58.5v-104q13 -36 42 -58t66 -22z" />
    <glyph glyph-name="q" unicode="q" horiz-adv-x="603" 
d="M399 500h144v-750l-144 -1v295q-56 -54 -136 -54q-102 0 -167 74.5t-65 185.5t65 185.5t167 74.5q80 0 136 -54v44zM292 118q36 0 64.5 21.5t42.5 57.5v106q-14 36 -43 58t-64 22q-52 0 -84.5 -38t-32.5 -95t32.5 -94.5t84.5 -37.5z" />
    <glyph glyph-name="r" unicode="r" horiz-adv-x="443" 
d="M342 510q77 0 121 -43l-61 -107q-32 23 -78 23q-47 0 -82.5 -36.5t-35.5 -96.5v-250h-146v500h131l8 -77q56 87 143 87z" />
    <glyph glyph-name="s" unicode="s" horiz-adv-x="498" 
d="M269 -10q-158 0 -239 62l64 103q24 -20 68 -35.5t81 -17.5q36 -2 59 8t23 31q0 23 -25 36t-79 28q-30 9 -48 14.5t-44 18.5t-40.5 26.5t-25.5 35.5t-11 49q0 72 57.5 116.5t151.5 44.5q122 0 205 -54l-68 -94q-47 35 -115 42q-34 4 -59.5 -5t-25.5 -30q0 -6 1.5 -10.5
t6 -9t8.5 -8t11.5 -7.5t13.5 -6.5t16 -6t17 -5.5t19 -6t19 -6q34 -11 57.5 -21t49 -27.5t39 -44t13.5 -61.5q0 -74 -54 -117t-146 -43z" />
    <glyph glyph-name="t" unicode="t" horiz-adv-x="389" 
d="M324 131l70 -104q-43 -37 -114 -37q-99 0 -149 49.5t-50 135.5v216h-60v109h60v170h146v-170h125v-109h-125v-217q0 -30 14 -45.5t38 -15.5q28 0 45 18z" />
    <glyph glyph-name="u" unicode="u" horiz-adv-x="608" 
d="M403 500h145v-500h-130l-8 59q-61 -69 -151 -69q-83 0 -140.5 59t-57.5 144v307h146v-289q0 -39 27 -66t67 -27q42 0 72 27t30 66v289z" />
    <glyph glyph-name="v" unicode="v" horiz-adv-x="529" 
d="M378 500h156l-201 -500h-138l-200 500h156l113 -340z" />
    <glyph glyph-name="w" unicode="w" horiz-adv-x="787" 
d="M616 500h163l-171 -500h-154l-60 181l-60 -181h-154l-172 500h165l93 -339l67 207l-43 132h132l100 -340z" />
    <glyph glyph-name="x" unicode="x" horiz-adv-x="576" 
d="M586 500l-211 -251l211 -249h-175l-123 146l-122 -146h-176l210 250l-210 250h174l124 -147l124 147h174z" />
    <glyph glyph-name="y" unicode="y" horiz-adv-x="609" 
d="M548 500l1 -500q0 -114 -74 -183t-197 -69q-89 0 -159 31v139q69 -50 161 -50q54 0 88.5 34t34.5 98v51q-61 -61 -144 -61t-140.5 59t-57.5 144v307h146v-289q0 -39 27 -66t67 -27q42 0 72 27t30 66v289h145z" />
    <glyph glyph-name="z" unicode="z" horiz-adv-x="523" 
d="M43 0v107l251 274h-250v119h434v-105l-252 -276h254v-119h-437z" />
    <glyph glyph-name="braceleft" unicode="{" horiz-adv-x="336" 
d="M234 -343q-54 0 -89.5 45t-35.5 111v242q0 77 -13.5 103.5t-61.5 47.5v86q48 21 61.5 47.5t13.5 103.5v240q0 66 35.5 111t89.5 45h67v-88q-26 0 -34 -0.5t-21.5 -3t-17 -9.5t-6.5 -18.5t-3 -31.5v-260q0 -124 -56 -179q56 -55 56 -179v-266q0 -34 15 -44.5t67 -10.5v-92
h-67z" />
    <glyph glyph-name="bar" unicode="|" horiz-adv-x="282" 
d="M96 -150v900h90v-900h-90z" />
    <glyph glyph-name="braceright" unicode="}" horiz-adv-x="336" 
d="M35 -343v92q52 0 67 10.5t15 44.5v266q0 123 56 179q-56 56 -56 179v260q0 46 -14 54.5t-68 8.5v91h68q53 0 89 -45.5t36 -111.5v-242q0 -77 13.5 -103.5t61.5 -47.5v-86q-48 -21 -61.5 -47t-13.5 -104v-242q0 -66 -36 -111t-89 -45h-68z" />
    <glyph glyph-name="asciitilde" unicode="~" horiz-adv-x="543" 
d="M377 167q-25 0 -46 6.5t-41 22.5t-26.5 22t-23.5 25q-34 39 -66 39q-36 0 -56 -31t-14 -74h-74q-10 78 31.5 128.5t112.5 50.5q72 0 128 -73q34 -43 69 -43q34 0 54.5 28.5t13.5 74.5h73q12 -74 -28 -125t-107 -51z" />
    <glyph glyph-name="exclamdown" unicode="&#xa1;" horiz-adv-x="312" 
d="M156 336q-34 0 -58 24t-24 58t24 58t58 24t58 -24t24 -58t-24 -58t-58 -24zM83 -250l18 499h109l18 -499h-145z" />
    <glyph glyph-name="cent" unicode="&#xa2;" horiz-adv-x="479" 
d="M316 483q-56 0 -94.5 -38.5t-38.5 -94.5q0 -55 38.5 -93.5t94.5 -38.5q71 0 110 34v-140q-45 -19 -99 -22v-91h-84v100q-91 22 -148 91t-57 160t57 160t148 91v100h84v-91q53 -3 99 -21v-140q-39 34 -110 34z" />
    <glyph glyph-name="sterling" unicode="&#xa3;" horiz-adv-x="617" 
d="M209 102h380v-102h-489v317h-80v94h80v99q0 110 68.5 180t175.5 70q82 0 150.5 -54t85.5 -135l-106 -46q-1 52 -40 88.5t-90 36.5q-62 0 -98.5 -38t-36.5 -102v-99h186v-94h-186v-215z" />
    <glyph glyph-name="currency" unicode="&#xa4;" horiz-adv-x="628" 
d="M133 104l-77 80l53 53q-37 57 -36.5 126t36.5 127l-52 51l77 81l54 -55q57 37 126 37t127 -37l53 54l78 -78l-53 -52q37 -58 37 -127.5t-37 -127.5l52 -52l-76 -80l-54 54q-58 -36 -127.5 -36t-126.5 36zM219 270q40 -39 95 -39.5t94 39.5q38 38 38 93.5t-38 93.5
q-39 38 -94 38t-94 -39q-38 -39 -38 -93.5t37 -92.5z" />
    <glyph glyph-name="yen" unicode="&#xa5;" horiz-adv-x="682" 
d="M658 750l-245 -371h169v-92h-177v-75h177v-85h-177v-127h-127v127h-176v85h176v75h-176v92h167l-245 371h135l182 -286l183 286h134z" />
    <glyph glyph-name="brokenbar" unicode="&#xa6;" horiz-adv-x="282" 
d="M96 390v360h90v-360h-90zM96 -150v360h90v-360h-90z" />
    <glyph glyph-name="section" unicode="&#xa7;" horiz-adv-x="624" 
d="M539 263q39 -37 39 -92q0 -72 -77 -120.5t-183 -48.5q-87 0 -160 34t-106 87l89 55q20 -34 68.5 -55t114.5 -21q62 0 104.5 19t42.5 52q0 29 -40 46.5t-96.5 29t-113.5 27.5t-97 51.5t-40 90.5q0 54 38 92q-38 36 -38 88q0 75 68 118.5t161 43.5q63 0 123 -21t95 -56
l-72 -60q-51 45 -140 45q-53 0 -90.5 -17.5t-37.5 -46.5q0 -25 28.5 -42t71.5 -25.5t93.5 -22t93.5 -29.5t71.5 -49.5t28.5 -81.5q0 -50 -39 -91zM191 422q0 -19 15 -33t44 -23.5t59 -16.5t71 -16.5t69 -19.5q22 19 22 42q0 18 -15.5 31.5t-44 23t-58.5 16t-71 16t-69 19.5
q-22 -16 -22 -39z" />
    <glyph glyph-name="dieresis" unicode="&#xa8;" horiz-adv-x="23" 
d="M128 576q-34 0 -58 24t-24 58t24 58t58 24t58 -24t24 -58t-24 -58t-58 -24zM346 576q-33 0 -57.5 24t-24.5 58t24.5 58t57.5 24q34 0 58 -24t24 -58t-24 -58t-58 -24z" />
    <glyph glyph-name="copyright" unicode="&#xa9;" horiz-adv-x="845" 
d="M423 -10q-159 0 -272 113t-113 272t113 272t272 113t272 -113t113 -272t-113 -272t-272 -113zM423 68q129 0 218.5 89t89.5 218t-89.5 218.5t-218.5 89.5t-218.5 -89.5t-89.5 -218.5t89.5 -218t218.5 -89zM446 190q-81 0 -137.5 52.5t-56.5 128.5t56.5 129t137.5 53
q43 0 79 -16v-88h-4q-31 24 -72 24q-44 0 -74.5 -27t-30.5 -75q0 -46 30.5 -73t74.5 -27t71 21l5 1v-87q-40 -16 -79 -16z" />
    <glyph glyph-name="ordfeminine" unicode="&#xaa;" horiz-adv-x="400" 
d="M283 750h70v-300h-70v49q-40 -55 -109 -55q-62 0 -106 45.5t-44 110.5t44 110.5t106 45.5q67 0 109 -55v49zM188 505q40 0 67.5 28t27.5 67t-27.5 67t-67.5 28q-39 0 -66.5 -28t-27.5 -67t27.5 -67t66.5 -28z" />
    <glyph glyph-name="guillemotleft" unicode="&#xab;" horiz-adv-x="686" 
d="M246 95l-152 184l152 184h116l-152 -184l152 -184h-116zM476 95l-152 184l152 184h116l-152 -184l152 -184h-116z" />
    <glyph glyph-name="logicalnot" unicode="&#xac;" horiz-adv-x="782" 
d="M617 100v256h-543v92h634v-348h-91z" />
    <glyph glyph-name="uni00AD" unicode="&#xad;" horiz-adv-x="590" 
d="M74 212v97h350v-97h-350z" />
    <glyph glyph-name="registered" unicode="&#xae;" horiz-adv-x="845" 
d="M423 760q159 0 272 -113t113 -272t-113 -272t-272 -113t-272 113t-113 272t113 272t272 113zM423 68q129 0 218.5 89t89.5 218t-89.5 218.5t-218.5 89.5t-218.5 -89.5t-89.5 -218.5t89.5 -218t218.5 -89zM566 452q0 -34 -18 -62.5t-48 -42.5l90 -165h-80l-86 154h-37
v-154h-70v386h131q49 0 83.5 -33.5t34.5 -82.5zM387 497v-91h61q19 0 32.5 13.5t13.5 32.5t-13.5 32t-32.5 13h-61z" />
    <glyph glyph-name="macron" unicode="&#xaf;" horiz-adv-x="27" 
d="M14 584v92h310v-92h-310z" />
    <glyph glyph-name="degree" unicode="&#xb0;" horiz-adv-x="455" 
d="M228 492q-56 0 -95 39t-39 95t39 95t95 39t95 -39t39 -95t-39 -95t-95 -39zM228 562q27 0 45.5 18.5t18.5 45.5q0 28 -18.5 46.5t-45.5 18.5q-28 0 -46.5 -18.5t-18.5 -46.5q0 -27 18.5 -45.5t46.5 -18.5z" />
    <glyph glyph-name="plusminus" unicode="&#xb1;" horiz-adv-x="765" 
d="M429 454h303v-92h-303v-180h-92v180h-303v92h303v180h92v-180zM34 0v83h698v-83h-698z" />
    <glyph glyph-name="uni00B2" unicode="&#xb2;" horiz-adv-x="322" 
d="M41 380v51q118 125 144.5 159t26.5 58q0 26 -15 38.5t-36 12.5q-23 0 -37.5 -15t-12.5 -40h-67q-4 51 32 83.5t88 32.5q49 0 81 -29t33 -75q1 -43 -24.5 -79t-121.5 -136h155v-61h-246z" />
    <glyph glyph-name="uni00B3" unicode="&#xb3;" horiz-adv-x="343" 
d="M229 592q60 -30 60 -95q0 -51 -35 -86.5t-87 -35.5t-87.5 31.5t-35.5 77.5l68 1q0 -19 16 -32t39 -13t38.5 16.5t15.5 40.5q0 25 -15.5 41t-38.5 16h-30v55h25q19 0 31.5 13t12.5 33q0 18 -12.5 29.5t-31.5 11.5q-16 0 -28 -10.5t-12 -24.5l-67 1q0 41 31 69.5t76 28.5
t76 -28.5t31 -69.5q0 -44 -40 -70z" />
    <glyph glyph-name="acute" unicode="&#xb4;" horiz-adv-x="23" 
d="M14 583l83 167h146l-119 -167h-110z" />
    <glyph glyph-name="uni00B5" unicode="&#xb5;" horiz-adv-x="590" 
d="M405 500h146v-500h-146v56q-60 -66 -145 -66q-48 0 -90 22v-262h-106v750h145v-289q0 -39 27.5 -66t66.5 -27q43 0 72.5 27t29.5 66v289z" />
    <glyph glyph-name="paragraph" unicode="&#xb6;" horiz-adv-x="624" 
d="M280 -150v565h-18q-84 0 -131 43.5t-47 124.5t47 124t131 43h91v-900h-73zM447 -150v900h74v-900h-74z" />
    <glyph glyph-name="periodcentered" unicode="&#xb7;" horiz-adv-x="269" 
d="M134 300q-24 0 -42 17.5t-18 42.5t18 43t42 18t42.5 -18t18.5 -43t-18.5 -42.5t-42.5 -17.5z" />
    <glyph glyph-name="cedilla" unicode="&#xb8;" horiz-adv-x="23" 
d="M131 -260q-37 0 -71.5 21.5t-45.5 52.5l63 22q8 -13 23.5 -22t30.5 -9q18 0 30 13t12 31q0 28 -23.5 36.5t-58.5 -7.5l-52 30l50 92h67l-34 -60q49 9 83.5 -17.5t34.5 -73.5q0 -46 -31.5 -77.5t-77.5 -31.5z" />
    <glyph glyph-name="uni00B9" unicode="&#xb9;" horiz-adv-x="252" 
d="M78 375v314h-53v61h123v-375h-70z" />
    <glyph glyph-name="ordmasculine" unicode="&#xba;" horiz-adv-x="377" 
d="M188 444q-68 0 -116 45.5t-48 110.5t48 110.5t116 45.5q69 0 117 -45.5t48 -110.5t-48 -110.5t-117 -45.5zM188 505q40 0 67.5 28t27.5 67t-27.5 67t-67.5 28q-39 0 -66.5 -28t-27.5 -67t27.5 -67t66.5 -28z" />
    <glyph glyph-name="guillemotright" unicode="&#xbb;" horiz-adv-x="686" 
d="M94 95l152 184l-152 184h115l152 -184l-152 -184h-115zM323 95l152 184l-152 184h117l152 -184l-152 -184h-117z" />
    <glyph glyph-name="questiondown" unicode="&#xbf;" horiz-adv-x="574" 
d="M282 517q35 0 59 -24t24 -58t-24.5 -58t-58.5 -24t-58 24t-24 58t24 58t58 24zM351 284v-45q0 -49 -13.5 -81t-33.5 -45.5t-43.5 -25t-43.5 -20.5t-33.5 -31.5t-13.5 -58.5q0 -43 33.5 -72.5t82.5 -29.5q57 0 90.5 37.5t25.5 92.5h128q9 -109 -61.5 -183t-182.5 -74
q-103 0 -173 66t-70 163q0 49 13 84t33 52t42.5 31.5t42.5 23t33 24.5t13 38v54h131z" />
    <glyph glyph-name="Agrave" unicode="&#xc0;" horiz-adv-x="774" 
d="M436 833h-109l-120 167h146zM609 0l-53 142h-339l-53 -142h-163l301 750h169l301 -750h-163zM263 266h247l-123 331z" />
    <glyph glyph-name="Aacute" unicode="&#xc1;" horiz-adv-x="774" 
d="M563 1000l-119 -167h-110l83 167h146zM609 0l-53 142h-339l-53 -142h-163l301 750h169l301 -750h-163zM263 266h247l-123 331z" />
    <glyph glyph-name="Acircumflex" unicode="&#xc2;" horiz-adv-x="774" 
d="M387 937l-71 -108h-110l105 171h151l107 -171h-111zM609 0l-53 142h-339l-53 -142h-163l301 750h169l301 -750h-163zM263 266h247l-123 331z" />
    <glyph glyph-name="Atilde" unicode="&#xc3;" horiz-adv-x="774" 
d="M307 825h-85q-15 65 15 108.5t84 43.5q63 0 102 -58q10 -19 27 -19q18 0 23 19t-5 49h85q15 -64 -14 -107.5t-86 -43.5q-60 0 -101 58q-12 19 -27 19q-18 0 -23 -19.5t5 -49.5zM609 0l-53 142h-339l-53 -142h-163l301 750h169l301 -750h-163zM263 266h247l-123 331z" />
    <glyph glyph-name="Adieresis" unicode="&#xc4;" horiz-adv-x="774" 
d="M278 826q-34 0 -58 24t-24 58t24 58t58 24t58 -24t24 -58t-24 -58t-58 -24zM496 826q-33 0 -57.5 24t-24.5 58t24.5 58t57.5 24q34 0 58 -24t24 -58t-24 -58t-58 -24zM609 0l-53 142h-339l-53 -142h-163l301 750h169l301 -750h-163zM263 266h247l-123 331z" />
    <glyph glyph-name="Aring" unicode="&#xc5;" horiz-adv-x="774" 
d="M609 0l-53 142h-339l-53 -142h-163l295 736q-26 32 -26 74q0 47 34.5 81.5t83.5 34.5q48 0 82 -34.5t34 -81.5q0 -43 -27 -75l295 -735h-163zM388 868q-24 0 -40.5 -17t-16.5 -41q0 -26 16.5 -42t40.5 -16t40.5 16t16.5 42q0 24 -16.5 41t-40.5 17zM263 266h247l-123 331
z" />
    <glyph glyph-name="AE" unicode="&#xc6;" horiz-adv-x="936" 
d="M1 0l301 750h599v-127h-297v-191h255v-113h-255v-191h297v-128h-443v156h-234l-54 -156h-169zM272 270h187v353h-53z" />
    <glyph glyph-name="Ccedilla" unicode="&#xc7;" horiz-adv-x="625" 
d="M404 616q-103 0 -163 -68.5t-60 -172.5q0 -105 60 -173.5t163 -68.5q106 0 174 74v-168q-64 -40 -145 -48l-29 -51q49 9 83.5 -17.5t34.5 -73.5q0 -46 -31.5 -77.5t-77.5 -31.5q-37 0 -71.5 21.5t-45.5 52.5l63 22q8 -13 23.5 -22t30.5 -9q18 0 30 13t12 31
q0 28 -23.5 36.5t-58.5 -7.5l-52 30l45 84q-146 13 -237 121.5t-91 261.5q0 163 102.5 274t263.5 111q96 0 174 -49v-168q-70 73 -174 73z" />
    <glyph glyph-name="Egrave" unicode="&#xc8;" horiz-adv-x="540" 
d="M331 833h-109l-120 167h146zM505 619h-294v-178h252v-132h-252v-177h294v-132h-445v750h445v-131z" />
    <glyph glyph-name="Eacute" unicode="&#xc9;" horiz-adv-x="540" 
d="M458 1000l-119 -167h-110l83 167h146zM505 619h-294v-178h252v-132h-252v-177h294v-132h-445v750h445v-131z" />
    <glyph glyph-name="Ecircumflex" unicode="&#xca;" horiz-adv-x="540" 
d="M282 937l-71 -108h-110l105 171h151l107 -171h-111zM505 619h-294v-178h252v-132h-252v-177h294v-132h-445v750h445v-131z" />
    <glyph glyph-name="Edieresis" unicode="&#xcb;" horiz-adv-x="540" 
d="M173 826q-34 0 -58 24t-24 58t24 58t58 24t58 -24t24 -58t-24 -58t-58 -24zM391 826q-33 0 -57.5 24t-24.5 58t24.5 58t57.5 24q34 0 58 -24t24 -58t-24 -58t-58 -24zM505 619h-294v-178h252v-132h-252v-177h294v-132h-445v750h445v-131z" />
    <glyph glyph-name="Igrave" unicode="&#xcc;" horiz-adv-x="271" 
d="M74 833l-121 167h147l83 -167h-109zM60 0v750h151v-750h-151z" />
    <glyph glyph-name="Iacute" unicode="&#xcd;" horiz-adv-x="271" 
d="M81 833l83 167h146l-119 -167h-110zM60 0v750h151v-750h-151z" />
    <glyph glyph-name="Icircumflex" unicode="&#xce;" horiz-adv-x="271" 
d="M-48 829l106 171h151l107 -171h-111l-71 108l-71 -108h-111zM60 0v750h151v-750h-151z" />
    <glyph glyph-name="Idieresis" unicode="&#xcf;" horiz-adv-x="271" 
d="M25 826q-34 0 -58.5 24t-24.5 58t24.5 58t58.5 24t58 -24t24 -58t-24 -58t-58 -24zM243 826q-33 0 -57.5 24t-24.5 58t24.5 58t57.5 24q34 0 58 -24t24 -58t-24 -58t-58 -24zM60 0v750h151v-750h-151z" />
    <glyph glyph-name="Eth" unicode="&#xd0;" horiz-adv-x="712" 
d="M300 750q155 0 265 -110t110 -265t-110 -265t-265 -110h-240v334h-73v82h73v334h240zM299 132q95 0 160.5 70.5t65.5 172.5q0 103 -65.5 173.5t-160.5 70.5h-89v-203h117v-82h-117v-202h89z" />
    <glyph glyph-name="Ntilde" unicode="&#xd1;" horiz-adv-x="808" 
d="M326 825h-85q-15 65 15 108.5t84 43.5q63 0 102 -58q10 -19 27 -19q18 0 23 19t-5 49h85q15 -64 -14 -107.5t-86 -43.5q-60 0 -101 58q-12 19 -27 19q-18 0 -23 -19.5t5 -49.5zM598 750h150v-750h-154l-383 522v-522h-151v750h154l384 -521v521z" />
    <glyph glyph-name="Ograve" unicode="&#xd2;" horiz-adv-x="807" 
d="M343 833l-120 167h146l83 -167h-109zM404 -10q-161 0 -263.5 111t-102.5 274t102.5 274t263.5 111q160 0 263 -111.5t103 -273.5t-103 -273.5t-263 -111.5zM404 136q102 0 161 67.5t59 171.5q0 105 -59 172.5t-161 67.5q-103 0 -162.5 -67.5t-59.5 -172.5
q0 -104 60 -171.5t162 -67.5z" />
    <glyph glyph-name="Oacute" unicode="&#xd3;" horiz-adv-x="807" 
d="M350 833l83 167h146l-119 -167h-110zM404 -10q-161 0 -263.5 111t-102.5 274t102.5 274t263.5 111q160 0 263 -111.5t103 -273.5t-103 -273.5t-263 -111.5zM404 136q102 0 161 67.5t59 171.5q0 105 -59 172.5t-161 67.5q-103 0 -162.5 -67.5t-59.5 -172.5
q0 -104 60 -171.5t162 -67.5z" />
    <glyph glyph-name="Ocircumflex" unicode="&#xd4;" horiz-adv-x="807" 
d="M223 829l105 171h151l107 -171h-111l-71 108l-71 -108h-110zM404 -10q-161 0 -263.5 111t-102.5 274t102.5 274t263.5 111q160 0 263 -111.5t103 -273.5t-103 -273.5t-263 -111.5zM404 136q102 0 161 67.5t59 171.5q0 105 -59 172.5t-161 67.5q-103 0 -162.5 -67.5
t-59.5 -172.5q0 -104 60 -171.5t162 -67.5z" />
    <glyph glyph-name="Otilde" unicode="&#xd5;" horiz-adv-x="807" 
d="M469 817q-60 0 -101 58q-12 19 -27 19q-18 0 -23 -19.5t5 -49.5h-85q-15 65 15 108.5t84 43.5q63 0 102 -58q10 -19 27 -19q18 0 23 19t-5 49h85q15 -64 -14 -107.5t-86 -43.5zM404 -10q-161 0 -263.5 111t-102.5 274t102.5 274t263.5 111q160 0 263 -111.5t103 -273.5
t-103 -273.5t-263 -111.5zM404 136q102 0 161 67.5t59 171.5q0 105 -59 172.5t-161 67.5q-103 0 -162.5 -67.5t-59.5 -172.5q0 -104 60 -171.5t162 -67.5z" />
    <glyph glyph-name="Odieresis" unicode="&#xd6;" horiz-adv-x="807" 
d="M295 826q-34 0 -58 24t-24 58t24 58t58 24t58 -24t24 -58t-24 -58t-58 -24zM513 826q-33 0 -57.5 24t-24.5 58t24.5 58t57.5 24q34 0 58 -24t24 -58t-24 -58t-58 -24zM404 -10q-161 0 -263.5 111t-102.5 274t102.5 274t263.5 111q160 0 263 -111.5t103 -273.5
t-103 -273.5t-263 -111.5zM404 136q102 0 161 67.5t59 171.5q0 105 -59 172.5t-161 67.5q-103 0 -162.5 -67.5t-59.5 -172.5q0 -104 60 -171.5t162 -67.5z" />
    <glyph glyph-name="multiply" unicode="&#xd7;" horiz-adv-x="732" 
d="M638 491l-181 -181l181 -180l-77 -78l-181 181l-181 -181l-77 78l180 180l-180 181l77 77l181 -181l181 181z" />
    <glyph glyph-name="Oslash" unicode="&#xd8;" horiz-adv-x="807" 
d="M644 671q60 -54 93 -131t33 -165q0 -162 -103 -273.5t-263 -111.5q-101 0 -181 46l-45 -69h-89l74 112q-59 53 -92 130t-33 166q0 163 102.5 274t263.5 111q98 0 180 -46l45 68h89zM182 375q0 -107 62 -174l260 392q-46 22 -100 22q-103 0 -162.5 -67.5t-59.5 -172.5z
M404 136q102 0 161 67.5t59 171.5q0 108 -60 174l-260 -392q42 -21 100 -21z" />
    <glyph glyph-name="Ugrave" unicode="&#xd9;" horiz-adv-x="738" 
d="M308 833l-120 167h146l83 -167h-109zM369 -10q-129 0 -218 73t-89 179v508h151v-481q0 -61 45.5 -104t110.5 -43t110.5 43t45.5 104v481h151v-508q0 -106 -89 -179t-218 -73z" />
    <glyph glyph-name="Uacute" unicode="&#xda;" horiz-adv-x="738" 
d="M315 833l83 167h146l-119 -167h-110zM369 -10q-129 0 -218 73t-89 179v508h151v-481q0 -61 45.5 -104t110.5 -43t110.5 43t45.5 104v481h151v-508q0 -106 -89 -179t-218 -73z" />
    <glyph glyph-name="Ucircumflex" unicode="&#xdb;" horiz-adv-x="738" 
d="M188 829l105 171h151l107 -171h-111l-71 108l-71 -108h-110zM369 -10q-129 0 -218 73t-89 179v508h151v-481q0 -61 45.5 -104t110.5 -43t110.5 43t45.5 104v481h151v-508q0 -106 -89 -179t-218 -73z" />
    <glyph glyph-name="Udieresis" unicode="&#xdc;" horiz-adv-x="738" 
d="M260 826q-34 0 -58 24t-24 58t24 58t58 24t58 -24t24 -58t-24 -58t-58 -24zM478 826q-33 0 -57.5 24t-24.5 58t24.5 58t57.5 24q34 0 58 -24t24 -58t-24 -58t-58 -24zM369 -10q-129 0 -218 73t-89 179v508h151v-481q0 -61 45.5 -104t110.5 -43t110.5 43t45.5 104v481h151
v-508q0 -106 -89 -179t-218 -73z" />
    <glyph glyph-name="Yacute" unicode="&#xdd;" horiz-adv-x="678" 
d="M516 1000l-119 -167h-110l83 167h146zM677 750l-262 -395v-355h-150v352l-264 398h168l170 -269l172 269h166z" />
    <glyph glyph-name="Thorn" unicode="&#xde;" horiz-adv-x="603" 
d="M368 642q92 0 156 -65.5t64 -159.5q0 -91 -64 -153.5t-156 -62.5h-162v-201h-146v642v108h146v-108h162zM363 329q39 0 66 27.5t27 65.5t-27 64.5t-66 26.5h-157v-184h157z" />
    <glyph glyph-name="germandbls" unicode="&#xdf;" horiz-adv-x="683" 
d="M528 392q47 -31 74.5 -80t27.5 -106q0 -90 -59.5 -153t-145.5 -63q-41 0 -91.5 13.5t-78.5 35.5l56 113q40 -29 86 -27q35 2 61 27t26 63q0 43 -32.5 73.5t-78.5 30.5h-40v119h16q41 0 71 28.5t30 68.5q0 38 -31 63t-78 25q-53 0 -87.5 -30t-34.5 -76v-517h-145v517
q0 101 76 167t189 66q108 0 178 -60.5t70 -152.5q0 -84 -59 -145z" />
    <glyph glyph-name="agrave" unicode="&#xe0;" horiz-adv-x="559" 
d="M342 583h-109l-120 167h146zM275 510q103 0 165 -48t62 -144v-318h-123l-7 49q-76 -59 -165 -59q-72 0 -117 41.5t-45 111.5q0 75 64.5 118.5t179.5 25.5l71 -11v43q0 41 -28.5 61t-70.5 20q-73 0 -123 -60l-87 83q42 46 94 66.5t130 20.5zM197 151q0 -25 17 -39.5
t44 -14.5q51 0 102 45v51l-40 8q-66 13 -94.5 -3t-28.5 -47z" />
    <glyph glyph-name="aacute" unicode="&#xe1;" horiz-adv-x="559" 
d="M469 750l-119 -167h-110l83 167h146zM275 510q103 0 165 -48t62 -144v-318h-123l-7 49q-76 -59 -165 -59q-72 0 -117 41.5t-45 111.5q0 75 64.5 118.5t179.5 25.5l71 -11v43q0 41 -28.5 61t-70.5 20q-73 0 -123 -60l-87 83q42 46 94 66.5t130 20.5zM197 151
q0 -25 17 -39.5t44 -14.5q51 0 102 45v51l-40 8q-66 13 -94.5 -3t-28.5 -47z" />
    <glyph glyph-name="acircumflex" unicode="&#xe2;" horiz-adv-x="559" 
d="M294 687l-71 -108h-110l105 171h151l107 -171h-111zM275 510q103 0 165 -48t62 -144v-318h-123l-7 49q-76 -59 -165 -59q-72 0 -117 41.5t-45 111.5q0 75 64.5 118.5t179.5 25.5l71 -11v43q0 41 -28.5 61t-70.5 20q-73 0 -123 -60l-87 83q42 46 94 66.5t130 20.5z
M197 151q0 -25 17 -39.5t44 -14.5q51 0 102 45v51l-40 8q-66 13 -94.5 -3t-28.5 -47z" />
    <glyph glyph-name="atilde" unicode="&#xe3;" horiz-adv-x="559" 
d="M213 575h-85q-15 65 15 108.5t84 43.5q63 0 102 -58q10 -19 27 -19q18 0 23 19t-5 49h85q15 -64 -14 -107.5t-86 -43.5q-60 0 -101 58q-12 19 -27 19q-18 0 -23 -19.5t5 -49.5zM275 510q103 0 165 -48t62 -144v-318h-123l-7 49q-76 -59 -165 -59q-72 0 -117 41.5
t-45 111.5q0 75 64.5 118.5t179.5 25.5l71 -11v43q0 41 -28.5 61t-70.5 20q-73 0 -123 -60l-87 83q42 46 94 66.5t130 20.5zM197 151q0 -25 17 -39.5t44 -14.5q51 0 102 45v51l-40 8q-66 13 -94.5 -3t-28.5 -47z" />
    <glyph glyph-name="adieresis" unicode="&#xe4;" horiz-adv-x="559" 
d="M185 576q-34 0 -58 24t-24 58t24 58t58 24t58 -24t24 -58t-24 -58t-58 -24zM403 576q-33 0 -57.5 24t-24.5 58t24.5 58t57.5 24q34 0 58 -24t24 -58t-24 -58t-58 -24zM275 510q103 0 165 -48t62 -144v-318h-123l-7 49q-76 -59 -165 -59q-72 0 -117 41.5t-45 111.5
q0 75 64.5 118.5t179.5 25.5l71 -11v43q0 41 -28.5 61t-70.5 20q-73 0 -123 -60l-87 83q42 46 94 66.5t130 20.5zM197 151q0 -25 17 -39.5t44 -14.5q51 0 102 45v51l-40 8q-66 13 -94.5 -3t-28.5 -47z" />
    <glyph glyph-name="aring" unicode="&#xe5;" horiz-adv-x="559" 
d="M294 552q-49 0 -83.5 34.5t-34.5 83.5q0 47 34.5 81.5t83.5 34.5q48 0 82 -34.5t34 -81.5q0 -49 -34 -83.5t-82 -34.5zM294 728q-24 0 -40 -17t-16 -41q0 -26 16 -42t40 -16t40.5 16t16.5 42q0 24 -16.5 41t-40.5 17zM275 510q103 0 165 -48t62 -144v-318h-123l-7 49
q-76 -59 -165 -59q-72 0 -117 41.5t-45 111.5q0 75 64.5 118.5t179.5 25.5l71 -11v43q0 41 -28.5 61t-70.5 20q-73 0 -123 -60l-87 83q42 46 94 66.5t130 20.5zM197 151q0 -25 17 -39.5t44 -14.5q51 0 102 45v51l-40 8q-66 13 -94.5 -3t-28.5 -47z" />
    <glyph glyph-name="ae" unicode="&#xe6;" horiz-adv-x="846" 
d="M816 251q0 -21 -3 -43h-339q14 -106 110 -106q37 0 63.5 15.5t52.5 53.5l103 -51q-28 -61 -85 -95.5t-131 -34.5q-134 0 -203 83q-85 -83 -192 -83q-72 0 -116.5 41.5t-44.5 111.5q0 75 64 118.5t179 25.5l56 -8q3 34 12 62q-17 59 -95 59q-69 0 -118 -60l-87 83
q41 46 93.5 66.5t130.5 20.5q108 0 157 -49q64 50 159 50q108 0 171 -70.5t63 -189.5zM580 397q-83 0 -103 -91h201q-15 91 -98 91zM182 151q0 -24 17.5 -39t44.5 -15q49 0 102 45q-8 23 -13 54l-27 5q-66 13 -95 -3.5t-29 -46.5z" />
    <glyph glyph-name="ccedilla" unicode="&#xe7;" horiz-adv-x="434" 
d="M298 388q-56 0 -89.5 -38.5t-33.5 -99.5q0 -60 33.5 -99t89.5 -39q65 0 101 39v-133q-42 -25 -104 -27l-29 -51q49 9 83.5 -17.5t34.5 -73.5q0 -46 -31.5 -77.5t-77.5 -31.5q-37 0 -71.5 21.5t-45.5 52.5l63 22q8 -13 23.5 -22t30.5 -9q18 0 30 13t12 31q0 28 -23.5 36.5
t-58.5 -7.5l-52 30l47 86q-91 15 -145 84.5t-54 171.5q0 114 67 187t177 73q72 0 124 -26v-135q-36 39 -101 39z" />
    <glyph glyph-name="egrave" unicode="&#xe8;" horiz-adv-x="548" 
d="M333 584h-109l-120 167h146zM518 251q0 -21 -3 -43h-339q13 -106 110 -106q37 0 63.5 15.5t52.5 53.5l103 -51q-28 -61 -85 -95.5t-131 -34.5q-126 0 -192 71.5t-66 188.5q0 114 68 187.5t185 73.5q108 0 171 -70.5t63 -189.5zM282 397q-83 0 -103 -91h201q-16 91 -98 91
z" />
    <glyph glyph-name="eacute" unicode="&#xe9;" horiz-adv-x="548" 
d="M460 751l-119 -167h-110l83 167h146zM518 251q0 -21 -3 -43h-339q13 -106 110 -106q37 0 63.5 15.5t52.5 53.5l103 -51q-28 -61 -85 -95.5t-131 -34.5q-126 0 -192 71.5t-66 188.5q0 114 68 187.5t185 73.5q108 0 171 -70.5t63 -189.5zM282 397q-83 0 -103 -91h201
q-16 91 -98 91z" />
    <glyph glyph-name="ecircumflex" unicode="&#xea;" horiz-adv-x="548" 
d="M284 688l-71 -108h-110l105 171h151l107 -171h-111zM518 251q0 -21 -3 -43h-339q13 -106 110 -106q37 0 63.5 15.5t52.5 53.5l103 -51q-28 -61 -85 -95.5t-131 -34.5q-126 0 -192 71.5t-66 188.5q0 114 68 187.5t185 73.5q108 0 171 -70.5t63 -189.5zM282 397
q-83 0 -103 -91h201q-16 91 -98 91z" />
    <glyph glyph-name="edieresis" unicode="&#xeb;" horiz-adv-x="548" 
d="M175 577q-34 0 -58 24t-24 58t24 58t58 24t58 -24t24 -58t-24 -58t-58 -24zM393 577q-33 0 -57.5 24t-24.5 58t24.5 58t57.5 24q34 0 58 -24t24 -58t-24 -58t-58 -24zM518 251q0 -21 -3 -43h-339q13 -106 110 -106q37 0 63.5 15.5t52.5 53.5l103 -51q-28 -61 -85 -95.5
t-131 -34.5q-126 0 -192 71.5t-66 188.5q0 114 68 187.5t185 73.5q108 0 171 -70.5t63 -189.5zM282 397q-83 0 -103 -91h201q-16 91 -98 91z" />
    <glyph glyph-name="igrave" unicode="&#xec;" horiz-adv-x="266" 
d="M72 583l-121 167h147l83 -167h-109zM60 0v500h146v-500h-146z" />
    <glyph glyph-name="iacute" unicode="&#xed;" horiz-adv-x="266" 
d="M80 583l83 167h146l-119 -167h-110zM60 0v500h146v-500h-146z" />
    <glyph glyph-name="icircumflex" unicode="&#xee;" horiz-adv-x="266" 
d="M-49 579l106 171h151l107 -171h-111l-71 108l-71 -108h-111zM60 0v500h146v-500h-146z" />
    <glyph glyph-name="idieresis" unicode="&#xef;" horiz-adv-x="266" 
d="M24 576q-34 0 -58.5 24t-24.5 58t24.5 58t58.5 24t58 -24t24 -58t-24 -58t-58 -24zM242 576q-33 0 -57.5 24t-24.5 58t24.5 58t57.5 24q34 0 58 -24t24 -58t-24 -58t-58 -24zM60 0v500h146v-500h-146z" />
    <glyph glyph-name="eth" unicode="&#xf0;" horiz-adv-x="610" 
d="M390 690q91 -68 144 -184t53 -256q0 -109 -81 -184.5t-197 -75.5q-117 0 -197.5 75.5t-80.5 184.5t80.5 184.5t197.5 75.5q43 0 87 -13q-30 64 -79 99l-45 -57l-44 34l40 50q-46 20 -119 24l30 115q87 0 165 -42l42 53l44 -33zM309 118q55 0 93.5 38.5t38.5 93.5
t-38.5 94t-93.5 39t-94 -38.5t-39 -94.5q0 -55 38.5 -93.5t94.5 -38.5z" />
    <glyph glyph-name="ntilde" unicode="&#xf1;" horiz-adv-x="605" 
d="M223 575h-85q-15 65 15 108.5t84 43.5q63 0 102 -58q10 -19 27 -19q18 0 23 19t-5 49h85q15 -64 -14 -107.5t-86 -43.5q-60 0 -101 58q-12 19 -27 19q-18 0 -23 -19.5t5 -49.5zM351 510q88 0 142 -53t54 -141v-316h-146v298q0 38 -26 61.5t-67 23.5q-43 0 -72.5 -27
t-29.5 -66v-290h-146v500h131l8 -58q62 68 152 68z" />
    <glyph glyph-name="ograve" unicode="&#xf2;" horiz-adv-x="583" 
d="M231 583l-120 167h146l83 -167h-109zM292 -10q-113 0 -187 75t-74 185t74 185t187 75q112 0 186.5 -75t74.5 -185t-74.5 -185t-186.5 -75zM292 118q51 0 84 38t33 94t-33 94.5t-84 38.5q-52 0 -84.5 -38t-32.5 -95t32.5 -94.5t84.5 -37.5z" />
    <glyph glyph-name="oacute" unicode="&#xf3;" horiz-adv-x="583" 
d="M238 583l83 167h146l-119 -167h-110zM292 -10q-113 0 -187 75t-74 185t74 185t187 75q112 0 186.5 -75t74.5 -185t-74.5 -185t-186.5 -75zM292 118q51 0 84 38t33 94t-33 94.5t-84 38.5q-52 0 -84.5 -38t-32.5 -95t32.5 -94.5t84.5 -37.5z" />
    <glyph glyph-name="ocircumflex" unicode="&#xf4;" horiz-adv-x="583" 
d="M111 579l105 171h151l107 -171h-111l-71 108l-71 -108h-110zM292 -10q-113 0 -187 75t-74 185t74 185t187 75q112 0 186.5 -75t74.5 -185t-74.5 -185t-186.5 -75zM292 118q51 0 84 38t33 94t-33 94.5t-84 38.5q-52 0 -84.5 -38t-32.5 -95t32.5 -94.5t84.5 -37.5z" />
    <glyph glyph-name="otilde" unicode="&#xf5;" horiz-adv-x="583" 
d="M357 567q-60 0 -101 58q-12 19 -27 19q-18 0 -23 -19.5t5 -49.5h-85q-15 65 15 108.5t84 43.5q63 0 102 -58q10 -19 27 -19q18 0 23 19t-5 49h85q15 -64 -14 -107.5t-86 -43.5zM292 -10q-113 0 -187 75t-74 185t74 185t187 75q112 0 186.5 -75t74.5 -185t-74.5 -185
t-186.5 -75zM292 118q51 0 84 38t33 94t-33 94.5t-84 38.5q-52 0 -84.5 -38t-32.5 -95t32.5 -94.5t84.5 -37.5z" />
    <glyph glyph-name="odieresis" unicode="&#xf6;" horiz-adv-x="583" 
d="M183 576q-34 0 -58 24t-24 58t24 58t58 24t58 -24t24 -58t-24 -58t-58 -24zM401 576q-33 0 -57.5 24t-24.5 58t24.5 58t57.5 24q34 0 58 -24t24 -58t-24 -58t-58 -24zM292 -10q-113 0 -187 75t-74 185t74 185t187 75q112 0 186.5 -75t74.5 -185t-74.5 -185t-186.5 -75z
M292 118q51 0 84 38t33 94t-33 94.5t-84 38.5q-52 0 -84.5 -38t-32.5 -95t32.5 -94.5t84.5 -37.5z" />
    <glyph glyph-name="divide" unicode="&#xf7;" horiz-adv-x="687" 
d="M344 372q-30 0 -51.5 21.5t-21.5 51.5q0 29 22 51t51 22t51 -22t22 -51q0 -30 -21.5 -51.5t-51.5 -21.5zM44 239v73h600v-73h-600zM344 32q-30 0 -51.5 21.5t-21.5 51.5q0 29 22 51t51 22t51 -22t22 -51q0 -30 -21.5 -51.5t-51.5 -21.5z" />
    <glyph glyph-name="oslash" unicode="&#xf8;" horiz-adv-x="583" 
d="M458 454q95 -77 95 -204q0 -110 -74.5 -185t-186.5 -75q-67 0 -123 28l-35 -52h-62l53 80q-94 76 -94 204q0 110 74 185t187 75q66 0 122 -28l35 52h62zM175 250q0 -54 27 -88l139 209q-22 12 -49 12q-52 0 -84.5 -38t-32.5 -95zM292 118q51 0 84 38t33 94q0 50 -28 88
l-139 -209q21 -11 50 -11z" />
    <glyph glyph-name="ugrave" unicode="&#xf9;" horiz-adv-x="608" 
d="M353 583h-109l-120 167h146zM403 500h145v-500h-130l-8 59q-61 -69 -151 -69q-83 0 -140.5 59t-57.5 144v307h146v-289q0 -39 27 -66t67 -27q42 0 72 27t30 66v289z" />
    <glyph glyph-name="uacute" unicode="&#xfa;" horiz-adv-x="608" 
d="M480 750l-119 -167h-110l83 167h146zM403 500h145v-500h-130l-8 59q-61 -69 -151 -69q-83 0 -140.5 59t-57.5 144v307h146v-289q0 -39 27 -66t67 -27q42 0 72 27t30 66v289z" />
    <glyph glyph-name="ucircumflex" unicode="&#xfb;" horiz-adv-x="608" 
d="M305 687l-71 -108h-110l105 171h151l107 -171h-111zM403 500h145v-500h-130l-8 59q-61 -69 -151 -69q-83 0 -140.5 59t-57.5 144v307h146v-289q0 -39 27 -66t67 -27q42 0 72 27t30 66v289z" />
    <glyph glyph-name="udieresis" unicode="&#xfc;" horiz-adv-x="608" 
d="M196 576q-34 0 -58 24t-24 58t24 58t58 24t58 -24t24 -58t-24 -58t-58 -24zM414 576q-33 0 -57.5 24t-24.5 58t24.5 58t57.5 24q34 0 58 -24t24 -58t-24 -58t-58 -24zM403 500h145v-500h-130l-8 59q-61 -69 -151 -69q-83 0 -140.5 59t-57.5 144v307h146v-289
q0 -39 27 -66t67 -27q42 0 72 27t30 66v289z" />
    <glyph glyph-name="yacute" unicode="&#xfd;" horiz-adv-x="609" 
d="M480 750l-119 -167h-110l83 167h146zM548 500l1 -500q0 -114 -74 -183t-197 -69q-89 0 -159 31v139q69 -50 161 -50q54 0 88.5 34t34.5 98v51q-61 -61 -144 -61t-140.5 59t-57.5 144v307h146v-289q0 -39 27 -66t67 -27q42 0 72 27t30 66v289h145z" />
    <glyph glyph-name="thorn" unicode="&#xfe;" horiz-adv-x="637" 
d="M360 510q104 0 175.5 -75t71.5 -185q0 -109 -71.5 -184.5t-175.5 -75.5q-93 0 -154 64v-304h-146v1000h146v-304q61 64 154 64zM338 118q56 0 94 38t38 94t-38.5 94.5t-93.5 38.5t-93.5 -39t-38.5 -94t38.5 -93.5t93.5 -38.5z" />
    <glyph glyph-name="ydieresis" unicode="&#xff;" horiz-adv-x="609" 
d="M196 576q-34 0 -58 24t-24 58t24 58t58 24t58 -24t24 -58t-24 -58t-58 -24zM414 576q-33 0 -57.5 24t-24.5 58t24.5 58t57.5 24q34 0 58 -24t24 -58t-24 -58t-58 -24zM548 500l1 -500q0 -114 -74 -183t-197 -69q-89 0 -159 31v139q69 -50 161 -50q54 0 88.5 34t34.5 98
v51q-61 -61 -144 -61t-140.5 59t-57.5 144v307h146v-289q0 -39 27 -66t67 -27q42 0 72 27t30 66v289h145z" />
    <glyph glyph-name="Amacron" unicode="&#x100;" horiz-adv-x="774" 
d="M543 926v-92h-310v92h310zM609 0l-53 142h-339l-53 -142h-163l301 750h169l301 -750h-163zM263 266h247l-123 331z" />
    <glyph glyph-name="amacron" unicode="&#x101;" horiz-adv-x="559" 
d="M449 676v-92h-310v92h310zM275 510q103 0 165 -48t62 -144v-318h-123l-7 49q-76 -59 -165 -59q-72 0 -117 41.5t-45 111.5q0 75 64.5 118.5t179.5 25.5l71 -11v43q0 41 -28.5 61t-70.5 20q-73 0 -123 -60l-87 83q42 46 94 66.5t130 20.5zM197 151q0 -25 17 -39.5
t44 -14.5q51 0 102 45v51l-40 8q-66 13 -94.5 -3t-28.5 -47z" />
    <glyph glyph-name="Abreve" unicode="&#x102;" horiz-adv-x="774" 
d="M387 807q-81 0 -129.5 44.5t-48.5 127.5h83q0 -35 26.5 -62t68.5 -27q43 0 70 26.5t27 62.5h83q0 -83 -48.5 -127.5t-131.5 -44.5zM609 0l-53 142h-339l-53 -142h-163l301 750h169l301 -750h-163zM263 266h247l-123 331z" />
    <glyph glyph-name="abreve" unicode="&#x103;" horiz-adv-x="559" 
d="M293 557q-81 0 -129.5 44.5t-48.5 127.5h83q0 -35 26.5 -62t68.5 -27q43 0 70 26.5t27 62.5h83q0 -83 -48.5 -127.5t-131.5 -44.5zM275 510q103 0 165 -48t62 -144v-318h-123l-7 49q-76 -59 -165 -59q-72 0 -117 41.5t-45 111.5q0 75 64.5 118.5t179.5 25.5l71 -11v43
q0 41 -28.5 61t-70.5 20q-73 0 -123 -60l-87 83q42 46 94 66.5t130 20.5zM197 151q0 -25 17 -39.5t44 -14.5q51 0 102 45v51l-40 8q-66 13 -94.5 -3t-28.5 -47z" />
    <glyph glyph-name="Aogonek" unicode="&#x104;" horiz-adv-x="774" 
d="M772 -135l46 -64q-65 -67 -161 -60q-58 4 -94 32.5t-36 82.5q0 95 114 144h-32l-53 142h-339l-53 -142h-163l301 750h169l301 -750q-67 0 -107.5 -42.5t-40.5 -89.5q0 -25 15.5 -40.5t42.5 -15.5q26 0 51 15t39 38zM263 266h247l-123 331z" />
    <glyph glyph-name="aogonek" unicode="&#x105;" horiz-adv-x="559" 
d="M502 -135l46 -64q-65 -67 -161 -60q-58 4 -94 32.5t-36 82.5q0 100 122 147l-7 46q-76 -59 -165 -59q-72 0 -117 41.5t-45 111.5q0 75 64.5 118.5t179.5 25.5l71 -11v43q0 41 -28.5 61t-70.5 20q-73 0 -123 -60l-87 83q42 46 94 66.5t130 20.5q103 0 165 -48t62 -144
v-318q-67 0 -107.5 -42.5t-40.5 -89.5q0 -25 15.5 -40.5t42.5 -15.5q26 0 51 15t39 38zM197 151q0 -25 17 -39.5t44 -14.5q51 0 102 45v51l-40 8q-66 13 -94.5 -3t-28.5 -47z" />
    <glyph glyph-name="Cacute" unicode="&#x106;" horiz-adv-x="625" 
d="M350 833l83 167h146l-119 -167h-110zM404 -10q-161 0 -263.5 111t-102.5 274t102.5 274t263.5 111q96 0 174 -49v-168q-70 73 -174 73q-103 0 -163 -68.5t-60 -172.5q0 -105 60 -173.5t163 -68.5q106 0 174 74v-168q-81 -49 -174 -49z" />
    <glyph glyph-name="cacute" unicode="&#x107;" horiz-adv-x="434" 
d="M213 583l83 167h146l-119 -167h-110zM275 -10q-110 0 -177 73t-67 187t67 187t177 73q72 0 124 -26v-135q-36 39 -101 39q-56 0 -89.5 -38.5t-33.5 -99.5q0 -60 33.5 -99t89.5 -39q65 0 101 39v-133q-46 -28 -124 -28z" />
    <glyph glyph-name="Cdotaccent" unicode="&#x10a;" horiz-adv-x="625" 
d="M404 826q-34 0 -58 24t-24 58t24 58t58 24t58 -24t24 -58t-24 -58t-58 -24zM404 -10q-161 0 -263.5 111t-102.5 274t102.5 274t263.5 111q96 0 174 -49v-168q-70 73 -174 73q-103 0 -163 -68.5t-60 -172.5q0 -105 60 -173.5t163 -68.5q106 0 174 74v-168
q-81 -49 -174 -49z" />
    <glyph glyph-name="cdotaccent" unicode="&#x10b;" horiz-adv-x="434" 
d="M267 576q-34 0 -58 24t-24 58t24 58t58 24t58 -24t24 -58t-24 -58t-58 -24zM275 -10q-110 0 -177 73t-67 187t67 187t177 73q72 0 124 -26v-135q-36 39 -101 39q-56 0 -89.5 -38.5t-33.5 -99.5q0 -60 33.5 -99t89.5 -39q65 0 101 39v-133q-46 -28 -124 -28z" />
    <glyph glyph-name="Ccaron" unicode="&#x10c;" horiz-adv-x="625" 
d="M328 829l-105 171h106l75 -108l76 108h106l-107 -171h-151zM404 -10q-161 0 -263.5 111t-102.5 274t102.5 274t263.5 111q96 0 174 -49v-168q-70 73 -174 73q-103 0 -163 -68.5t-60 -172.5q0 -105 60 -173.5t163 -68.5q106 0 174 74v-168q-81 -49 -174 -49z" />
    <glyph glyph-name="ccaron" unicode="&#x10d;" horiz-adv-x="434" 
d="M190 579l-105 171h106l75 -108l76 108h106l-107 -171h-151zM275 -10q-110 0 -177 73t-67 187t67 187t177 73q72 0 124 -26v-135q-36 39 -101 39q-56 0 -89.5 -38.5t-33.5 -99.5q0 -60 33.5 -99t89.5 -39q65 0 101 39v-133q-46 -28 -124 -28z" />
    <glyph glyph-name="Dcaron" unicode="&#x10e;" horiz-adv-x="712" 
d="M223 829l-105 171h106l75 -108l76 108h106l-107 -171h-151zM60 0v750h240q155 0 265 -110t110 -265t-110 -265t-265 -110h-240zM210 132h89q95 0 160.5 70.5t65.5 172.5q0 103 -65.5 173.5t-160.5 70.5h-89v-487z" />
    <glyph glyph-name="dcaron" unicode="&#x10f;" horiz-adv-x="794" 
d="M715 759q43 0 66 -34.5t23 -86.5q0 -77 -43.5 -142t-113.5 -66v65q31 0 50 26.5t22 53.5q2 20 -5 20q-34 0 -57.5 24t-23.5 58q0 35 23.5 58.5t58.5 23.5zM399 456v294h144v-750l-129 -1l-8 52q-58 -61 -143 -61q-102 0 -167 74.5t-65 185.5t65 185.5t167 74.5
q80 0 136 -54zM292 118q36 0 64.5 21.5t42.5 57.5v106q-14 36 -43 58t-64 22q-52 0 -84.5 -38t-32.5 -95t32.5 -94.5t84.5 -37.5z" />
    <glyph glyph-name="Dcroat" unicode="&#x110;" horiz-adv-x="712" 
d="M300 750q155 0 265 -110t110 -265t-110 -265t-265 -110h-240v334h-73v82h73v334h240zM299 132q95 0 160.5 70.5t65.5 172.5q0 103 -65.5 173.5t-160.5 70.5h-89v-203h117v-82h-117v-202h89z" />
    <glyph glyph-name="dcroat" unicode="&#x111;" horiz-adv-x="603" 
d="M614 656v-82h-71v-574l-129 -1l-8 52q-58 -61 -143 -61q-102 0 -167 74.5t-65 185.5t65 185.5t167 74.5q80 0 136 -54v118h-124v82h124v94h144v-94h71zM292 118q36 0 64.5 21.5t42.5 57.5v106q-14 36 -43 58t-64 22q-52 0 -84.5 -38t-32.5 -95t32.5 -94.5t84.5 -37.5z
" />
    <glyph glyph-name="Emacron" unicode="&#x112;" horiz-adv-x="540" 
d="M438 926v-92h-310v92h310zM505 619h-294v-178h252v-132h-252v-177h294v-132h-445v750h445v-131z" />
    <glyph glyph-name="emacron" unicode="&#x113;" horiz-adv-x="548" 
d="M440 677v-92h-310v92h310zM518 251q0 -21 -3 -43h-339q13 -106 110 -106q37 0 63.5 15.5t52.5 53.5l103 -51q-28 -61 -85 -95.5t-131 -34.5q-126 0 -192 71.5t-66 188.5q0 114 68 187.5t185 73.5q108 0 171 -70.5t63 -189.5zM282 397q-83 0 -103 -91h201q-16 91 -98 91z
" />
    <glyph glyph-name="Edotaccent" unicode="&#x116;" horiz-adv-x="540" 
d="M283 826q-34 0 -58 24t-24 58t24 58t58 24t58 -24t24 -58t-24 -58t-58 -24zM505 619h-294v-178h252v-132h-252v-177h294v-132h-445v750h445v-131z" />
    <glyph glyph-name="edotaccent" unicode="&#x117;" horiz-adv-x="548" 
d="M285 577q-34 0 -58 24t-24 58t24 58t58 24t58 -24t24 -58t-24 -58t-58 -24zM518 251q0 -21 -3 -43h-339q13 -106 110 -106q37 0 63.5 15.5t52.5 53.5l103 -51q-28 -61 -85 -95.5t-131 -34.5q-126 0 -192 71.5t-66 188.5q0 114 68 187.5t185 73.5q108 0 171 -70.5
t63 -189.5zM282 397q-83 0 -103 -91h201q-16 91 -98 91z" />
    <glyph glyph-name="Eogonek" unicode="&#x118;" horiz-adv-x="540" 
d="M505 -135l46 -64q-65 -67 -161 -60q-58 4 -94 32.5t-36 82.5q0 95 114 144h-314v750h445v-131h-294v-178h252v-132h-252v-177h294v-132q-67 0 -107.5 -42.5t-40.5 -89.5q0 -25 15.5 -40.5t42.5 -15.5q26 0 51 15t39 38z" />
    <glyph glyph-name="eogonek" unicode="&#x119;" horiz-adv-x="548" 
d="M518 251q0 -21 -3 -43h-339q13 -106 110 -106q37 0 63.5 15.5t52.5 53.5l103 -51q-25 -53 -72.5 -87t-109.5 -41q-25 -34 -25 -71q0 -25 15.5 -40.5t42.5 -15.5q26 0 51 15t39 38l46 -64q-65 -67 -161 -60q-58 4 -94 32.5t-36 82.5q0 47 30 85q-99 16 -149.5 84.5
t-50.5 171.5q0 114 68 187.5t185 73.5q108 0 171 -70.5t63 -189.5zM282 397q-83 0 -103 -91h201q-16 91 -98 91z" />
    <glyph glyph-name="Ecaron" unicode="&#x11a;" horiz-adv-x="540" 
d="M357 829h-151l-105 171h106l75 -108l76 108h106zM505 619h-294v-178h252v-132h-252v-177h294v-132h-445v750h445v-131z" />
    <glyph glyph-name="ecaron" unicode="&#x11b;" horiz-adv-x="548" 
d="M359 580h-151l-105 171h106l75 -108l76 108h106zM518 251q0 -21 -3 -43h-339q13 -106 110 -106q37 0 63.5 15.5t52.5 53.5l103 -51q-28 -61 -85 -95.5t-131 -34.5q-126 0 -192 71.5t-66 188.5q0 114 68 187.5t185 73.5q108 0 171 -70.5t63 -189.5zM282 397
q-83 0 -103 -91h201q-16 91 -98 91z" />
    <glyph glyph-name="Gbreve" unicode="&#x11e;" horiz-adv-x="737" 
d="M434 807q-81 0 -129.5 44.5t-48.5 127.5h83q0 -35 26.5 -62t68.5 -27q43 0 70 26.5t27 62.5h83q0 -83 -48.5 -127.5t-131.5 -44.5zM454 621q-114 0 -186 -67t-72 -183q0 -112 70.5 -178.5t178.5 -66.5q49 0 96 14v157h-143v129h279v-376q-112 -69 -226 -69
q-176 0 -287 107.5t-111 282.5q0 172 111.5 280.5t274.5 108.5q139 0 238 -69v-172q-92 102 -223 102z" />
    <glyph glyph-name="gbreve" unicode="&#x11f;" horiz-adv-x="604" 
d="M286 557q-81 0 -129.5 44.5t-48.5 127.5h83q0 -35 26.5 -62t68.5 -27q43 0 70 26.5t27 62.5h83q0 -83 -48.5 -127.5t-131.5 -44.5zM414 500h130v-498q0 -114 -70.5 -183t-186.5 -69q-79 0 -145 30v139q65 -49 146 -49q48 0 79.5 34t31.5 98v42q-56 -54 -136 -54
q-102 0 -167 74.5t-65 185.5t65 185.5t167 74.5q87 0 144 -62zM292 118q36 0 64.5 21.5t42.5 57.5v106q-14 36 -43 58t-64 22q-52 0 -84.5 -38t-32.5 -95t32.5 -94.5t84.5 -37.5z" />
    <glyph glyph-name="Gdotaccent" unicode="&#x120;" horiz-adv-x="737" 
d="M435 826q-34 0 -58 24t-24 58t24 58t58 24t58 -24t24 -58t-24 -58t-58 -24zM454 621q-114 0 -186 -67t-72 -183q0 -112 70.5 -178.5t178.5 -66.5q49 0 96 14v157h-143v129h279v-376q-112 -69 -226 -69q-176 0 -287 107.5t-111 282.5q0 172 111.5 280.5t274.5 108.5
q139 0 238 -69v-172q-92 102 -223 102z" />
    <glyph glyph-name="gdotaccent" unicode="&#x121;" horiz-adv-x="604" 
d="M287 576q-34 0 -58 24t-24 58t24 58t58 24t58 -24t24 -58t-24 -58t-58 -24zM414 500h130v-498q0 -114 -70.5 -183t-186.5 -69q-79 0 -145 30v139q65 -49 146 -49q48 0 79.5 34t31.5 98v42q-56 -54 -136 -54q-102 0 -167 74.5t-65 185.5t65 185.5t167 74.5q87 0 144 -62z
M292 118q36 0 64.5 21.5t42.5 57.5v106q-14 36 -43 58t-64 22q-52 0 -84.5 -38t-32.5 -95t32.5 -94.5t84.5 -37.5z" />
    <glyph glyph-name="Gcommaaccent" unicode="&#x122;" horiz-adv-x="737" 
d="M454 621q-114 0 -186 -67t-72 -183q0 -112 70.5 -178.5t178.5 -66.5q49 0 96 14v157h-143v129h279v-376q-112 -69 -226 -69q-176 0 -287 107.5t-111 282.5q0 172 111.5 280.5t274.5 108.5q139 0 238 -69v-172q-92 102 -223 102zM421 -41q36 0 59.5 -25.5t23.5 -65.5
q-1 -95 -42.5 -155.5t-107.5 -56.5v49q29 0 48.5 23.5t20.5 43.5t-3 23q-35 0 -58 23t-23 59q0 35 23 58.5t59 23.5z" />
    <glyph glyph-name="gcommaaccent" unicode="&#x123;" horiz-adv-x="604" 
d="M287 556q-34 0 -58 27t-24 65q-1 84 52 145.5t98 65.5v-47q-25 -9 -44 -31.5t-25 -41t1 -18.5q35 0 58.5 -23.5t23.5 -58.5t-24 -59t-58 -24zM414 500h130v-498q0 -114 -70.5 -183t-186.5 -69q-79 0 -145 30v139q65 -49 146 -49q48 0 79.5 34t31.5 98v42
q-56 -54 -136 -54q-102 0 -167 74.5t-65 185.5t65 185.5t167 74.5q87 0 144 -62zM292 118q36 0 64.5 21.5t42.5 57.5v106q-14 36 -43 58t-64 22q-52 0 -84.5 -38t-32.5 -95t32.5 -94.5t84.5 -37.5z" />
    <glyph glyph-name="Hbar" unicode="&#x126;" horiz-adv-x="744" 
d="M743 618v-56h-59v-562h-151v309h-322v-309h-151v562h-59v56h59v132h151v-132h322v132h151v-132h59zM533 442v120h-322v-120h322z" />
    <glyph glyph-name="hbar" unicode="&#x127;" horiz-adv-x="605" 
d="M351 510q88 0 142 -53t54 -141v-316h-146v298q0 38 -26 61.5t-67 23.5q-43 0 -72.5 -27t-29.5 -66v-290h-146v580h-59v82h59v88h146v-88h134v-82h-134v-131q59 61 145 61z" />
    <glyph glyph-name="Itilde" unicode="&#x128;" horiz-adv-x="271" 
d="M200 817q-60 0 -101 58q-12 19 -27 19q-18 0 -23 -19.5t5 -49.5h-86q-14 65 16 108.5t84 43.5q63 0 102 -58q10 -19 27 -19q18 0 23 19t-5 49h85q15 -64 -14 -107.5t-86 -43.5zM60 0v750h151v-750h-151z" />
    <glyph glyph-name="itilde" unicode="&#x129;" horiz-adv-x="266" 
d="M198 567q-60 0 -101 58q-12 19 -27 19q-18 0 -23 -19.5t5 -49.5h-86q-14 65 16 108.5t84 43.5q63 0 102 -58q10 -19 27 -19q18 0 23 19t-5 49h85q15 -64 -14 -107.5t-86 -43.5zM60 0v500h146v-500h-146z" />
    <glyph glyph-name="Imacron" unicode="&#x12a;" horiz-adv-x="271" 
d="M-21 834v92h311v-92h-311zM60 0v750h151v-750h-151z" />
    <glyph glyph-name="imacron" unicode="&#x12b;" horiz-adv-x="266" 
d="M-23 584v92h311v-92h-311zM60 0v500h146v-500h-146z" />
    <glyph glyph-name="Iogonek" unicode="&#x12e;" horiz-adv-x="271" 
d="M194 -135l46 -64q-65 -67 -161 -60q-58 4 -94.5 32.5t-36.5 82.5q0 95 115 144h-3v750h151v-750h-17q-67 0 -107.5 -42.5t-40.5 -89.5q0 -25 15.5 -40.5t42.5 -15.5q26 0 51 15t39 38z" />
    <glyph glyph-name="iogonek" unicode="&#x12f;" horiz-adv-x="266" 
d="M133 576q-34 0 -58 24t-24 58t24 58t58 24t58 -24t24 -58t-24 -58t-58 -24zM192 -135l46 -64q-65 -67 -161 -60q-58 4 -94.5 32.5t-36.5 82.5q0 95 115 144h-1v500h146v-500h-14q-67 0 -107.5 -42.5t-40.5 -89.5q0 -25 15.5 -40.5t42.5 -15.5q26 0 51 15t39 38z" />
    <glyph glyph-name="Idotaccent" unicode="&#x130;" horiz-adv-x="271" 
d="M135 826q-34 0 -58 24t-24 58t24 58t58 24t58 -24t24 -58t-24 -58t-58 -24zM60 0v750h151v-750h-151z" />
    <glyph glyph-name="dotlessi" unicode="&#x131;" horiz-adv-x="266" 
d="M60 0v500h146v-500h-146z" />
    <glyph glyph-name="IJ" unicode="&#x132;" horiz-adv-x="644" 
d="M60 0v750h151v-750h-151zM387 -10q-52 0 -80 10v153q33 -12 70 -12q22 0 38 16t16 38v555h150v-570q0 -85 -54.5 -137.5t-139.5 -52.5z" />
    <glyph glyph-name="ij" unicode="&#x133;" horiz-adv-x="565" 
d="M438 586q-34 0 -58.5 24t-24.5 58t24.5 58t58.5 24q33 0 57.5 -24t24.5 -58t-24.5 -58t-57.5 -24zM144 586q-33 0 -57.5 24t-24.5 58t24.5 58t57.5 24q34 0 58.5 -24t24.5 -58t-24.5 -58t-58.5 -24zM71 0v500h146v-500h-146zM321 -260q-50 0 -73 16v122q24 -19 55 -19
q26 0 44 20t18 51v570h146v-580q0 -76 -55 -128t-135 -52z" />
    <glyph glyph-name="Kcommaaccent" unicode="&#x136;" horiz-adv-x="702" 
d="M677 750l-311 -327l293 -271v-202l-448 425v-375h-151v750h151v-293l273 293h193zM350 -41q36 0 59.5 -25.5t23.5 -65.5q-1 -95 -42.5 -155.5t-107.5 -56.5v49q29 0 48.5 23.5t20.5 43.5t-3 23q-35 0 -58 23t-23 59q0 35 23 58.5t59 23.5z" />
    <glyph glyph-name="kcommaaccent" unicode="&#x137;" horiz-adv-x="566" 
d="M552 500l-223 -215l215 -191v-181l-338 310v-223h-146v750h146v-414l169 164h177zM287 -41q36 0 59.5 -25.5t23.5 -65.5q-1 -95 -42.5 -155.5t-107.5 -56.5v49q29 0 48.5 23.5t20.5 43.5t-3 23q-35 0 -58 23t-23 59q0 35 23 58.5t59 23.5z" />
    <glyph glyph-name="Lacute" unicode="&#x139;" horiz-adv-x="496" 
d="M82 833l83 167h146l-119 -167h-110zM60 0v750h151v-618h253v-132h-404z" />
    <glyph glyph-name="lacute" unicode="&#x13a;" horiz-adv-x="363" 
d="M72 833l83 167h146l-119 -167h-110zM264 -10q-99 0 -149 49.5t-50 135.5v575h146v-576q0 -30 14 -45.5t38 -15.5q28 0 45 18l70 -104q-43 -37 -114 -37z" />
    <glyph glyph-name="Lcommaaccent" unicode="&#x13b;" horiz-adv-x="496" 
d="M60 0v750h151v-618h253v-132h-404zM196 -344v49q29 0 48.5 23.5t20.5 43.5t-3 23q-35 0 -58 23t-23 59q0 35 23 58.5t59 23.5t59.5 -25.5t23.5 -65.5q-1 -95 -42.5 -155.5t-107.5 -56.5z" />
    <glyph glyph-name="lcommaaccent" unicode="&#x13c;" horiz-adv-x="363" 
d="M264 -10q-99 0 -149 49.5t-50 135.5v575h146v-576q0 -30 14 -45.5t38 -15.5q28 0 45 18l70 -104q-43 -37 -114 -37zM168 -344v49q29 0 48.5 23.5t20.5 43.5t-3 23q-35 0 -58 23t-23 59q0 35 23 58.5t59 23.5t59.5 -25.5t23.5 -65.5q-1 -95 -42.5 -155.5t-107.5 -56.5z
" />
    <glyph glyph-name="Lcaron" unicode="&#x13d;" horiz-adv-x="508" 
d="M327 430v65q31 0 50 26.5t22 53.5q2 20 -5 20q-34 0 -57.5 24t-23.5 58q0 35 23.5 58.5t58.5 23.5q43 0 66 -34.5t23 -86.5q0 -77 -43.5 -142t-113.5 -66zM60 0v750h151v-618h253v-132h-404z" />
    <glyph glyph-name="lcaron" unicode="&#x13e;" horiz-adv-x="432" 
d="M291 430v65q31 0 50 26.5t21 53.5q3 20 -5 20q-34 0 -57.5 24t-23.5 58t24 58t58 24q43 0 66 -34.5t23 -86.5q0 -77 -43 -142t-113 -66zM264 -10q-99 0 -149 49.5t-50 135.5v575h146v-576q0 -30 14 -45.5t38 -15.5q28 0 45 18l70 -104q-43 -37 -114 -37z" />
    <glyph glyph-name="ldot" unicode="&#x140;" horiz-adv-x="363" 
d="M264 -10q-99 0 -149 49.5t-50 135.5v575h146v-576q0 -30 14 -45.5t38 -15.5q28 0 45 18l70 -104q-43 -37 -114 -37zM294 300q-24 0 -42 17.5t-18 42.5t18 43t42 18t42.5 -18t18.5 -43t-18.5 -42.5t-42.5 -17.5z" />
    <glyph glyph-name="Lslash" unicode="&#x141;" horiz-adv-x="496" 
d="M211 132h253v-132h-404v252l-38 -39h-87l125 131v406h151v-248l33 35h90l-123 -128v-277z" />
    <glyph glyph-name="lslash" unicode="&#x142;" horiz-adv-x="363" 
d="M308 131l70 -104q-43 -37 -114 -37q-99 0 -149 49.5t-50 135.5v87l-41 -43h-87l128 134v397h146v-244l35 37h90l-125 -130v-239q0 -30 14 -45.5t38 -15.5q28 0 45 18z" />
    <glyph glyph-name="Nacute" unicode="&#x143;" horiz-adv-x="808" 
d="M582 1000l-119 -167h-110l83 167h146zM598 750h150v-750h-154l-383 522v-522h-151v750h154l384 -521v521z" />
    <glyph glyph-name="nacute" unicode="&#x144;" horiz-adv-x="605" 
d="M479 750l-119 -167h-110l83 167h146zM351 510q88 0 142 -53t54 -141v-316h-146v298q0 38 -26 61.5t-67 23.5q-43 0 -72.5 -27t-29.5 -66v-290h-146v500h131l8 -58q62 68 152 68z" />
    <glyph glyph-name="Ncommaaccent" unicode="&#x145;" horiz-adv-x="808" 
d="M598 750h150v-750h-154l-383 522v-522h-151v750h154l384 -521v521zM403 -41q36 0 59.5 -25.5t23.5 -65.5q-1 -95 -42.5 -155.5t-107.5 -56.5v49q29 0 48.5 23.5t20.5 43.5t-3 23q-35 0 -58 23t-23 59q0 35 23 58.5t59 23.5z" />
    <glyph glyph-name="ncommaaccent" unicode="&#x146;" horiz-adv-x="605" 
d="M351 510q88 0 142 -53t54 -141v-316h-146v298q0 38 -26 61.5t-67 23.5q-43 0 -72.5 -27t-29.5 -66v-290h-146v500h131l8 -58q62 68 152 68zM304 -41q36 0 59.5 -25.5t23.5 -65.5q-1 -95 -42.5 -155.5t-107.5 -56.5v49q29 0 48.5 23.5t20.5 43.5t-3 23q-35 0 -58 23
t-23 59q0 35 23 58.5t59 23.5z" />
    <glyph glyph-name="Ncaron" unicode="&#x147;" horiz-adv-x="808" 
d="M481 829h-151l-105 171h106l75 -108l76 108h106zM598 750h150v-750h-154l-383 522v-522h-151v750h154l384 -521v521z" />
    <glyph glyph-name="ncaron" unicode="&#x148;" horiz-adv-x="605" 
d="M379 579h-151l-105 171h106l75 -108l76 108h106zM351 510q88 0 142 -53t54 -141v-316h-146v298q0 38 -26 61.5t-67 23.5q-43 0 -72.5 -27t-29.5 -66v-290h-146v500h131l8 -58q62 68 152 68z" />
    <glyph glyph-name="Eng" unicode="&#x14a;" horiz-adv-x="830" 
d="M611 750h145v-801q0 -94 -62 -137.5t-165 -43.5v96q39 0 58 16t19 69v55l-387 510v-514h-145v750h149l388 -513v513z" />
    <glyph glyph-name="eng" unicode="&#x14b;" horiz-adv-x="624" 
d="M363 510q83 0 140.5 -58.5t57.5 -143.5v-369q0 -94 -62.5 -137.5t-165.5 -43.5v96q40 0 61 16t21 69v351q0 39 -27 66t-66 27q-43 0 -73 -27t-30 -66v-290h-145v500h145v-56q60 66 144 66z" />
    <glyph glyph-name="Omacron" unicode="&#x14c;" horiz-adv-x="807" 
d="M249 834v92h310v-92h-310zM404 -10q-161 0 -263.5 111t-102.5 274t102.5 274t263.5 111q160 0 263 -111.5t103 -273.5t-103 -273.5t-263 -111.5zM404 136q102 0 161 67.5t59 171.5q0 105 -59 172.5t-161 67.5q-103 0 -162.5 -67.5t-59.5 -172.5q0 -104 60 -171.5
t162 -67.5z" />
    <glyph glyph-name="omacron" unicode="&#x14d;" horiz-adv-x="583" 
d="M137 584v92h310v-92h-310zM292 -10q-113 0 -187 75t-74 185t74 185t187 75q112 0 186.5 -75t74.5 -185t-74.5 -185t-186.5 -75zM292 118q51 0 84 38t33 94t-33 94.5t-84 38.5q-52 0 -84.5 -38t-32.5 -95t32.5 -94.5t84.5 -37.5z" />
    <glyph glyph-name="Ohungarumlaut" unicode="&#x150;" horiz-adv-x="807" 
d="M249 822l140 178h136l-175 -178h-101zM457 822l139 178h137l-175 -178h-101zM404 -10q-161 0 -263.5 111t-102.5 274t102.5 274t263.5 111q160 0 263 -111.5t103 -273.5t-103 -273.5t-263 -111.5zM404 136q102 0 161 67.5t59 171.5q0 105 -59 172.5t-161 67.5
q-103 0 -162.5 -67.5t-59.5 -172.5q0 -104 60 -171.5t162 -67.5z" />
    <glyph glyph-name="ohungarumlaut" unicode="&#x151;" horiz-adv-x="583" 
d="M137 572l140 178h136l-175 -178h-101zM345 572l139 178h137l-175 -178h-101zM292 -10q-113 0 -187 75t-74 185t74 185t187 75q112 0 186.5 -75t74.5 -185t-74.5 -185t-186.5 -75zM292 118q51 0 84 38t33 94t-33 94.5t-84 38.5q-52 0 -84.5 -38t-32.5 -95t32.5 -94.5
t84.5 -37.5z" />
    <glyph glyph-name="OE" unicode="&#x152;" horiz-adv-x="1195" 
d="M1121 623h-297v-184h255v-128h-255v-184h297v-127h-419v94q-110 -104 -263 -104q-160 0 -272.5 112.5t-112.5 272.5t112.5 272.5t272.5 112.5q153 0 263 -104v94h419v-127zM439 135q101 0 170.5 69.5t69.5 170.5t-69.5 170.5t-170.5 69.5t-170.5 -69.5t-69.5 -170.5
t69.5 -170.5t170.5 -69.5z" />
    <glyph glyph-name="oe" unicode="&#x153;" horiz-adv-x="927" 
d="M897 251q0 -21 -3 -43h-339q14 -106 110 -106q37 0 63.5 15.5t52.5 53.5l103 -51q-28 -61 -85 -95.5t-131 -34.5q-124 0 -193 72q-74 -72 -183 -72q-113 0 -187 75t-74 185t74 185t187 75q111 0 185 -74q69 75 186 75q108 0 171 -70.5t63 -189.5zM661 397q-83 0 -103 -91
h201q-15 91 -98 91zM292 118q51 0 84 38t33 94t-33 94.5t-84 38.5q-52 0 -84.5 -38t-32.5 -95t32.5 -94.5t84.5 -37.5z" />
    <glyph glyph-name="Racute" unicode="&#x154;" horiz-adv-x="613" 
d="M494 1000l-119 -167h-110l83 167h146zM436 328l182 -328h-169l-164 318h-74v-318h-151v750h310q93 0 157.5 -65t64.5 -159q0 -73 -43.5 -126.5t-112.5 -71.5zM364 435q39 0 65 26.5t26 65.5t-26.5 65.5t-64.5 26.5h-153v-184h153z" />
    <glyph glyph-name="racute" unicode="&#x155;" horiz-adv-x="443" 
d="M402 750l-119 -167h-110l83 167h146zM342 510q77 0 121 -43l-61 -107q-32 23 -78 23q-47 0 -82.5 -36.5t-35.5 -96.5v-250h-146v500h131l8 -77q56 87 143 87z" />
    <glyph glyph-name="Rcommaaccent" unicode="&#x156;" horiz-adv-x="613" 
d="M436 328l182 -328h-169l-164 318h-74v-318h-151v750h310q93 0 157.5 -65t64.5 -159q0 -73 -43.5 -126.5t-112.5 -71.5zM364 435q39 0 65 26.5t26 65.5t-26.5 65.5t-64.5 26.5h-153v-184h153zM319 -41q36 0 59.5 -25.5t23.5 -65.5q-1 -95 -42.5 -155.5t-107.5 -56.5v49
q29 0 48.5 23.5t20.5 43.5t-3 23q-35 0 -58 23t-23 59q0 35 23 58.5t59 23.5z" />
    <glyph glyph-name="rcommaaccent" unicode="&#x157;" horiz-adv-x="443" 
d="M342 510q77 0 121 -43l-61 -107q-32 23 -78 23q-47 0 -82.5 -36.5t-35.5 -96.5v-250h-146v500h131l8 -77q56 87 143 87zM134 -41q36 0 59.5 -25.5t23.5 -65.5q-1 -95 -42.5 -155.5t-107.5 -56.5v49q29 0 48.5 23.5t20.5 43.5t-3 23q-35 0 -58 23t-23 59q0 35 23 58.5
t59 23.5z" />
    <glyph glyph-name="Rcaron" unicode="&#x158;" horiz-adv-x="613" 
d="M394 829h-151l-105 171h106l75 -108l76 108h106zM436 328l182 -328h-169l-164 318h-74v-318h-151v750h310q93 0 157.5 -65t64.5 -159q0 -73 -43.5 -126.5t-112.5 -71.5zM364 435q39 0 65 26.5t26 65.5t-26.5 65.5t-64.5 26.5h-153v-184h153z" />
    <glyph glyph-name="rcaron" unicode="&#x159;" horiz-adv-x="443" 
d="M302 579h-151l-105 171h106l75 -108l76 108h106zM342 510q77 0 121 -43l-61 -107q-32 23 -78 23q-47 0 -82.5 -36.5t-35.5 -96.5v-250h-146v500h131l8 -77q56 87 143 87z" />
    <glyph glyph-name="Sacute" unicode="&#x15a;" horiz-adv-x="647" 
d="M282 833l83 167h146l-119 -167h-110zM332 -10q-89 0 -168.5 38t-127.5 101l104 103q66 -102 197 -102q54 0 86.5 20t33.5 61q0 20 -10.5 38t-23 29.5t-40.5 26t-44.5 21t-52.5 20.5q-39 15 -62 25.5t-55 29.5t-49.5 38.5t-30.5 49t-13 64.5q0 93 71.5 150t181.5 57
q173 0 275 -109l-98 -95q-69 78 -173 78q-45 0 -73.5 -20.5t-28.5 -54.5q0 -18 10 -33t33.5 -29t42 -22t55.5 -23t56 -23t52.5 -25t52 -33.5t39 -40t29.5 -53t9 -64.5q0 -109 -78 -166t-200 -57z" />
    <glyph glyph-name="sacute" unicode="&#x15b;" horiz-adv-x="498" 
d="M194 583l83 167h146l-119 -167h-110zM269 -10q-158 0 -239 62l64 103q24 -20 68 -35.5t81 -17.5q36 -2 59 8t23 31q0 23 -25 36t-79 28q-30 9 -48 14.5t-44 18.5t-40.5 26.5t-25.5 35.5t-11 49q0 72 57.5 116.5t151.5 44.5q122 0 205 -54l-68 -94q-47 35 -115 42
q-34 4 -59.5 -5t-25.5 -30q0 -6 1.5 -10.5t6 -9t8.5 -8t11.5 -7.5t13.5 -6.5t16 -6t17 -5.5t19 -6t19 -6q34 -11 57.5 -21t49 -27.5t39 -44t13.5 -61.5q0 -74 -54 -117t-146 -43z" />
    <glyph glyph-name="Scedilla" unicode="&#x15e;" horiz-adv-x="647" 
d="M610 213q0 -103 -70.5 -159.5t-182.5 -62.5l-29 -51q49 9 83.5 -17.5t34.5 -73.5q0 -46 -31.5 -77.5t-77.5 -31.5q-37 0 -71.5 21.5t-45.5 52.5l63 22q8 -13 23.5 -22t30.5 -9q18 0 30 13t12 31q0 28 -23.5 36.5t-58.5 -7.5l-52 30l46 84q-78 8 -145.5 44.5t-109.5 92.5
l104 103q66 -102 197 -102q54 0 86.5 20t33.5 61q0 20 -10.5 38t-23 29.5t-40.5 26t-44.5 21t-52.5 20.5q-39 15 -62 25.5t-55 29.5t-49.5 38.5t-30.5 49t-13 64.5q0 93 71.5 150t181.5 57q173 0 275 -109l-98 -95q-69 78 -173 78q-45 0 -73.5 -20.5t-28.5 -54.5
q0 -18 10 -33t33.5 -29t42 -22t55.5 -23t56 -23t52.5 -25t52 -33.5t39 -40t29.5 -53t9 -64.5z" />
    <glyph glyph-name="scedilla" unicode="&#x15f;" horiz-adv-x="498" 
d="M469 150q0 -69 -48 -111.5t-130 -47.5l-29 -51q49 9 83.5 -17.5t34.5 -73.5q0 -46 -31.5 -77.5t-77.5 -31.5q-37 0 -71.5 21.5t-45.5 52.5l63 22q8 -13 23.5 -22t30.5 -9q18 0 30 13t12 31q0 28 -23.5 36.5t-58.5 -7.5l-52 30l45 84q-126 8 -194 60l64 103
q24 -20 68 -35.5t81 -17.5q36 -2 59 8t23 31q0 23 -25 36t-79 28q-30 9 -48 14.5t-44 18.5t-40.5 26.5t-25.5 35.5t-11 49q0 72 57.5 116.5t151.5 44.5q122 0 205 -54l-68 -94q-47 35 -115 42q-34 4 -59.5 -5t-25.5 -30q0 -6 1.5 -10.5t6 -9t8.5 -8t11.5 -7.5t13.5 -6.5
t16 -6t17 -5.5t19 -6t19 -6q34 -11 57.5 -21t49 -27.5t39 -44t13.5 -61.5z" />
    <glyph glyph-name="Scaron" unicode="&#x160;" horiz-adv-x="647" 
d="M259 829l-105 171h106l75 -108l76 108h106l-107 -171h-151zM332 -10q-89 0 -168.5 38t-127.5 101l104 103q66 -102 197 -102q54 0 86.5 20t33.5 61q0 20 -10.5 38t-23 29.5t-40.5 26t-44.5 21t-52.5 20.5q-39 15 -62 25.5t-55 29.5t-49.5 38.5t-30.5 49t-13 64.5
q0 93 71.5 150t181.5 57q173 0 275 -109l-98 -95q-69 78 -173 78q-45 0 -73.5 -20.5t-28.5 -54.5q0 -18 10 -33t33.5 -29t42 -22t55.5 -23t56 -23t52.5 -25t52 -33.5t39 -40t29.5 -53t9 -64.5q0 -109 -78 -166t-200 -57z" />
    <glyph glyph-name="scaron" unicode="&#x161;" horiz-adv-x="498" 
d="M172 579l-105 171h106l75 -108l76 108h106l-107 -171h-151zM269 -10q-158 0 -239 62l64 103q24 -20 68 -35.5t81 -17.5q36 -2 59 8t23 31q0 23 -25 36t-79 28q-30 9 -48 14.5t-44 18.5t-40.5 26.5t-25.5 35.5t-11 49q0 72 57.5 116.5t151.5 44.5q122 0 205 -54l-68 -94
q-47 35 -115 42q-34 4 -59.5 -5t-25.5 -30q0 -6 1.5 -10.5t6 -9t8.5 -8t11.5 -7.5t13.5 -6.5t16 -6t17 -5.5t19 -6t19 -6q34 -11 57.5 -21t49 -27.5t39 -44t13.5 -61.5q0 -74 -54 -117t-146 -43z" />
    <glyph glyph-name="uni0162" unicode="&#x162;" horiz-adv-x="580" 
d="M365 0h-41l-34 -60q49 9 83.5 -17.5t34.5 -73.5q0 -46 -31.5 -77.5t-77.5 -31.5q-37 0 -71.5 21.5t-45.5 52.5l63 22q8 -13 23.5 -22t30.5 -9q18 0 30 13t12 31q0 28 -23.5 36.5t-58.5 -7.5l-52 30l50 92h-41v619h-193v131h534v-131h-192v-619z" />
    <glyph glyph-name="uni0163" unicode="&#x163;" horiz-adv-x="389" 
d="M248 -60q49 9 83.5 -17.5t34.5 -73.5q0 -46 -31.5 -77.5t-77.5 -31.5q-37 0 -71.5 21.5t-45.5 52.5l63 22q8 -13 23.5 -22t30.5 -9q18 0 30 13t12 31q0 28 -23.5 36.5t-58.5 -7.5l-52 30l48 89q-132 31 -132 178v216h-60v109h60v170h146v-170h125v-109h-125v-217
q0 -30 14 -45.5t38 -15.5q28 0 45 18l70 -104q-43 -37 -114 -37h-4z" />
    <glyph glyph-name="Tcaron" unicode="&#x164;" horiz-adv-x="580" 
d="M365 829h-151l-105 171h106l75 -108l76 108h106zM557 750v-131h-192v-619h-149v619h-193v131h534z" />
    <glyph glyph-name="tcaron" unicode="&#x165;" horiz-adv-x="437" 
d="M362 691q-34 0 -57.5 24t-23.5 58t24 58t58 24q43 0 66 -34.5t23 -86.5q0 -77 -43 -142t-113 -66v65q31 0 50 26.5t21 53.5q3 20 -5 20zM279 113q28 0 45 18l70 -104q-43 -37 -114 -37q-99 0 -149 49.5t-50 135.5v216h-60v109h60v170h146v-170h125v-109h-125v-217
q0 -30 14 -45.5t38 -15.5z" />
    <glyph glyph-name="Tbar" unicode="&#x166;" horiz-adv-x="580" 
d="M557 619h-192v-203h94v-82h-94v-334h-149v334h-96v82h96v203h-193v131h534v-131z" />
    <glyph glyph-name="tbar" unicode="&#x167;" horiz-adv-x="389" 
d="M324 131l70 -104q-43 -37 -114 -37q-99 0 -149 49.5t-50 135.5v34h-58v82h58v100h-60v109h60v170h146v-170h125v-109h-125v-100h135v-82h-135v-35q0 -30 14 -45.5t38 -15.5q28 0 45 18z" />
    <glyph glyph-name="Utilde" unicode="&#x168;" horiz-adv-x="738" 
d="M434 817q-60 0 -101 58q-12 19 -27 19q-18 0 -23 -19.5t5 -49.5h-85q-15 65 15 108.5t84 43.5q63 0 102 -58q10 -19 27 -19q18 0 23 19t-5 49h85q15 -64 -14 -107.5t-86 -43.5zM369 -10q-129 0 -218 73t-89 179v508h151v-481q0 -61 45.5 -104t110.5 -43t110.5 43
t45.5 104v481h151v-508q0 -106 -89 -179t-218 -73z" />
    <glyph glyph-name="Umacron" unicode="&#x16a;" horiz-adv-x="738" 
d="M214 834v92h310v-92h-310zM369 -10q-129 0 -218 73t-89 179v508h151v-481q0 -61 45.5 -104t110.5 -43t110.5 43t45.5 104v481h151v-508q0 -106 -89 -179t-218 -73z" />
    <glyph glyph-name="umacron" unicode="&#x16b;" horiz-adv-x="608" 
d="M460 676v-92h-310v92h310zM403 500h145v-500h-130l-8 59q-61 -69 -151 -69q-83 0 -140.5 59t-57.5 144v307h146v-289q0 -39 27 -66t67 -27q42 0 72 27t30 66v289z" />
    <glyph glyph-name="Uring" unicode="&#x16e;" horiz-adv-x="738" 
d="M369 802q-49 0 -83.5 34.5t-34.5 83.5q0 47 34.5 81.5t83.5 34.5q48 0 82 -34.5t34 -81.5q0 -49 -34 -83.5t-82 -34.5zM369 862q24 0 40.5 16t16.5 42q0 24 -16.5 41t-40.5 17t-40 -17t-16 -41q0 -26 16 -42t40 -16zM369 -10q-129 0 -218 73t-89 179v508h151v-481
q0 -61 45.5 -104t110.5 -43t110.5 43t45.5 104v481h151v-508q0 -106 -89 -179t-218 -73z" />
    <glyph glyph-name="uring" unicode="&#x16f;" horiz-adv-x="608" 
d="M305 552q-49 0 -83.5 34.5t-34.5 83.5q0 47 34.5 81.5t83.5 34.5q48 0 82 -34.5t34 -81.5q0 -49 -34 -83.5t-82 -34.5zM305 728q-24 0 -40 -17t-16 -41q0 -26 16 -42t40 -16t40.5 16t16.5 42q0 24 -16.5 41t-40.5 17zM403 500h145v-500h-130l-8 59q-61 -69 -151 -69
q-83 0 -140.5 59t-57.5 144v307h146v-289q0 -39 27 -66t67 -27q42 0 72 27t30 66v289z" />
    <glyph glyph-name="Uhungarumlaut" unicode="&#x170;" horiz-adv-x="738" 
d="M214 822l140 178h136l-175 -178h-101zM422 822l139 178h137l-175 -178h-101zM369 -10q-129 0 -218 73t-89 179v508h151v-481q0 -61 45.5 -104t110.5 -43t110.5 43t45.5 104v481h151v-508q0 -106 -89 -179t-218 -73z" />
    <glyph glyph-name="uhungarumlaut" unicode="&#x171;" horiz-adv-x="608" 
d="M426 750l-175 -178h-101l140 178h136zM459 572h-101l139 178h137zM403 211v289h145v-500h-130l-8 59q-61 -69 -151 -69q-83 0 -140.5 59t-57.5 144v307h146v-289q0 -39 27 -66t67 -27q42 0 72 27t30 66z" />
    <glyph glyph-name="Uogonek" unicode="&#x172;" horiz-adv-x="738" 
d="M525 750h151v-508q0 -100 -80 -171.5t-200 -79.5q-41 -16 -64.5 -51.5t-23.5 -69.5q0 -25 15.5 -40.5t42.5 -15.5q26 0 51 15t39 38l46 -64q-65 -67 -161 -60q-58 4 -94 32.5t-36 82.5q0 88 98 137q-108 17 -177.5 85.5t-69.5 161.5v508h151v-481q0 -61 45.5 -104
t110.5 -43t110.5 43t45.5 104v481z" />
    <glyph glyph-name="uogonek" unicode="&#x173;" horiz-adv-x="608" 
d="M548 -135l46 -64q-65 -67 -161 -60q-58 4 -94 32.5t-36 82.5q0 96 114 144l-7 59q-61 -69 -151 -69q-83 0 -140.5 59t-57.5 144v307h146v-289q0 -39 27 -66t67 -27q42 0 72 27t30 66v289h145v-500q-67 0 -107.5 -42.5t-40.5 -89.5q0 -25 15.5 -40.5t42.5 -15.5
q26 0 51 15t39 38z" />
    <glyph glyph-name="Wcircumflex" unicode="&#x174;" horiz-adv-x="1170" 
d="M585 937l-71 -108h-110l105 171h151l107 -171h-111zM1019 750h162l-317 -750h-164l-115 274l-115 -274h-163l-319 750h163l243 -585l118 281l-127 304h149l242 -586z" />
    <glyph glyph-name="wcircumflex" unicode="&#x175;" horiz-adv-x="787" 
d="M354 687l-71 -108h-110l105 171h151l107 -171h-111zM616 500h163l-171 -500h-154l-60 181l-60 -181h-154l-172 500h165l93 -339l67 207l-43 132h132l100 -340z" />
    <glyph glyph-name="Ycircumflex" unicode="&#x176;" horiz-adv-x="678" 
d="M340 937l-71 -108h-110l105 171h151l107 -171h-111zM677 750l-262 -395v-355h-150v352l-264 398h168l170 -269l172 269h166z" />
    <glyph glyph-name="ycircumflex" unicode="&#x177;" horiz-adv-x="609" 
d="M305 687l-71 -108h-110l105 171h151l107 -171h-111zM548 500l1 -500q0 -114 -74 -183t-197 -69q-89 0 -159 31v139q69 -50 161 -50q54 0 88.5 34t34.5 98v51q-61 -61 -144 -61t-140.5 59t-57.5 144v307h146v-289q0 -39 27 -66t67 -27q42 0 72 27t30 66v289h145z" />
    <glyph glyph-name="Ydieresis" unicode="&#x178;" horiz-adv-x="678" 
d="M231 826q-34 0 -58 24t-24 58t24 58t58 24t58 -24t24 -58t-24 -58t-58 -24zM449 826q-33 0 -57.5 24t-24.5 58t24.5 58t57.5 24q34 0 58 -24t24 -58t-24 -58t-58 -24zM677 750l-262 -395v-355h-150v352l-264 398h168l170 -269l172 269h166z" />
    <glyph glyph-name="Zacute" unicode="&#x179;" horiz-adv-x="639" 
d="M508 1000l-119 -167h-110l83 167h146zM233 132h372v-132h-573v81l369 538h-359v131h561v-81z" />
    <glyph glyph-name="zacute" unicode="&#x17a;" horiz-adv-x="523" 
d="M214 583l83 167h146l-119 -167h-110zM43 0v107l251 274h-250v119h434v-105l-252 -276h254v-119h-437z" />
    <glyph glyph-name="Zdotaccent" unicode="&#x17b;" horiz-adv-x="639" 
d="M333 826q-34 0 -58 24t-24 58t24 58t58 24t58 -24t24 -58t-24 -58t-58 -24zM233 132h372v-132h-573v81l369 538h-359v131h561v-81z" />
    <glyph glyph-name="zdotaccent" unicode="&#x17c;" horiz-adv-x="523" 
d="M268 576q-34 0 -58 24t-24 58t24 58t58 24t58 -24t24 -58t-24 -58t-58 -24zM43 0v107l251 274h-250v119h434v-105l-252 -276h254v-119h-437z" />
    <glyph glyph-name="Zcaron" unicode="&#x17d;" horiz-adv-x="639" 
d="M407 829h-151l-105 171h106l75 -108l76 108h106zM233 132h372v-132h-573v81l369 538h-359v131h561v-81z" />
    <glyph glyph-name="zcaron" unicode="&#x17e;" horiz-adv-x="523" 
d="M192 579l-105 171h106l75 -108l76 108h106l-107 -171h-151zM43 0v107l251 274h-250v119h434v-105l-252 -276h254v-119h-437z" />
    <glyph glyph-name="florin" unicode="&#x192;" horiz-adv-x="479" 
d="M397 657q-38 0 -63 -24.5t-32 -67.5l-11 -65h135l-17 -109h-135l-102 -641h-130l101 641h-83l17 109h84l13 85q12 75 72.5 125t136.5 50q54 0 76 -18l-12 -101q-17 16 -50 16z" />
    <glyph glyph-name="uni01CD" unicode="&#x1cd;" horiz-adv-x="774" 
d="M462 829h-151l-105 171h106l75 -108l76 108h106zM609 0l-53 142h-339l-53 -142h-163l301 750h169l301 -750h-163zM263 266h247l-123 331z" />
    <glyph glyph-name="uni01CE" unicode="&#x1ce;" horiz-adv-x="559" 
d="M369 579h-151l-105 171h106l75 -108l76 108h106zM275 510q103 0 165 -48t62 -144v-318h-123l-7 49q-76 -59 -165 -59q-72 0 -117 41.5t-45 111.5q0 75 64.5 118.5t179.5 25.5l71 -11v43q0 41 -28.5 61t-70.5 20q-73 0 -123 -60l-87 83q42 46 94 66.5t130 20.5zM197 151
q0 -25 17 -39.5t44 -14.5q51 0 102 45v51l-40 8q-66 13 -94.5 -3t-28.5 -47z" />
    <glyph glyph-name="uni01CF" unicode="&#x1cf;" horiz-adv-x="271" 
d="M58 829l-106 171h107l75 -108l76 108h106l-107 -171h-151zM60 0v750h151v-750h-151z" />
    <glyph glyph-name="uni01D0" unicode="&#x1d0;" horiz-adv-x="266" 
d="M57 579l-106 171h107l75 -108l76 108h106l-107 -171h-151zM60 0v500h146v-500h-146z" />
    <glyph glyph-name="uni01D1" unicode="&#x1d1;" horiz-adv-x="807" 
d="M328 829l-105 171h106l75 -108l76 108h106l-107 -171h-151zM404 -10q-161 0 -263.5 111t-102.5 274t102.5 274t263.5 111q160 0 263 -111.5t103 -273.5t-103 -273.5t-263 -111.5zM404 136q102 0 161 67.5t59 171.5q0 105 -59 172.5t-161 67.5q-103 0 -162.5 -67.5
t-59.5 -172.5q0 -104 60 -171.5t162 -67.5z" />
    <glyph glyph-name="uni01D2" unicode="&#x1d2;" horiz-adv-x="583" 
d="M216 579l-105 171h106l75 -108l76 108h106l-107 -171h-151zM292 -10q-113 0 -187 75t-74 185t74 185t187 75q112 0 186.5 -75t74.5 -185t-74.5 -185t-186.5 -75zM292 118q51 0 84 38t33 94t-33 94.5t-84 38.5q-52 0 -84.5 -38t-32.5 -95t32.5 -94.5t84.5 -37.5z" />
    <glyph glyph-name="uni01D3" unicode="&#x1d3;" horiz-adv-x="738" 
d="M293 829l-105 171h106l75 -108l76 108h106l-107 -171h-151zM369 -10q-129 0 -218 73t-89 179v508h151v-481q0 -61 45.5 -104t110.5 -43t110.5 43t45.5 104v481h151v-508q0 -106 -89 -179t-218 -73z" />
    <glyph glyph-name="uni01D4" unicode="&#x1d4;" horiz-adv-x="608" 
d="M380 579h-151l-105 171h106l75 -108l76 108h106zM403 500h145v-500h-130l-8 59q-61 -69 -151 -69q-83 0 -140.5 59t-57.5 144v307h146v-289q0 -39 27 -66t67 -27q42 0 72 27t30 66v289z" />
    <glyph glyph-name="Gcaron" unicode="&#x1e6;" horiz-adv-x="737" 
d="M510 829h-151l-105 171h106l75 -108l76 108h106zM454 621q-114 0 -186 -67t-72 -183q0 -112 70.5 -178.5t178.5 -66.5q49 0 96 14v157h-143v129h279v-376q-112 -69 -226 -69q-176 0 -287 107.5t-111 282.5q0 172 111.5 280.5t274.5 108.5q139 0 238 -69v-172
q-92 102 -223 102z" />
    <glyph glyph-name="gcaron" unicode="&#x1e7;" horiz-adv-x="604" 
d="M362 579h-151l-105 171h106l75 -108l76 108h106zM414 500h130v-498q0 -114 -70.5 -183t-186.5 -69q-79 0 -145 30v139q65 -49 146 -49q48 0 79.5 34t31.5 98v42q-56 -54 -136 -54q-102 0 -167 74.5t-65 185.5t65 185.5t167 74.5q87 0 144 -62zM292 118q36 0 64.5 21.5
t42.5 57.5v106q-14 36 -43 58t-64 22q-52 0 -84.5 -38t-32.5 -95t32.5 -94.5t84.5 -37.5z" />
    <glyph glyph-name="Oslashacute" unicode="&#x1fe;" horiz-adv-x="807" 
d="M579 1000l-119 -167h-110l83 167h146zM644 671q60 -54 93 -131t33 -165q0 -162 -103 -273.5t-263 -111.5q-101 0 -181 46l-45 -69h-89l74 112q-59 53 -92 130t-33 166q0 163 102.5 274t263.5 111q98 0 180 -46l45 68h89zM182 375q0 -107 62 -174l260 392q-46 22 -100 22
q-103 0 -162.5 -67.5t-59.5 -172.5zM404 136q102 0 161 67.5t59 171.5q0 108 -60 174l-260 -392q42 -21 100 -21z" />
    <glyph glyph-name="oslashacute" unicode="&#x1ff;" horiz-adv-x="583" 
d="M467 750l-119 -167h-110l83 167h146zM458 454q95 -77 95 -204q0 -110 -74.5 -185t-186.5 -75q-67 0 -123 28l-35 -52h-62l53 80q-94 76 -94 204q0 110 74 185t187 75q66 0 122 -28l35 52h62zM175 250q0 -54 27 -88l139 209q-22 12 -49 12q-52 0 -84.5 -38t-32.5 -95z
M292 118q51 0 84 38t33 94q0 50 -28 88l-139 -209q21 -11 50 -11z" />
    <glyph glyph-name="Scommaaccent" unicode="&#x218;" horiz-adv-x="647" 
d="M332 -10q-89 0 -168.5 38t-127.5 101l104 103q66 -102 197 -102q54 0 86.5 20t33.5 61q0 20 -10.5 38t-23 29.5t-40.5 26t-44.5 21t-52.5 20.5q-39 15 -62 25.5t-55 29.5t-49.5 38.5t-30.5 49t-13 64.5q0 93 71.5 150t181.5 57q173 0 275 -109l-98 -95q-69 78 -173 78
q-45 0 -73.5 -20.5t-28.5 -54.5q0 -18 10 -33t33.5 -29t42 -22t55.5 -23t56 -23t52.5 -25t52 -33.5t39 -40t29.5 -53t9 -64.5q0 -109 -78 -166t-200 -57zM261 -344v49q29 0 48.5 23.5t20.5 43.5t-3 23q-35 0 -58 23t-23 59q0 35 23 58.5t59 23.5t59.5 -25.5t23.5 -65.5
q-1 -95 -42.5 -155.5t-107.5 -56.5z" />
    <glyph glyph-name="scommaaccent" unicode="&#x219;" horiz-adv-x="498" 
d="M269 -10q-158 0 -239 62l64 103q24 -20 68 -35.5t81 -17.5q36 -2 59 8t23 31q0 23 -25 36t-79 28q-30 9 -48 14.5t-44 18.5t-40.5 26.5t-25.5 35.5t-11 49q0 72 57.5 116.5t151.5 44.5q122 0 205 -54l-68 -94q-47 35 -115 42q-34 4 -59.5 -5t-25.5 -30q0 -6 1.5 -10.5
t6 -9t8.5 -8t11.5 -7.5t13.5 -6.5t16 -6t17 -5.5t19 -6t19 -6q34 -11 57.5 -21t49 -27.5t39 -44t13.5 -61.5q0 -74 -54 -117t-146 -43zM196 -344v49q29 0 48.5 23.5t20.5 43.5t-3 23q-35 0 -58 23t-23 59q0 35 23 58.5t59 23.5t59.5 -25.5t23.5 -65.5q-1 -95 -42.5 -155.5
t-107.5 -56.5z" />
    <glyph glyph-name="uni021A" unicode="&#x21a;" horiz-adv-x="580" 
d="M23 750h534v-131h-192v-619h-149v619h-193v131zM290 -41q36 0 59.5 -25.5t23.5 -65.5q-1 -95 -42.5 -155.5t-107.5 -56.5v49q29 0 48.5 23.5t20.5 43.5t-3 23q-35 0 -58 23t-23 59q0 35 23 58.5t59 23.5z" />
    <glyph glyph-name="uni021B" unicode="&#x21b;" horiz-adv-x="389" 
d="M394 27q-43 -37 -114 -37q-99 0 -149 49.5t-50 135.5v216h-60v109h60v170h146v-170h125v-109h-125v-217q0 -30 14 -45.5t38 -15.5q28 0 45 18zM248 -41q36 0 59.5 -25.5t23.5 -65.5q-1 -95 -42.5 -155.5t-107.5 -56.5v49q29 0 48.5 23.5t20.5 43.5t-3 23q-35 0 -58 23
t-23 59q0 35 23 58.5t59 23.5z" />
    <glyph glyph-name="uni0228" unicode="&#x228;" horiz-adv-x="540" 
d="M505 619h-294v-178h252v-132h-252v-177h294v-132h-189l-34 -60q49 9 83.5 -17.5t34.5 -73.5q0 -46 -31.5 -77.5t-77.5 -31.5q-37 0 -71.5 21.5t-45.5 52.5l63 22q8 -13 23.5 -22t30.5 -9q18 0 30 13t12 31q0 28 -23.5 36.5t-58.5 -7.5l-52 30l50 92h-189v750h445v-131z
" />
    <glyph glyph-name="uni0229" unicode="&#x229;" horiz-adv-x="548" 
d="M518 251q0 -21 -3 -43h-339q13 -106 110 -106q37 0 63.5 15.5t52.5 53.5l103 -51q-25 -54 -73 -87.5t-112 -40.5l-30 -53q49 9 83.5 -17.5t34.5 -73.5q0 -46 -31.5 -77.5t-77.5 -31.5q-37 0 -71.5 21.5t-45.5 52.5l63 22q8 -13 23.5 -22t30.5 -9q18 0 30 13t12 31
q0 28 -23.5 36.5t-58.5 -7.5l-52 30l46 85q-110 10 -166 79.5t-56 178.5q0 114 68 187.5t185 73.5q108 0 171 -70.5t63 -189.5zM282 397q-83 0 -103 -91h201q-16 91 -98 91z" />
    <glyph glyph-name="uni0237" unicode="&#x237;" horiz-adv-x="302" 
d="M36 -260q-51 0 -74 16v122q24 -19 56 -19q26 0 44 20t18 51v570h146v-580q0 -76 -55 -128t-135 -52z" />
    <glyph glyph-name="circumflex" unicode="&#x2c6;" horiz-adv-x="23" 
d="M14 579l105 171h151l107 -171h-111l-71 108l-71 -108h-110z" />
    <glyph glyph-name="caron" unicode="&#x2c7;" horiz-adv-x="23" 
d="M119 579l-105 171h106l75 -108l76 108h106l-107 -171h-151z" />
    <glyph glyph-name="breve" unicode="&#x2d8;" horiz-adv-x="23" 
d="M286 557q-81 0 -129.5 44.5t-48.5 127.5h83q0 -35 26.5 -62t68.5 -27q43 0 70 26.5t27 62.5h83q0 -83 -48.5 -127.5t-131.5 -44.5z" />
    <glyph glyph-name="dotaccent" unicode="&#x2d9;" horiz-adv-x="23" 
d="M156 576q-34 0 -58 24t-24 58t24 58t58 24t58 -24t24 -58t-24 -58t-58 -24z" />
    <glyph glyph-name="ring" unicode="&#x2da;" horiz-adv-x="23" 
d="M90 552q-49 0 -83.5 34.5t-34.5 83.5q0 47 34.5 81.5t83.5 34.5q48 0 82 -34.5t34 -81.5q0 -49 -34 -83.5t-82 -34.5zM90 612q24 0 40.5 16t16.5 42q0 24 -16.5 41t-40.5 17t-40 -17t-16 -41q0 -26 16 -42t40 -16z" />
    <glyph glyph-name="ogonek" unicode="&#x2db;" horiz-adv-x="23" 
d="M122 -259q-58 4 -94.5 32.5t-36.5 82.5q0 56 44.5 99.5t134.5 65.5l67 -21q-67 0 -107.5 -42.5t-40.5 -89.5q0 -25 15.5 -40.5t42.5 -15.5q26 0 51 15t39 38l46 -64q-65 -67 -161 -60z" />
    <glyph glyph-name="tilde" unicode="&#x2dc;" horiz-adv-x="24" 
d="M248 597q-60 0 -101 58q-12 19 -27 19q-18 0 -23 -19.5t5 -49.5h-85q-15 65 15 108.5t84 43.5q63 0 102 -58q10 -19 27 -19q18 0 23 19t-5 49h85q15 -64 -14 -107.5t-86 -43.5z" />
    <glyph glyph-name="hungarumlaut" unicode="&#x2dd;" horiz-adv-x="23" 
d="M14 572l140 178h136l-175 -178h-101zM222 572l139 178h137l-175 -178h-101z" />
    <glyph glyph-name="gravecomb" unicode="&#x300;" 
d="M-123 583l-120 167h146l83 -167h-109z" />
    <glyph glyph-name="acutecomb" unicode="&#x301;" 
d="M-243 583l83 167h146l-119 -167h-110z" />
    <glyph glyph-name="uni0302" unicode="&#x302;" 
d="M-376 579l105 171h151l107 -171h-111l-71 108l-71 -108h-110z" />
    <glyph glyph-name="tildecomb" unicode="&#x303;" 
d="M-118 597q-60 0 -101 58q-12 19 -27 19q-18 0 -23 -19.5t5 -49.5h-85q-15 65 15 108.5t84 43.5q63 0 102 -58q10 -19 27 -19q18 0 23 19t-5 49h85q15 -64 -14 -107.5t-86 -43.5z" />
    <glyph glyph-name="uni0304" unicode="&#x304;" 
d="M-323 584v92h310v-92h-310z" />
    <glyph glyph-name="uni0306" unicode="&#x306;" 
d="M-336 557q-81 0 -129.5 44.5t-48.5 127.5h83q0 -35 26.5 -62t68.5 -27q43 0 70 26.5t27 62.5h83q0 -83 -48.5 -127.5t-131.5 -44.5z" />
    <glyph glyph-name="uni0307" unicode="&#x307;" 
d="M-156 576q-34 0 -58 24t-24 58t24 58t58 24t58 -24t24 -58t-24 -58t-58 -24z" />
    <glyph glyph-name="uni0308" unicode="&#x308;" 
d="M-345 576q-34 0 -58 24t-24 58t24 58t58 24t58 -24t24 -58t-24 -58t-58 -24zM-127 576q-33 0 -57.5 24t-24.5 58t24.5 58t57.5 24q34 0 58 -24t24 -58t-24 -58t-58 -24z" />
    <glyph glyph-name="uni030A" unicode="&#x30a;" 
d="M-88 552q-49 0 -83.5 34.5t-34.5 83.5q0 47 34.5 81.5t83.5 34.5q48 0 82 -34.5t34 -81.5q0 -49 -34 -83.5t-82 -34.5zM-88 612q24 0 40.5 16t16.5 42q0 24 -16.5 41t-40.5 17t-40 -17t-16 -41q0 -26 16 -42t40 -16z" />
    <glyph glyph-name="uni030B" unicode="&#x30b;" 
d="M-498 572l140 178h136l-175 -178h-101zM-290 572l139 178h137l-175 -178h-101z" />
    <glyph glyph-name="uni030C" unicode="&#x30c;" 
d="M-271 579l-105 171h106l75 -108l76 108h106l-107 -171h-151z" />
    <glyph glyph-name="uni0312" unicode="&#x312;" 
d="M-96 461q-34 0 -58 27t-24 65q-1 84 52 145.5t98 65.5v-47q-25 -9 -44 -31.5t-25 -41t1 -18.5q34 0 58 -24t24 -58q0 -35 -24 -59t-58 -24z" />
    <glyph glyph-name="dotbelowcomb" unicode="&#x323;" 
d="M-96 -250q-34 0 -58 24t-24 58t24 58t58 24t58 -24t24 -58t-24 -58t-58 -24z" />
    <glyph glyph-name="uni0326" unicode="&#x326;" 
d="M-163 -149v49q29 0 48.5 23.5t20.5 43.5t-3 23q-35 0 -58 23t-23 59t23 59.5t59 23.5t59.5 -26t23.5 -66q-1 -95 -42.5 -155.5t-107.5 -56.5z" />
    <glyph glyph-name="uni0327" unicode="&#x327;" 
d="M-122 -260q-37 0 -71.5 21.5t-45.5 52.5l63 22q8 -13 23.5 -22t30.5 -9q18 0 30 13t12 31q0 28 -24 36.5t-58 -7.5l-52 30l50 92h67l-34 -60q49 9 83.5 -17.5t34.5 -73.5q0 -46 -31.5 -77.5t-77.5 -31.5z" />
    <glyph glyph-name="uni0328" unicode="&#x328;" 
d="M-174 -259q-58 4 -94.5 32.5t-36.5 82.5q0 56 44.5 99.5t134.5 65.5l67 -21q-67 0 -107.5 -42.5t-40.5 -89.5q0 -25 15.5 -40.5t42.5 -15.5q26 0 51 15t39 38l46 -64q-65 -67 -161 -60z" />
    <glyph glyph-name="uni0335" unicode="&#x335;" 
d="M-493 211v82h339v-82h-339z" />
    <glyph glyph-name="uni0336" unicode="&#x336;" 
d="M-756 232v56h742v-56h-742z" />
    <glyph glyph-name="uni0337" unicode="&#x337;" 
d="M-487 92l308 324h90l-312 -324h-86z" />
    <glyph glyph-name="uni0338" unicode="&#x338;" 
d="M-632 -32l541 815h89l-540 -815h-90z" />
    <glyph glyph-name="uni0394" unicode="&#x394;" horiz-adv-x="772" 
d="M27 0v76l280 682h164l274 -681v-77h-718zM176 120h412l-134 324q-4 11 -32 87t-36 102h-7q-5 -19 -30 -86t-32 -86z" />
    <glyph glyph-name="Lambda" unicode="&#x39b;" horiz-adv-x="774" 
d="M772 0h-163l-222 582l-223 -582h-163l301 750h169z" />
    <glyph glyph-name="Xi" unicode="&#x39e;" horiz-adv-x="590" 
d="M67 619v131h448v-131h-448zM127 309v132h328v-132h-328zM67 0v132h448v-132h-448z" />
    <glyph glyph-name="uni03A9" unicode="&#x3a9;" horiz-adv-x="853" 
d="M45 0v105h136v4q-49 47 -84.5 125t-35.5 168q0 150 103 250.5t265 100.5q110 0 194.5 -50t126.5 -128.5t42 -171.5q0 -87 -35.5 -167t-87.5 -127v-4h139v-105h-315v78q70 39 115.5 117t45.5 183q0 114 -60 191.5t-164 77.5q-102 0 -166.5 -75.5t-64.5 -193.5
q0 -104 47.5 -185t114.5 -115v-78h-316z" />
    <glyph glyph-name="uni03BC" unicode="&#x3bc;" horiz-adv-x="635" 
d="M405 500h146v-500h-146v56q-60 -66 -145 -66q-48 0 -90 22v-262h-106v750h145v-289q0 -39 27.5 -66t66.5 -27q43 0 72.5 27t29.5 66v289z" />
    <glyph glyph-name="pi" unicode="&#x3c0;" horiz-adv-x="700" 
d="M65 0q28 87 50.5 219t24.5 227q-82 0 -123 -12l-15 85q48 34 188 34h496l-11 -107h-87v-279q0 -109 15 -167h-132q-19 30 -19 157v289h-178q-4 -103 -26 -240t-51 -206h-132z" />
    <glyph glyph-name="uni1E04" unicode="&#x1e04;" horiz-adv-x="654" 
d="M478 387q65 -20 102.5 -66t37.5 -117q0 -94 -62.5 -149t-157.5 -55h-338v750h280q96 0 159 -56t63 -151q0 -108 -84 -156zM412 528q0 37 -26.5 64t-63.5 27h-112v-183h112q37 0 63.5 27.5t26.5 64.5zM376 132q38 0 64.5 27t26.5 64t-26.5 64t-64.5 27h-166v-182h166z
M324 -49q34 0 58 -24t24 -58t-24 -58t-58 -24t-58 24t-24 58t24 58t58 24z" />
    <glyph glyph-name="uni1E05" unicode="&#x1e05;" horiz-adv-x="603" 
d="M341 510q101 0 166.5 -74.5t65.5 -185.5t-65.5 -185.5t-166.5 -74.5q-88 0 -146 63l-6 -54l-129 1v750h144v-294q56 54 137 54zM312 118q52 0 84.5 38t32.5 94t-32.5 94.5t-84.5 38.5q-36 0 -65.5 -22.5t-42.5 -58.5v-104q13 -36 42 -58t66 -22zM320 -49q34 0 58 -24
t24 -58t-24 -58t-58 -24t-58 24t-24 58t24 58t58 24z" />
    <glyph glyph-name="uni1E24" unicode="&#x1e24;" horiz-adv-x="744" 
d="M533 750h151v-750h-151v309h-322v-309h-151v750h151v-308h322v308zM373 -49q34 0 58 -24t24 -58t-24 -58t-58 -24t-58 24t-24 58t24 58t58 24z" />
    <glyph glyph-name="uni1E25" unicode="&#x1e25;" horiz-adv-x="605" 
d="M351 510q88 0 142 -53t54 -141v-316h-146v298q0 38 -26 61.5t-67 23.5q-43 0 -72.5 -27t-29.5 -66v-290h-146v750h146v-301q59 61 145 61zM299 -49q34 0 58 -24t24 -58t-24 -58t-58 -24t-58 24t-24 58t24 58t58 24z" />
    <glyph glyph-name="uni1E36" unicode="&#x1e36;" horiz-adv-x="496" 
d="M60 0v750h151v-618h253v-132h-404zM263 -213q-34 0 -58 24t-24 58t24 58t58 24t58 -24t24 -58t-24 -58t-58 -24z" />
    <glyph glyph-name="uni1E37" unicode="&#x1e37;" horiz-adv-x="363" 
d="M264 -10q-99 0 -149 49.5t-50 135.5v575h146v-576q0 -30 14 -45.5t38 -15.5q28 0 45 18l70 -104q-43 -37 -114 -37zM235 -213q-34 0 -58 24t-24 58t24 58t58 24t58 -24t24 -58t-24 -58t-58 -24z" />
    <glyph glyph-name="uni1E44" unicode="&#x1e44;" horiz-adv-x="808" 
d="M407 826q-34 0 -58 24t-24 58t24 58t58 24t58 -24t24 -58t-24 -58t-58 -24zM598 750h150v-750h-154l-383 522v-522h-151v750h154l384 -521v521z" />
    <glyph glyph-name="uni1E45" unicode="&#x1e45;" horiz-adv-x="605" 
d="M304 576q-34 0 -58 24t-24 58t24 58t58 24t58 -24t24 -58t-24 -58t-58 -24zM351 510q88 0 142 -53t54 -141v-316h-146v298q0 38 -26 61.5t-67 23.5q-43 0 -72.5 -27t-29.5 -66v-290h-146v500h131l8 -58q62 68 152 68z" />
    <glyph glyph-name="uni1E46" unicode="&#x1e46;" horiz-adv-x="808" 
d="M598 750h150v-750h-154l-383 522v-522h-151v750h154l384 -521v521zM403 -49q34 0 58 -24t24 -58t-24 -58t-58 -24t-58 24t-24 58t24 58t58 24z" />
    <glyph glyph-name="uni1E47" unicode="&#x1e47;" horiz-adv-x="605" 
d="M351 510q88 0 142 -53t54 -141v-316h-146v298q0 38 -26 61.5t-67 23.5q-43 0 -72.5 -27t-29.5 -66v-290h-146v500h131l8 -58q62 68 152 68zM304 -49q34 0 58 -24t24 -58t-24 -58t-58 -24t-58 24t-24 58t24 58t58 24z" />
    <glyph glyph-name="uni1E62" unicode="&#x1e62;" horiz-adv-x="647" 
d="M332 -10q-89 0 -168.5 38t-127.5 101l104 103q66 -102 197 -102q54 0 86.5 20t33.5 61q0 20 -10.5 38t-23 29.5t-40.5 26t-44.5 21t-52.5 20.5q-39 15 -62 25.5t-55 29.5t-49.5 38.5t-30.5 49t-13 64.5q0 93 71.5 150t181.5 57q173 0 275 -109l-98 -95q-69 78 -173 78
q-45 0 -73.5 -20.5t-28.5 -54.5q0 -18 10 -33t33.5 -29t42 -22t55.5 -23t56 -23t52.5 -25t52 -33.5t39 -40t29.5 -53t9 -64.5q0 -109 -78 -166t-200 -57zM328 -213q-34 0 -58 24t-24 58t24 58t58 24t58 -24t24 -58t-24 -58t-58 -24z" />
    <glyph glyph-name="uni1E63" unicode="&#x1e63;" horiz-adv-x="498" 
d="M269 -10q-158 0 -239 62l64 103q24 -20 68 -35.5t81 -17.5q36 -2 59 8t23 31q0 23 -25 36t-79 28q-30 9 -48 14.5t-44 18.5t-40.5 26.5t-25.5 35.5t-11 49q0 72 57.5 116.5t151.5 44.5q122 0 205 -54l-68 -94q-47 35 -115 42q-34 4 -59.5 -5t-25.5 -30q0 -6 1.5 -10.5
t6 -9t8.5 -8t11.5 -7.5t13.5 -6.5t16 -6t17 -5.5t19 -6t19 -6q34 -11 57.5 -21t49 -27.5t39 -44t13.5 -61.5q0 -74 -54 -117t-146 -43zM263 -213q-34 0 -58 24t-24 58t24 58t58 24t58 -24t24 -58t-24 -58t-58 -24z" />
    <glyph glyph-name="uni1E6C" unicode="&#x1e6c;" horiz-adv-x="580" 
d="M23 750h534v-131h-192v-619h-149v619h-193v131zM290 -49q34 0 58 -24t24 -58t-24 -58t-58 -24t-58 24t-24 58t24 58t58 24z" />
    <glyph glyph-name="uni1E6D" unicode="&#x1e6d;" horiz-adv-x="389" 
d="M394 27q-43 -37 -114 -37q-99 0 -149 49.5t-50 135.5v216h-60v109h60v170h146v-170h125v-109h-125v-217q0 -30 14 -45.5t38 -15.5q28 0 45 18zM248 -49q34 0 58 -24t24 -58t-24 -58t-58 -24t-58 24t-24 58t24 58t58 24z" />
    <glyph glyph-name="Wgrave" unicode="&#x1e80;" horiz-adv-x="1170" 
d="M634 833h-109l-120 167h146zM1019 750h162l-317 -750h-164l-115 274l-115 -274h-163l-319 750h163l243 -585l118 281l-127 304h149l242 -586z" />
    <glyph glyph-name="wgrave" unicode="&#x1e81;" horiz-adv-x="787" 
d="M403 583h-109l-120 167h146zM616 500h163l-171 -500h-154l-60 181l-60 -181h-154l-172 500h165l93 -339l67 207l-43 132h132l100 -340z" />
    <glyph glyph-name="Wacute" unicode="&#x1e82;" horiz-adv-x="1170" 
d="M761 1000l-119 -167h-110l83 167h146zM1019 750h162l-317 -750h-164l-115 274l-115 -274h-163l-319 750h163l243 -585l118 281l-127 304h149l242 -586z" />
    <glyph glyph-name="wacute" unicode="&#x1e83;" horiz-adv-x="787" 
d="M530 750l-119 -167h-110l83 167h146zM616 500h163l-171 -500h-154l-60 181l-60 -181h-154l-172 500h165l93 -339l67 207l-43 132h132l100 -340z" />
    <glyph glyph-name="Wdieresis" unicode="&#x1e84;" horiz-adv-x="1170" 
d="M476 826q-34 0 -58 24t-24 58t24 58t58 24t58 -24t24 -58t-24 -58t-58 -24zM694 826q-33 0 -57.5 24t-24.5 58t24.5 58t57.5 24q34 0 58 -24t24 -58t-24 -58t-58 -24zM1019 750h162l-317 -750h-164l-115 274l-115 -274h-163l-319 750h163l243 -585l118 281l-127 304h149
l242 -586z" />
    <glyph glyph-name="wdieresis" unicode="&#x1e85;" horiz-adv-x="787" 
d="M245 576q-34 0 -58 24t-24 58t24 58t58 24t58 -24t24 -58t-24 -58t-58 -24zM463 576q-33 0 -57.5 24t-24.5 58t24.5 58t57.5 24q34 0 58 -24t24 -58t-24 -58t-58 -24zM616 500h163l-171 -500h-154l-60 181l-60 -181h-154l-172 500h165l93 -339l67 207l-43 132h132
l100 -340z" />
    <glyph glyph-name="uni1E92" unicode="&#x1e92;" horiz-adv-x="639" 
d="M233 132h372v-132h-573v81l369 538h-359v131h561v-81zM318 -49q34 0 58 -24t24 -58t-24 -58t-58 -24t-58 24t-24 58t24 58t58 24z" />
    <glyph glyph-name="uni1E93" unicode="&#x1e93;" horiz-adv-x="523" 
d="M43 0v107l251 274h-250v119h434v-105l-252 -276h254v-119h-437zM262 -213q-34 0 -58 24t-24 58t24 58t58 24t58 -24t24 -58t-24 -58t-58 -24z" />
    <glyph glyph-name="uni1EA0" unicode="&#x1ea0;" horiz-adv-x="774" 
d="M772 0h-163l-53 142h-339l-53 -142h-163l301 750h169zM263 266h247l-123 331zM388 -49q34 0 58 -24t24 -58t-24 -58t-58 -24t-58 24t-24 58t24 58t58 24z" />
    <glyph glyph-name="uni1EA1" unicode="&#x1ea1;" horiz-adv-x="559" 
d="M275 510q103 0 165 -48t62 -144v-318h-123l-7 49q-76 -59 -165 -59q-72 0 -117 41.5t-45 111.5q0 75 64.5 118.5t179.5 25.5l71 -11v43q0 41 -28.5 61t-70.5 20q-73 0 -123 -60l-87 83q42 46 94 66.5t130 20.5zM197 151q0 -25 17 -39.5t44 -14.5q51 0 102 45v51l-40 8
q-66 13 -94.5 -3t-28.5 -47zM274 -49q34 0 58 -24t24 -58t-24 -58t-58 -24t-58 24t-24 58t24 58t58 24z" />
    <glyph glyph-name="uni1EB8" unicode="&#x1eb8;" horiz-adv-x="540" 
d="M505 619h-294v-178h252v-132h-252v-177h294v-132h-445v750h445v-131zM283 -49q34 0 58 -24t24 -58t-24 -58t-58 -24t-58 24t-24 58t24 58t58 24z" />
    <glyph glyph-name="uni1EB9" unicode="&#x1eb9;" horiz-adv-x="548" 
d="M518 251q0 -21 -3 -43h-339q13 -106 110 -106q37 0 63.5 15.5t52.5 53.5l103 -51q-28 -61 -85 -95.5t-131 -34.5q-126 0 -192 71.5t-66 188.5q0 114 68 187.5t185 73.5q108 0 171 -70.5t63 -189.5zM282 397q-83 0 -103 -91h201q-16 91 -98 91zM291 -49q34 0 58 -24
t24 -58t-24 -58t-58 -24t-58 24t-24 58t24 58t58 24z" />
    <glyph glyph-name="uni1EBC" unicode="&#x1ebc;" horiz-adv-x="540" 
d="M202 825h-85q-15 65 15 108.5t84 43.5q63 0 102 -58q10 -19 27 -19q18 0 23 19t-5 49h85q15 -64 -14 -107.5t-86 -43.5q-60 0 -101 58q-12 19 -27 19q-18 0 -23 -19.5t5 -49.5zM505 619h-294v-178h252v-132h-252v-177h294v-132h-445v750h445v-131z" />
    <glyph glyph-name="uni1EBD" unicode="&#x1ebd;" horiz-adv-x="548" 
d="M204 575h-85q-15 65 15 108.5t84 43.5q63 0 102 -58q10 -19 27 -19q18 0 23 19t-5 49h85q15 -64 -14 -107.5t-86 -43.5q-60 0 -101 58q-12 19 -27 19q-18 0 -23 -19.5t5 -49.5zM518 251q0 -21 -3 -43h-339q13 -106 110 -106q37 0 63.5 15.5t52.5 53.5l103 -51
q-28 -61 -85 -95.5t-131 -34.5q-126 0 -192 71.5t-66 188.5q0 114 68 187.5t185 73.5q108 0 171 -70.5t63 -189.5zM282 397q-83 0 -103 -91h201q-16 91 -98 91z" />
    <glyph glyph-name="uni1ECA" unicode="&#x1eca;" horiz-adv-x="271" 
d="M60 0v750h151v-750h-151zM135 -213q-34 0 -58 24t-24 58t24 58t58 24t58 -24t24 -58t-24 -58t-58 -24z" />
    <glyph glyph-name="uni1ECB" unicode="&#x1ecb;" horiz-adv-x="289" 
d="M144 586q-33 0 -57.5 24t-24.5 58t24.5 58t57.5 24q34 0 58.5 -24t24.5 -58t-24.5 -58t-58.5 -24zM71 0v500h146v-500h-146zM150 -230q-34 0 -58 24t-24 58t24 58t58 24t58 -24t24 -58t-24 -58t-58 -24z" />
    <glyph glyph-name="uni1ECC" unicode="&#x1ecc;" horiz-adv-x="807" 
d="M404 -10q-161 0 -263.5 111t-102.5 274t102.5 274t263.5 111q160 0 263 -111.5t103 -273.5t-103 -273.5t-263 -111.5zM404 136q102 0 161 67.5t59 171.5q0 105 -59 172.5t-161 67.5q-103 0 -162.5 -67.5t-59.5 -172.5q0 -104 60 -171.5t162 -67.5zM404 -213q-34 0 -58 24
t-24 58t24 58t58 24t58 -24t24 -58t-24 -58t-58 -24z" />
    <glyph glyph-name="uni1ECD" unicode="&#x1ecd;" horiz-adv-x="583" 
d="M292 -10q-113 0 -187 75t-74 185t74 185t187 75q112 0 186.5 -75t74.5 -185t-74.5 -185t-186.5 -75zM292 118q51 0 84 38t33 94t-33 94.5t-84 38.5q-52 0 -84.5 -38t-32.5 -95t32.5 -94.5t84.5 -37.5zM292 -213q-34 0 -58 24t-24 58t24 58t58 24t58 -24t24 -58t-24 -58
t-58 -24z" />
    <glyph glyph-name="uni1EE4" unicode="&#x1ee4;" horiz-adv-x="738" 
d="M369 -10q-129 0 -218 73t-89 179v508h151v-481q0 -61 45.5 -104t110.5 -43t110.5 43t45.5 104v481h151v-508q0 -106 -89 -179t-218 -73zM369 -213q-34 0 -58 24t-24 58t24 58t58 24t58 -24t24 -58t-24 -58t-58 -24z" />
    <glyph glyph-name="Ygrave" unicode="&#x1ef2;" horiz-adv-x="678" 
d="M389 833h-109l-120 167h146zM677 750l-262 -395v-355h-150v352l-264 398h168l170 -269l172 269h166z" />
    <glyph glyph-name="ygrave" unicode="&#x1ef3;" horiz-adv-x="609" 
d="M353 583h-109l-120 167h146zM548 500l1 -500q0 -114 -74 -183t-197 -69q-89 0 -159 31v139q69 -50 161 -50q54 0 88.5 34t34.5 98v51q-61 -61 -144 -61t-140.5 59t-57.5 144v307h146v-289q0 -39 27 -66t67 -27q42 0 72 27t30 66v289h145z" />
    <glyph glyph-name="uni1EF4" unicode="&#x1ef4;" horiz-adv-x="678" 
d="M265 0v352l-264 398h168l170 -269l172 269h166l-262 -395v-355h-150zM341 -49q34 0 58 -24t24 -58t-24 -58t-58 -24t-58 24t-24 58t24 58t58 24z" />
    <glyph glyph-name="uni1EF8" unicode="&#x1ef8;" horiz-adv-x="678" 
d="M260 825h-85q-15 65 15 108.5t84 43.5q63 0 102 -58q10 -19 27 -19q18 0 23 19t-5 49h85q15 -64 -14 -107.5t-86 -43.5q-60 0 -101 58q-12 19 -27 19q-18 0 -23 -19.5t5 -49.5zM677 750l-262 -395v-355h-150v352l-264 398h168l170 -269l172 269h166z" />
    <glyph glyph-name="endash" unicode="&#x2013;" horiz-adv-x="647" 
d="M74 212v97h500v-97h-500z" />
    <glyph glyph-name="emdash" unicode="&#x2014;" horiz-adv-x="999" 
d="M-1 212v97h1001v-97h-1001z" />
    <glyph glyph-name="quoteleft" unicode="&#x2018;" horiz-adv-x="258" 
d="M103 430q-64 0 -83 71q-20 73 16 154q37 85 108 100q13 3 26 3v-64q-29 0 -49.5 -26.5t-21.5 -48.5t5 -26q34 0 57.5 -24t23.5 -58t-24 -57.5t-58 -23.5z" />
    <glyph glyph-name="quoteright" unicode="&#x2019;" horiz-adv-x="210" 
d="M40 430v65q31 0 50 26.5t22 53.5q2 20 -5 20q-34 0 -57.5 24t-23.5 58q0 35 24 58.5t58 23.5q43 0 66 -34.5t23 -86.5q0 -77 -43.5 -142t-113.5 -66z" />
    <glyph glyph-name="quotesinglbase" unicode="&#x201a;" horiz-adv-x="249" 
d="M45 -174v64q30 0 49 23.5t24 50.5q4 27 -6 27q-34 0 -57.5 24t-23.5 58q0 35 23.5 58.5t58.5 23.5q44 0 67.5 -34.5t23.5 -87.5q0 -77 -44 -142t-115 -65z" />
    <glyph glyph-name="quotedblleft" unicode="&#x201c;" horiz-adv-x="476" 
d="M245 771v-64q-31 -1 -50 -27.5t-22 -53.5q-2 -20 5 -20q34 0 57.5 -24t23.5 -58t-23.5 -57.5t-58.5 -23.5q-44 0 -66.5 34t-22.5 86q0 78 43.5 143t113.5 65zM441 771v-64q-31 -1 -50 -27.5t-22 -53.5q-2 -20 5 -20q34 0 57.5 -24t23.5 -58t-23.5 -57.5t-58.5 -23.5
q-44 0 -66.5 34t-22.5 86q0 78 43.5 143t113.5 65z" />
    <glyph glyph-name="quotedblright" unicode="&#x201d;" horiz-adv-x="432" 
d="M42 430v65q31 0 50 26.5t22 53.5q2 20 -5 20q-34 0 -57.5 24t-23.5 58q0 35 24 58.5t58 23.5q43 0 66 -34.5t23 -86.5q0 -77 -43.5 -142t-113.5 -66zM238 430v65q31 0 50 26.5t22 53.5q2 20 -5 20q-34 0 -57.5 24t-23.5 58q0 35 24 58.5t58 23.5q43 0 66 -34.5t23 -86.5
q0 -77 -43.5 -142t-113.5 -66z" />
    <glyph glyph-name="quotedblbase" unicode="&#x201e;" horiz-adv-x="457" 
d="M267 -174v64q30 0 49 23.5t24 50.5q4 27 -6 27q-34 0 -57.5 24t-23.5 58q0 35 23.5 58.5t58.5 23.5q44 0 67.5 -34.5t23.5 -87.5q0 -77 -44 -142t-115 -65zM45 -174v64q30 0 49 23.5t24 50.5q4 27 -6 27q-34 0 -57.5 24t-23.5 58q0 35 23.5 58.5t58.5 23.5
q44 0 67.5 -34.5t23.5 -87.5q0 -77 -44 -142t-115 -65z" />
    <glyph glyph-name="dagger" unicode="&#x2020;" horiz-adv-x="648" 
d="M534 495v-91h-166v-574h-92v574h-162v91h162v175h92v-175h166z" />
    <glyph glyph-name="daggerdbl" unicode="&#x2021;" horiz-adv-x="648" 
d="M534 404h-166v-299h166v-92h-166v-183h-92v183h-162v92h162v299h-162v91h162v175h92v-175h166v-91z" />
    <glyph glyph-name="bullet" unicode="&#x2022;" horiz-adv-x="506" 
d="M254 170q-65 0 -112.5 46t-47.5 113q0 65 48 112.5t112 47.5t111.5 -48t47.5 -112q0 -67 -47 -113t-112 -46z" />
    <glyph glyph-name="ellipsis" unicode="&#x2026;" horiz-adv-x="801" 
d="M360 -10q-33 0 -57.5 24.5t-24.5 57.5q0 34 24.5 58.5t57.5 24.5q34 0 58.5 -24.5t24.5 -58.5q0 -33 -24.5 -57.5t-58.5 -24.5zM601 -10q-33 0 -57.5 24.5t-24.5 57.5q0 34 24.5 58.5t57.5 24.5q34 0 58.5 -24.5t24.5 -58.5q0 -33 -24.5 -57.5t-58.5 -24.5zM112 -10
q-33 0 -57.5 24.5t-24.5 57.5q0 34 24.5 58.5t57.5 24.5q34 0 58.5 -24.5t24.5 -58.5q0 -33 -24.5 -57.5t-58.5 -24.5z" />
    <glyph glyph-name="perthousand" unicode="&#x2030;" horiz-adv-x="1172" 
d="M195 401q-67 0 -113 52.5t-46 126.5q0 75 46 127.5t113 52.5q66 0 112 -52.5t46 -127.5q0 -74 -46 -126.5t-112 -52.5zM75 0l505 750h150l-505 -750h-150zM195 510q19 0 34 20.5t15 49.5t-15 50t-34 21q-20 0 -34.5 -20.5t-14.5 -50.5q0 -29 14.5 -49.5t34.5 -20.5z
M612 -10q-66 0 -112.5 52.5t-46.5 127.5t46.5 127.5t112.5 52.5t112 -53t46 -127t-46 -127t-112 -53zM979 -10q-66 0 -112.5 53t-46.5 127t46.5 127t112.5 53t112.5 -53t46.5 -127t-46.5 -127t-112.5 -53zM611 100q20 0 34.5 20t14.5 50t-14.5 50t-34.5 20t-34.5 -20
t-14.5 -50t14.5 -50t34.5 -20zM979 100q19 0 34 20.5t15 49.5t-15 49.5t-34 20.5q-20 0 -34.5 -20t-14.5 -50t14.5 -50t34.5 -20z" />
    <glyph glyph-name="guilsinglleft" unicode="&#x2039;" horiz-adv-x="355" 
d="M186 95l-152 184l152 184h116l-152 -184l152 -184h-116z" />
    <glyph glyph-name="guilsinglright" unicode="&#x203a;" horiz-adv-x="355" 
d="M54 95l152 184l-152 184h115l152 -184l-152 -184h-115z" />
    <glyph glyph-name="fraction" unicode="&#x2044;" horiz-adv-x="614" 
d="M-35 0l524 750h145l-523 -750h-146z" />
    <glyph glyph-name="Euro" unicode="&#x20ac;" horiz-adv-x="676" 
d="M366 100q51 0 90.5 36.5t39.5 88.5l106 -46q-16 -80 -85 -134.5t-151 -54.5q-107 0 -175.5 70.5t-68.5 179.5v6h-98l46 92h52v64h-98l46 92h52v16q0 110 68.5 180t175.5 70q83 0 151.5 -54t84.5 -135l-106 -45q0 52 -39.5 88.5t-90.5 36.5q-61 0 -97.5 -38t-36.5 -103
v-16h214l-45 -92h-169v-64h214l-45 -92h-169v-6q0 -64 36 -102t98 -38z" />
    <glyph glyph-name="uni2113" unicode="&#x2113;" horiz-adv-x="595" 
d="M333 -7q-93 0 -144.5 48.5t-64.5 126.5q0 7 -1 10q-9 -6 -29 -21t-32 -22l-37 71q16 13 48.5 36.5t47.5 35.5v264q0 140 57.5 208.5t148.5 68.5q82 0 124.5 -53.5t42.5 -134.5q0 -94 -61 -185t-179 -193l1 -33q1 -56 32.5 -87t77.5 -31t87.5 30t69.5 74l58 -58
q-86 -155 -247 -155zM254 373q146 149 146 258q0 96 -67 96q-33 0 -56 -39.5t-23 -128.5v-186z" />
    <glyph glyph-name="trademark" unicode="&#x2122;" horiz-adv-x="749" 
d="M10 690v60h250v-60h-91v-290h-69v290h-90zM616 750h73v-350h-68v242l-121 -179l-121 179v-242h-69v350h75l114 -172z" />
    <glyph glyph-name="estimated" unicode="&#x212e;" horiz-adv-x="918" 
d="M458 -9q-177 0 -302 112.5t-125 270.5q0 160 125 273t302 113q178 0 303 -113t125 -273v-10h-692q-6 0 -6 -4v-210q0 -11 9 -24q111 -114 262 -114q81 0 153 34t123 94h61q-58 -69 -147 -109t-191 -40zM194 385h531q4 0 4 7v210q0 16 -10 25q-112 110 -260 110t-261 -113
q-10 -12 -10 -26v-206q0 -7 6 -7z" />
    <glyph glyph-name="arrowleft" unicode="&#x2190;" horiz-adv-x="840" 
d="M755 413v-121h-537l30 -127l-243 188l243 188l-30 -128h537z" />
    <glyph glyph-name="arrowup" unicode="&#x2191;" horiz-adv-x="495" 
d="M183 0v537l-128 -30l188 243l188 -243l-127 30v-537h-121z" />
    <glyph glyph-name="arrowright" unicode="&#x2192;" horiz-adv-x="840" 
d="M85 413h537l-30 128l243 -188l-243 -188l30 127h-537v121z" />
    <glyph glyph-name="arrowdown" unicode="&#x2193;" horiz-adv-x="486" 
d="M183 750h121v-537l127 30l-188 -243l-188 243l128 -30v537z" />
    <glyph glyph-name="arrowboth" unicode="&#x2194;" horiz-adv-x="856" 
d="M176 144l-241 189l243 188l-31 -127l561 -1l-30 127l243 -188l-242 -188l30 128l-562 1z" />
    <glyph glyph-name="arrowupdn" unicode="&#x2195;" horiz-adv-x="486" 
d="M243 -71l-188 242l128 -30v390l-128 -30l188 242l188 -243l-127 30v-388l127 30z" />
    <glyph glyph-name="uni2196" unicode="&#x2196;" horiz-adv-x="535" 
d="M600 152l-85 -85l-380 379l-69 -111l-39 305l305 -39l-112 -69z" />
    <glyph glyph-name="uni2197" unicode="&#x2197;" horiz-adv-x="535" 
d="M-65 152l380 380l-112 69l305 39l-39 -305l-69 111l-380 -379z" />
    <glyph glyph-name="uni2198" unicode="&#x2198;" horiz-adv-x="536" 
d="M-64 598l85 85l380 -379l69 111l39 -305l-305 39l112 69z" />
    <glyph glyph-name="uni2199" unicode="&#x2199;" horiz-adv-x="536" 
d="M600 598l-380 -380l112 -69l-305 -39l39 305l69 -111l380 379z" />
    <glyph glyph-name="partialdiff" unicode="&#x2202;" horiz-adv-x="551" 
d="M153 711q100 22 184.5 -21.5t132.5 -139.5t47 -222q-1 -139 -77 -233t-188 -94q-132 0 -187 87.5t-5 219.5q41 110 126.5 159t178.5 22q-30 85 -87 119t-125 2v101zM389 328q0 20 -2 56q-65 37 -120 8.5t-89 -116.5q-27 -72 -4.5 -127t78.5 -55q54 0 95 69.5t42 164.5z
" />
    <glyph glyph-name="emptyset" unicode="&#x2205;" horiz-adv-x="785" 
d="M622 482q70 -83 70 -191q0 -124 -87.5 -211.5t-211.5 -87.5q-109 0 -191 69l-44 -43l-39 39l44 43q-69 82 -69 191q0 124 87.5 211.5t211.5 87.5q108 0 190 -69l44 44l39 -39zM209 291q0 -61 35 -109l258 257q-49 36 -109 36q-77 0 -130.5 -53.5t-53.5 -130.5zM393 107
q77 0 130.5 53.5t53.5 130.5q0 60 -36 109l-258 -257q49 -36 110 -36z" />
    <glyph glyph-name="product" unicode="&#x220f;" horiz-adv-x="743" 
d="M709 703v-101h-60v-722h-100v722h-354v-722h-101v722h-60v101h675z" />
    <glyph glyph-name="summation" unicode="&#x2211;" horiz-adv-x="735" 
d="M74 -118v87l341 323l-341 323v88h587v-109h-411l311 -302l-311 -302h411v-109z" />
    <glyph glyph-name="minus" unicode="&#x2212;" horiz-adv-x="687" 
d="M44 261v94h600v-94h-600z" />
    <glyph glyph-name="radical" unicode="&#x221a;" horiz-adv-x="729" 
d="M234 -78l-109 336h-71v92h137l93 -284l336 703l85 -36l-389 -811h-82z" />
    <glyph glyph-name="infinity" unicode="&#x221e;" horiz-adv-x="765" 
d="M200 128q-67 0 -110.5 45.5t-45.5 117.5q2 72 45.5 117.5t110.5 45.5q90 0 183 -95q93 95 183 95q70 0 111.5 -43.5t43.5 -119.5q-2 -76 -43.5 -119.5t-111.5 -43.5q-88 0 -183 95q-95 -95 -183 -95zM200 220q53 0 121 71q-68 71 -121 71q-27 0 -45.5 -20t-19.5 -51
q1 -30 19.5 -50.5t45.5 -20.5zM566 220q27 0 45 19.5t19 51.5q-1 32 -19 51.5t-45 19.5q-54 0 -122 -71q69 -71 122 -71z" />
    <glyph glyph-name="integral" unicode="&#x222b;" horiz-adv-x="446" 
d="M168 -189q-48 0 -75 35.5t-16 87.5h70q0 -30 3.5 -39.5t17.5 -9.5q18 0 18 21v740q0 41 27 68t68 27q46 0 73 -36t16 -87h-71q0 30 -3 39.5t-16 9.5q-20 0 -20 -21v-740q0 -41 -26.5 -68t-65.5 -27z" />
    <glyph glyph-name="approxequal" unicode="&#x2248;" horiz-adv-x="575" 
d="M393 317q-25 0 -46 6.5t-41 22.5t-26.5 22t-23.5 25q-33 38 -66 38q-36 0 -56 -30.5t-14 -73.5h-74q-10 78 32 128t113 50q40 0 68 -17.5t59 -54.5q33 -43 69 -43q34 0 54.5 28.5t13.5 74.5h73q12 -74 -28 -125t-107 -51zM393 110q-25 0 -46 6.5t-41 22.5t-26.5 22
t-23.5 25q-33 38 -66 38q-36 0 -56 -30.5t-14 -73.5h-74q-10 79 32 129t113 50q39 0 67.5 -17.5t59.5 -55.5q33 -43 69 -43q34 0 54.5 28.5t13.5 74.5h73q12 -74 -28 -125t-107 -51z" />
    <glyph glyph-name="notequal" unicode="&#x2260;" horiz-adv-x="687" 
d="M644 319h-209l-92 -107h301v-92h-379l-95 -111h-81l95 111h-140v92h219l91 107h-310v91h389l84 99h81l-85 -99h131v-91z" />
    <glyph glyph-name="lessequal" unicode="&#x2264;" horiz-adv-x="759" 
d="M656 734v-120l-432 -186l432 -187v-121l-552 243v130zM104 0v83h552v-83h-552z" />
    <glyph glyph-name="greaterequal" unicode="&#x2265;" horiz-adv-x="759" 
d="M104 734l552 -241v-130l-552 -243v121l431 187l-431 186v120zM104 0v83h552v-83h-552z" />
    <glyph glyph-name="lozenge" unicode="&#x25ca;" horiz-adv-x="751" 
d="M376 52l-302 301l302 302l301 -301zM376 211l142 143l-142 142l-143 -143z" />
    <glyph glyph-name="uniF8FF" unicode="&#xf8ff;" horiz-adv-x="970" 
d="M485 0q-157 0 -268.5 111.5t-111.5 268.5t111.5 268.5t268.5 111.5t268.5 -111t111.5 -269q0 -157 -111.5 -268.5t-268.5 -111.5zM485 36q142 0 243 101t101 243t-100.5 243t-243.5 101q-142 0 -243 -101t-101 -243t101 -243t243 -101zM684 217q-8 0 -12 6l-145 144
q-12 14 0 26l145 145q12 12 25 0q13 -13 0 -26l-132 -132l132 -132q11 -11 0 -25q-5 -6 -13 -6zM286 217q-8 0 -13 5.5t-5 12.5v290q0 7 5 12.5t13 5.5t13 -5.5t5 -12.5v-290q0 -7 -5 -12.5t-13 -5.5zM485 217q-7 0 -12.5 5.5t-5.5 12.5v290q0 7 5.5 12.5t12.5 5.5
t12.5 -5.5t5.5 -12.5v-290q0 -7 -5.5 -12.5t-12.5 -5.5zM340 362q-8 0 -13 5t-5 13t5 13t13 5h91q7 0 12.5 -5t5.5 -13t-5.5 -13t-12.5 -5h-91z" />
    <glyph glyph-name="i.loclTRK" horiz-adv-x="266" 
d="M133 576q-34 0 -58 24t-24 58t24 58t58 24t58 -24t24 -58t-24 -58t-58 -24zM60 0v500h146v-500h-146z" />
    <glyph glyph-name="arrow" horiz-adv-x="486" 
d="M183 0v537l-128 -30l188 243l188 -243l-127 30v-537h-121z" />
    </font>
</defs>
</svg>
