<?xml version="1.0" standalone="no"?>
<!DOCTYPE svg PUBLIC "-//W3C//DTD SVG 1.1//EN" "http://www.w3.org/Graphics/SVG/1.1/DTD/svg11.dtd" >
<svg xmlns="http://www.w3.org/2000/svg" xmlns:xlink="http://www.w3.org/1999/xlink" version="1.1">
<metadata></metadata>
<defs>
<font id="prataregular" horiz-adv-x="1753" >
<font-face units-per-em="2048" ascent="1638" descent="-410" />
<missing-glyph horiz-adv-x="489" />
<glyph horiz-adv-x="0" />
<glyph unicode="&#xd;" horiz-adv-x="0" />
<glyph unicode=" "  horiz-adv-x="489" />
<glyph unicode="&#x09;" horiz-adv-x="489" />
<glyph unicode="&#xa0;" horiz-adv-x="489" />
<glyph unicode="!" horiz-adv-x="524" d="M141 102.5q0 51.5 35 85t86 33.5t86 -33.5t35 -85t-35 -87t-86 -35.5t-86 35.5t-35 87zM150 1518.5q0 68.5 30.5 104.5t81.5 36t82 -36t31 -105.5t-41 -478t-47 -701.5h-49q-4 295 -46 703.5t-42 477z" />
<glyph unicode="&#x22;" horiz-adv-x="557" d="M90 1575q0 35 19.5 59.5t56.5 24.5t57.5 -24.5t20.5 -59.5t-25 -159t-35 -259h-34q-10 135 -35 259t-25 159zM315 1575q0 35 19.5 59.5t56.5 24.5t57.5 -24.5t20.5 -59.5t-25 -159t-35 -259h-34q-10 135 -35 259t-25 159z" />
<glyph unicode="#" horiz-adv-x="1189" d="M74 430v92h229l49 262h-211v93h228l110 587h94l-112 -587h317l111 587h94l-113 -587h238v-93h-254l-49 -262h235v-92h-254l-79 -430h-93l80 430h-317l-80 -430h-92l80 430h-211zM395 522h318l49 262h-318z" />
<glyph unicode="$" horiz-adv-x="1345" d="M133 -20v526h45l176 -381q141 -98 310 -117v727l-166 43q-178 47 -268.5 156.5t-90.5 263.5q0 217 127 349t352 132q29 0 46 -2v156h34v-158q10 0 39 -4v162h33v-166q96 -16 182 -51l150 63h45v-417h-45l-148 299q-86 41 -184 59v-664l121 -30q180 -47 266 -152.5 t86 -326t-128 -348.5t-345 -138v-176h-33v174h-10l-29 2v-176h-34v178q-162 14 -312 105l-174 -88h-45zM238 1303q0 -207 286 -281l140 -37v647q-14 2 -43 2q-178 0 -280.5 -90.5t-102.5 -240.5zM698 6q12 -2 39 -2v711l-39 10v-719zM698 975l39 -10v661l-39 4v-655zM770 4 q172 8 280.5 102.5t108.5 260.5q0 127 -76.5 203.5t-244.5 119.5l-68 17v-703z" />
<glyph unicode="%" horiz-adv-x="1689" d="M74 1204q0 217 88 331t235 114t236.5 -114t89.5 -331t-89.5 -331.5t-236.5 -114.5t-235 114.5t-88 331.5zM231 1100q0 -297 166 -297t166 297v209q0 297 -166 297t-166 -297v-209zM383 0l819 1638h105l-818 -1638h-106zM967 436q0 217 89 331t236 114t235.5 -114 t88.5 -331t-88.5 -331.5t-235.5 -114.5t-236 114.5t-89 331.5zM1126 332q0 -297 166 -297t166 297v209q0 297 -166 297t-166 -297v-209z" />
<glyph unicode="&#x26;" horiz-adv-x="1673" d="M104 442.5q0 219.5 157 337t411 129.5v6q-254 33 -376 122t-122 272.5t138.5 276.5t385.5 93q166 0 277.5 -79.5t111.5 -213.5q0 -68 -37.5 -105.5t-88 -37.5t-85 31t-34.5 90q86 39 86 129q0 63 -55.5 101t-151.5 38q-139 0 -222 -82t-83 -219q0 -197 115.5 -290 t338.5 -105v-45q-485 -31 -485 -445q0 -205 111.5 -322.5t279.5 -117.5t272.5 101.5t104.5 291.5q0 76 -23 162q-29 4 -77 12q-91 19 -148 19q-205 0 -205 -113q0 -57 65.5 -57t92.5 55q100 -25 100 -112q0 -49 -35.5 -86t-101 -37t-117 67.5t-51.5 178t88 196.5t240 86 q94 0 217 -19.5t202 -19.5t137 30t58 83q0 59 -64.5 59t-90.5 -57q-100 23 -101 112q0 49 36 86t101.5 37t113.5 -60t48 -155q0 -322 -307 -321q-88 0 -145 8q16 -82 16 -150q0 -211 -118.5 -327.5t-321.5 -116.5q-332 0 -495 132t-163 351.5z" />
<glyph unicode="'" horiz-adv-x="331" d="M90 1575q0 35 19.5 59.5t56.5 24.5t57.5 -24.5t20.5 -59.5t-25 -159t-35 -259h-34q-10 135 -35 259t-25 159z" />
<glyph unicode="(" horiz-adv-x="704" d="M76 730q0 439 168 741.5t458 386.5l15 -48q-395 -143 -395 -1081q0 -244 37.5 -443.5t99.5 -326.5q119 -242 258 -309l-12 -49q-291 84 -460 387t-169 742z" />
<glyph unicode=")" horiz-adv-x="704" d="M-12 -350l12 -49q291 84 460 387t169 742t-168 741.5t-458 386.5l-15 -48q395 -143 395 -1081q0 -244 -37.5 -443.5t-99.5 -326.5q-119 -242 -258 -309z" />
<glyph unicode="*" horiz-adv-x="921" d="M114.5 1318q0.5 28 16.5 43t35.5 15t36 -9t122.5 -94t124 -95l-43 311q0 25 15 41t39.5 16t40 -16.5t15.5 -39t-20.5 -156.5t-20.5 -156q18 10 124 95t125 96t38.5 11t33 -22.5t13.5 -32.5q0 -37 -31 -51q-18 -12 -144 -59.5t-145 -59.5q18 -12 143.5 -61.5t151 -63.5 t25.5 -34.5t-12.5 -43t-34 -22.5t-39.5 10t-122.5 95t-125.5 95l43 -309q0 -25 -15.5 -41t-39.5 -16q-55 4 -55 57q0 18 20.5 152.5t20.5 156.5q-18 -10 -124 -95t-121.5 -94t-36 -9t-35.5 15.5t-15 43t24.5 40.5t149.5 62.5t143 61.5q-18 12 -144 59.5t-145 59.5 q-31 16 -30.5 44z" />
<glyph unicode="+" horiz-adv-x="1075" d="M68 692v78h430v430h77v-430h433v-78h-433v-432h-77v432h-430z" />
<glyph unicode="," horiz-adv-x="466" d="M98 102q0 51 36 85t97.5 34t103.5 -51t42 -137q0 -240 -254 -365l-23 33q63 37 99 86q63 86 63 152q0 41 -46 41t-82 35.5t-36 86.5z" />
<glyph unicode="-" horiz-adv-x="702" d="M127 526v68h448v-68h-448z" />
<glyph unicode="." horiz-adv-x="440" d="M98 101.5q0 52.5 38 86t85 33.5t84 -33.5t37 -85.5q0 -51 -35 -86.5t-87 -36t-87 34.5t-35 87.5z" />
<glyph unicode="/" horiz-adv-x="892" d="M66 0l636 1434h105l-635 -1434h-106z" />
<glyph unicode="0" horiz-adv-x="1413" d="M115 819q0 414 159 641q156 219 433 219q272 0 430 -219q162 -225 161.5 -643t-160 -638t-431.5 -220q-276 0 -433 221q-160 225 -159 639zM377 623q0 -315 88 -466t242 -151t241.5 149t87.5 468v395q0 315 -88 464.5t-241 149.5q-154 0 -242 -149.5t-88 -464.5v-395z " />
<glyph unicode="1" horiz-adv-x="696" d="M106 0v41l144 20v1516l-144 20v41h349v-1577l143 -20v-41h-492z" />
<glyph unicode="2" horiz-adv-x="1245" d="M74 0v158l432 440q348 352 348 693t-285 341q-102 0 -178 -55t-76 -154.5t109 -152.5q0 -74 -45 -113t-108.5 -39t-110.5 48t-47 132q0 166 145 273.5t344 107.5q252 0 372 -118.5t120 -309.5q0 -207 -160 -377q-78 -84 -242 -227l-489 -432h764l84 303h53v-518h-1030z " />
<glyph unicode="3" horiz-adv-x="1259" d="M82 330q0 84 47 132t110.5 48t108.5 -39t45 -113q-109 -53 -108 -163q0 -84 70.5 -136.5t202.5 -52.5t224 110.5t92 309.5q0 434 -485 465v45q215 12 335 115.5t120 279.5q0 137 -75 219t-193.5 82t-183 -38t-64.5 -105q0 -109 102 -156q0 -72 -42 -108.5t-102.5 -36.5 t-105.5 47t-45 125q0 137 136.5 228t345 91t339.5 -94t131 -264q0 -340 -499 -406v-6q256 -12 412.5 -136t156.5 -334t-158.5 -345t-455.5 -135q-193 0 -327 106.5t-134 264.5z" />
<glyph unicode="4" horiz-adv-x="1193" d="M0 393v43l868 1202h47v-1149h189v-96h-189v-319l189 -31v-43h-602v43l188 31v319h-690zM100 489h590v818z" />
<glyph unicode="5" horiz-adv-x="1234" d="M51 330q0 84 47 132t110.5 48t108.5 -39t45 -113q-109 -53 -108 -163q0 -84 70.5 -136.5t187.5 -52.5q154 0 243 131t89 356.5t-105.5 347.5t-279.5 122q-92 0 -201 -35l-37 26l90 684h543q123 0 179.5 19.5t76.5 91.5l47 -2q-16 -199 -99 -273.5t-235 -74.5h-489 l-53 -408q102 29 215 29q276 0 453 -156.5t177 -388.5q0 -193 -143 -348q-70 -76 -192.5 -122t-297 -46t-308.5 106.5t-134 264.5z" />
<glyph unicode="6" horiz-adv-x="1318" d="M116.5 845.5q0.5 407.5 161 620.5t443.5 213q193 0 319.5 -78.5t126.5 -197.5q0 -70 -44 -118t-104.5 -48t-97 30.5t-36.5 84.5q57 45 57 114.5t-61.5 120.5t-159.5 51q-348 1 -350 -542l-2 -230q127 154 345 154t361.5 -138.5t143.5 -385t-160 -392t-391 -145.5 q-309 0 -437 250q-115 229 -114.5 636.5zM367 471q0 -467 301 -467q147 0 226 104.5t79 288.5v201q0 178 -71 275.5t-214 97.5q-100 0 -186 -54.5t-133 -148.5l-2 -285v-12z" />
<glyph unicode="7" horiz-adv-x="1017" d="M82 1182v456h899q-25 -211 -88.5 -442t-128 -400t-124 -387.5t-75.5 -408.5h-280q31 297 188 586q70 129 137 250q182 322 267 589h-687l-55 -243h-53z" />
<glyph unicode="8" horiz-adv-x="1316" d="M104 385q0 254 238 416q57 39 141 82l-94 61q-221 156 -221 338t146.5 289.5t341 107.5t332.5 -91t138 -253q0 -133 -77.5 -227t-219.5 -170q156 -96 220.5 -151.5t117 -147.5t52.5 -201q0 -223 -166 -351t-410 -128t-391.5 110.5t-147.5 315.5zM313 362.5 q0 -145.5 83 -251t253 -105.5t272.5 91t102.5 208t-58.5 208t-199.5 187l-223 144q-117 -90 -173.5 -213t-56.5 -268.5zM350 1406q0 -93 51.5 -160.5t153.5 -135.5l217 -137q168 119 168 356q0 133 -82 218t-207 85t-213 -66.5t-88 -159.5z" />
<glyph unicode="9" horiz-adv-x="1318" d="M100 1142q0 247 160 392t391 145q309 0 436 -249q115 -229 115 -637t-160.5 -621t-443.5 -213q-193 0 -319.5 79t-126.5 198q0 70 44 117.5t104 47.5t97 -30.5t37 -83.5q-57 -45 -57 -115t61.5 -121t159.5 -51q348 0 350 543v229q-123 -154 -342 -154t-362.5 138.5 t-143.5 385.5zM346 1040q0 -178 71 -275t214 -97q98 0 185 54t134 148l2 285v12q0 467 -301 467q-147 0 -226 -104.5t-79 -288.5v-201z" />
<glyph unicode=":" horiz-adv-x="497" d="M127 101.5q0 52.5 38 86t85 33.5t84 -33.5t37 -85.5q0 -51 -35 -86.5t-87 -36t-87 34.5t-35 87.5zM127 820q0 52 38 86t85 34t84 -34t37 -85t-35 -87t-87 -36t-87 35t-35 87z" />
<glyph unicode=";" horiz-adv-x="548" d="M139 102.5q0 51.5 36 85t97.5 33.5t103.5 -52t42 -136q0 -240 -254 -365l-23 33q61 37 111.5 103.5t50.5 134.5q0 41 -46 41t-82 35.5t-36 87zM139 820q0 52 38 86t85 34t84 -34t37 -85t-35 -87t-87 -36t-87 35t-35 87z" />
<glyph unicode="&#x3c;" horiz-adv-x="995" d="M63 711v41l797 430v-78l-686 -373l686 -369v-77z" />
<glyph unicode="=" horiz-adv-x="1234" d="M147 522v78h940v-78h-940zM147 862v78h940v-78h-940z" />
<glyph unicode="&#x3e;" horiz-adv-x="995" d="M135 285v77l686 369l-686 373v78l797 -430v-41z" />
<glyph unicode="?" horiz-adv-x="1069" d="M68 1313q0 160 142 263t350 103t318.5 -92t110.5 -311q0 -90 -35.5 -174t-91 -145.5t-118 -133t-118 -136t-91 -157t-35.5 -192.5h-45q0 221 102 416q41 82 82 159q100 190 100 349q0 209 -59 290.5t-162.5 81.5t-179.5 -53t-76 -137q0 -106 103 -156q0 -72 -42 -109.5 t-102.5 -37.5t-106.5 46t-46 126zM356 102.5q0 51.5 35 85t86 33.5t86 -33.5t35 -85t-35 -87t-86 -35.5t-86 35.5t-35 87z" />
<glyph unicode="@" horiz-adv-x="1806" d="M104 819.5q0 356.5 243 598t601.5 241.5t570.5 -193.5t212 -515.5q0 -248 -134.5 -410.5t-324 -162.5t-248.5 119q-113 -117 -272.5 -117t-245.5 101.5t-86 256.5q0 246 161.5 412t364.5 166q84 0 150.5 -38t99.5 -97l33 100h168l-195 -682q-12 -45 -12 -76 q0 -82 113 -82q150 0 258 154t108 356q0 299 -196.5 476.5t-526.5 177.5t-556 -226.5t-226 -557.5t226 -555t556 -224q154 0 263.5 30.5t230.5 98.5l28 -53q-129 -72 -247.5 -104.5t-274.5 -32.5q-356 0 -599 241.5t-243 598zM614 668q0 -96 43 -155.5t131 -59.5 q136 -1 226 122l160 535q-66 141 -211.5 141t-247 -183t-101.5 -400z" />
<glyph unicode="A" horiz-adv-x="1476" d="M-55 0v43l200 82l592 1554h33l559 -1605l189 -31v-43h-603v43l168 27l-174 485h-544l-166 -430l184 -82v-43h-438zM381 598h514l-246 721z" />
<glyph unicode="B" horiz-adv-x="1515" d="M78 0v43l188 31v1491l-188 28v45h624q326 0 464.5 -91t138.5 -292q0 -295 -373 -376v-11q479 -64 479 -426q0 -225 -165 -333.5t-445 -108.5h-723zM492 49h309q174 0 270 101.5t96 289.5v23q0 186 -95 278.5t-271 92.5h-309v-785zM492 885h227q164 0 252 92t88 262v12 q-1 336 -357 336h-210v-702z" />
<glyph unicode="C" horiz-adv-x="1515" d="M106 819q0 381 207 619q208 241 542 241h3q184 0 344 -116l137 116h43v-508h-43l-127 318q-156 143 -354 143q-219 0 -350 -166q-135 -170 -135 -458v-375q0 -291 129 -461q127 -166 346 -166q104 0 208.5 46t174.5 124l119 330h43v-526h-43l-148 104 q-156 -125 -340 -125t-320 62.5t-235 175.5q-201 238 -201 622z" />
<glyph unicode="D" horiz-adv-x="1740" d="M78 0v43l188 31v1491l-188 28v45h784q168 0 310.5 -59t244.5 -166q217 -229 217 -594q0 -369 -215 -594q-213 -225 -557 -225h-784zM492 49h370q227 0 369.5 159t142.5 454v315q0 295 -141.5 452.5t-370.5 157.5h-370v-1538z" />
<glyph unicode="E" horiz-adv-x="1466" d="M78 0v43l188 31v1491l-188 28v45h1233v-469h-56l-157 418h-606v-737h266l121 297h53v-647h-53l-123 301h-264v-752h643l168 451h53v-500h-1278z" />
<glyph unicode="F" horiz-adv-x="1370" d="M78 0v43l188 31v1491l-188 28v45h1233v-499h-56l-157 448h-606v-768h346l120 297h56v-647h-56l-120 301h-346v-696l188 -31v-43h-602z" />
<glyph unicode="G" horiz-adv-x="1662" d="M106 818q0 384 211 622.5t551 238.5q209 0 357 -106l125 106h43v-508h-43l-136 338q-147 123 -356 123t-349 -167t-140 -457v-375q0 -293 131 -460t348 -167q176 0 273.5 119t97.5 321v232l-191 29v45h612v-45l-190 -29v-232q0 -203 -150.5 -345t-451.5 -142 q-338 0 -540 237.5t-202 621.5z" />
<glyph unicode="H" horiz-adv-x="1761" d="M78 0v43l188 31v1491l-188 28v45h602v-45l-188 -28v-672h778v672l-191 28v45h604v-45l-190 -28v-1491l190 -31v-43h-604v43l191 31v768h-778v-768l188 -31v-43h-602z" />
<glyph unicode="I" horiz-adv-x="757" d="M78 0v43l188 31v1491l-188 28v45h602v-45l-188 -28v-1491l188 -31v-43h-602z" />
<glyph unicode="J" horiz-adv-x="915" d="M14 168q0 68 38 109.5t93.5 41.5t88 -30.5t40.5 -59.5l7 -30q-60 -43 -60 -93q0 -48 25 -74q24 -26 67 -26q66 0 99.5 88t42.5 309v1162l-189 28v45h594v-45l-188 -28v-1162q0 -106 -13.5 -177.5t-51.5 -137t-114.5 -97.5t-196.5 -32t-201 53.5t-81 155.5z" />
<glyph unicode="K" horiz-adv-x="1509" d="M78 0v43l188 31v1491l-188 28v45h602v-45l-188 -28v-738l665 680l-223 86v45h473v-45l-168 -86l-465 -467l656 -966l139 -31v-43h-604v43l186 29l-537 809l-122 -125v-682l188 -31v-43h-602z" />
<glyph unicode="L" horiz-adv-x="1376" d="M78 0v43l188 31v1491l-188 28v45h602v-45l-188 -28v-1516h612l168 451h55v-500h-1249z" />
<glyph unicode="M" horiz-adv-x="2064" d="M78 0v43l192 82v1440l-188 28v45h453l514 -1314l524 1314h414v-45l-189 -28v-1491l189 -31v-43h-603v43l189 31v1429l-606 -1523h-37l-611 1585v-1440l197 -82v-43h-438z" />
<glyph unicode="N" horiz-adv-x="1658" d="M84 0v43l190 82v1388l-190 80v45h381l883 -1237v1112l-191 80v45h436v-45l-194 -80v-1513h-51l-1022 1436v-1311l196 -82v-43h-438z" />
<glyph unicode="O" d="M104 819q0 193 57.5 350.5t162.5 272.5q216 237 550 237h3q168 0 310 -63.5t245 -177.5q217 -240 217 -619q0 -377 -215 -618q-102 -115 -244.5 -178.5t-312.5 -63.5q-338 0 -555.5 240.5t-217.5 619.5zM358 662q0 -303 146 -482q143 -174 372.5 -174t372.5 174 q146 179 146 482v315q0 297 -146 477q-143 178 -372 178t-373 -178q-145 -180 -146 -477v-315z" />
<glyph unicode="P" horiz-adv-x="1384" d="M78 0v43l188 31v1491l-188 28v45h643q598 0 598 -501q0 -502 -598 -502h-229v-561l188 -31v-43h-602zM492 684h200q379 0 379 412v82q0 409 -379 409h-200v-903z" />
<glyph unicode="Q" d="M104 819q0 381 220 623q216 237 550 237h3q168 0 310 -63.5t245 -177.5q217 -240 217 -619q0 -338 -179 -569q-178 -236 -464 -281v-137q-1 -258 249 -258v-47h-67q-434 0 -434 354v88q-293 41 -471 273q-178 236 -179 577zM362 662q0 -306 143.5 -481t370 -175t371 175 t144.5 481v315q0 305 -144.5 480t-371 175t-370 -175t-143.5 -480v-315z" />
<glyph unicode="R" horiz-adv-x="1486" d="M78 0v43l188 31v1491l-188 28v45h573q334 0 483.5 -104t149.5 -317q0 -352 -426 -408v-12q322 -45 373 -353l26 -176q16 -102 35 -145q23 -51 78 -51h1q55 0 122 69l35 -37q-110 -124 -258 -124h-2q-115 0 -172.5 55t-77.5 188l-39 275q-43 297 -328 297h-159v-721 l188 -31v-43h-602zM492 844h229q150 0 232.5 91t82.5 269v43q0 340 -385 340h-159v-743z" />
<glyph unicode="S" horiz-adv-x="1333" d="M131 -20v526h45l176 -381q170 -121 370 -121t317.5 95.5t117.5 267.5q0 125 -75.5 197.5t-245.5 115.5l-340 88q-178 47 -268.5 160.5t-90.5 269.5q0 217 127 349t352 132q186 0 334 -63l150 63h45v-417h-45l-148 299q-153 74 -331 74q-1 -1 -2 -1q-179 0 -281 -91 t-102 -240q0 -111 72.5 -174.5t213.5 -100.5l367 -96q178 -45 265 -154.5t87 -335t-140 -354.5t-376 -129q-190 0 -375 109l-174 -88h-45z" />
<glyph unicode="T" horiz-adv-x="1429" d="M49 1182v456h1333v-456h-61l-154 405h-340v-1513l189 -31v-43h-602v43l188 31v1513h-338l-155 -405h-60z" />
<glyph unicode="U" horiz-adv-x="1652" d="M53 1593v45h602v-45l-188 -28v-1116q0 -416 455 -416q434 0 434 416v1064l-191 80v45h437v-45l-197 -80v-1064q0 -246 -137.5 -368t-442.5 -122t-444 134t-139 356v1116z" />
<glyph unicode="V" horiz-adv-x="1419" d="M-57 1593v45h600v-45l-193 -24l451 -1227l442 1159l-235 92v45h440v-45l-150 -90l-585 -1544h-17l-590 1606z" />
<glyph unicode="W" horiz-adv-x="2217" d="M-41 1593v45h569v-45l-186 -28l440 -1213l299 783l-153 430l-189 28v45h609v-45l-177 -24l445 -1215l440 1147l-231 92v45h440v-45l-156 -90l-585 -1544h-17l-399 1104l-418 -1104h-16l-578 1606z" />
<glyph unicode="X" horiz-adv-x="1558" d="M-16 1593v45h620v-45l-162 -24l398 -602l395 528l-244 98v45h490v-45l-195 -108l-418 -559l568 -854l176 -29v-43h-623v43l162 27l-446 671l-453 -602l242 -96v-43h-490v43l203 115l469 626l-518 781z" />
<glyph unicode="Y" horiz-adv-x="1384" d="M-63 1593v45h616v-45l-191 -28l431 -744l395 674l-246 98v45h459v-45l-158 -100l-426 -729v-690l191 -31v-43h-602v43l190 31v622l-498 869z" />
<glyph unicode="Z" horiz-adv-x="1396" d="M55 0v49l959 1538h-635l-211 -389h-53l49 440h1126v-51l-960 -1538h717l210 420h54l-49 -469h-1207z" />
<glyph unicode="[" horiz-adv-x="634" d="M176 -379v2216h438v-61h-231v-2093h231v-62h-438z" />
<glyph unicode="\" horiz-adv-x="892" d="M86 1434h104l637 -1434h-106z" />
<glyph unicode="]" horiz-adv-x="634" d="M23 -317v-62h438v2216h-438v-61h231v-2093h-231z" />
<glyph unicode="^" horiz-adv-x="1175" d="M125 547l422 833h80l422 -833h-103l-360 706l-359 -706h-102z" />
<glyph unicode="_" horiz-adv-x="940" d="M0 -160h940v-71h-940v71z" />
<glyph unicode="`" horiz-adv-x="452" d="M-41 1477q0 41 28.5 69.5t67.5 28.5q61 0 90 -57l150 -324l-33 -25l-268 238q-35 29 -35 70z" />
<glyph unicode="a" horiz-adv-x="1142" d="M76 236.5q0 119.5 51 188.5t135 112q148 73 405 73h7h76v195q0 229 -209 229q-92 0 -151.5 -43t-59.5 -99t57 -75q0 -51 -39 -90t-92 -39t-90 38t-37 94.5t34 104.5t91 83q113 71 282 71h5q414 0 413 -315v-627q0 -92 76 -92t76 88h43q0 -72 -47 -112.5t-135 -40.5 t-151.5 55t-65.5 168q-51 -104 -153.5 -163.5t-229.5 -59.5t-209 68.5t-82 188zM299 252q0 -82 45 -129t134 -47t174.5 73.5t97.5 198.5v211h-76q-160 0 -267.5 -75.5t-107.5 -231.5z" />
<glyph unicode="b" horiz-adv-x="1310" d="M41 0v41l143 20v1516l-143 20v41h348v-792q111 233 346 233q223 0 356.5 -152.5t133.5 -396.5q0 -246 -133.5 -398t-362.5 -152t-340 233v-213h-348zM389 428q0 -162 93 -279.5t233 -117.5q284 0 284 397v205q0 395 -284 395q-137 0 -229.5 -111.5t-96.5 -269.5v-219z " />
<glyph unicode="c" horiz-adv-x="1112" d="M84 534.5q0 249.5 157.5 397t372.5 147.5q178 0 300 -89t122 -224q0 -68 -34.5 -103.5t-91 -35.5t-93.5 37t-37 92q56 39 56 112q0 71 -60 118q-60 48 -162 48q-147 0 -226 -105.5t-79 -295.5v-205q0 -182 77 -292.5t222.5 -110.5t249 78.5t127.5 207.5h47 q-29 -152 -142.5 -241.5t-275.5 -89.5q-225 0 -377.5 152.5t-152.5 402z" />
<glyph unicode="d" horiz-adv-x="1310" d="M86 530q0 250 135 400q133 150 360 150h1q228 0 340 -234v731l-144 20v41h348v-1577l144 -20v-41h-348v213q-111 -233 -347 -233q-221 0 -354 151q-135 150 -135 399zM311 428q0 -397 285 -397q135 0 228.5 111.5t97.5 269.5v235q-4 158 -97.5 269.5t-228.5 111.5 q-285 0 -285 -395v-205z" />
<glyph unicode="e" horiz-adv-x="1140" d="M84 530q0 242 154 398q146 151 371 151h3q199 0 322 -125q125 -129 129 -323h-754v-203q0 -182 80 -291q87 -112 232 -112q74 0 138 21.5t115 59.5q109 80 134 205h47q-29 -154 -145.5 -242.5t-284.5 -88.5q-231 0 -387 151q-154 152 -154 399zM311 682h527 q-1 352 -228 352q-137 0 -212.5 -96t-86.5 -256z" />
<glyph unicode="f" horiz-adv-x="700" d="M53 0v41l144 20v938l-144 21v41h144v172q0 426 352 426q121 0 199.5 -58.5t78.5 -158.5q0 -61 -33.5 -100t-88 -39t-93.5 38.5t-39 90.5q70 20 70 96q0 35 -27.5 60.5t-66.5 25.5q-80 0 -114 -75t-34 -243v-235h267v-41l-267 -21v-938l244 -20v-41h-592z" />
<glyph unicode="g" horiz-adv-x="1103" d="M31 -311q0 76 53 132t145 56q18 0 76 -8q-63 -68 -63 -169t72.5 -180t250.5 -79t302 103.5t124 232.5q0 88 -45 128t-166 40h-399q-289 0 -289 202q0 92 50.5 151.5t136.5 76.5q-160 104 -160 317q0 180 118.5 283.5t293 103.5t288.5 -90q78 6 117 38t39 71t-20.5 58.5 t-49.5 19.5q0 51 38 87.5t91 36.5t90 -33.5t37 -90.5q0 -88 -72.5 -149.5t-230.5 -74.5q96 -102 96 -270t-118.5 -271.5t-300.5 -103.5q-117 0 -201 39q-61 -4 -99 -30.5t-38 -74.5t52 -74t132 -26h338q164 0 248 -63.5t84 -214.5q0 -197 -134.5 -329t-384 -132t-375.5 79 t-126 208zM311 643q0 -141 55.5 -221t169 -80t170 80t56.5 221v100q0 301 -227 301q-223 0 -224 -301v-100z" />
<glyph unicode="h" horiz-adv-x="1284" d="M41 0v41l143 20v1516l-143 20v41h348v-798q165 239 397 239h2q147 0 232.5 -73.5t85.5 -219.5v-725l143 -20v-41h-471v41l123 20v721q0 223 -176 224q-94 0 -181 -69t-155 -169v-707l123 -20v-41h-471z" />
<glyph unicode="i" horiz-adv-x="587" d="M55 0v41l144 20v936l-144 21v41h348v-998l144 -20v-41h-492zM133 1435.5q0 57.5 40 96.5t97.5 39t96.5 -39t39 -96.5t-39 -97.5t-95.5 -40t-97.5 40t-41 97.5z" />
<glyph unicode="j" horiz-adv-x="544" d="M-63 -182q0 61 34.5 100t88 39t86 -27.5t38.5 -54.5l9 -27q-66 -43 -66 -108q0 -84 84 -84q53 0 85 44t32 128t-73 210t-73 234v727l-153 21v41h358v-1178q0 -282 -209 -282q-104 0 -172.5 58t-68.5 159zM121 1435.5q0 57.5 40 96.5t97 39t96 -39t39 -96.5t-39 -97.5 t-95 -40t-97 40t-41 97.5z" />
<glyph unicode="k" horiz-adv-x="1159" d="M41 0v41l143 20v1516l-143 20v41h348v-1050l469 385l-178 47v41h385v-41l-131 -47l-340 -279l479 -635l111 -18v-41h-479v41l122 20l-385 508l-53 -45v-463l123 -20v-41h-471z" />
<glyph unicode="l" horiz-adv-x="579" d="M37 0v41l153 20v1516l-153 20v41h358v-1577l144 -20v-41h-502z" />
<glyph unicode="m" horiz-adv-x="1933" d="M53 0v41l144 20v938l-144 21v41h348v-189q158 207 369 207q260 0 303 -217q158 217 375 217q145 0 226 -72.5t81 -220.5v-725l143 -20v-41h-471v41l123 20v721q0 223 -166 224q-160 0 -305 -205v-740l123 -20v-41h-452v41l122 20v721q0 223 -165 224q-160 0 -306 -205 v-740l123 -20v-41h-471z" />
<glyph unicode="n" horiz-adv-x="1296" d="M53 0v41l144 20v938l-144 21v41h348v-221q165 239 398 239h2q147 0 232 -73.5t85 -219.5v-725l144 -20v-41h-471v41l122 20v721q0 223 -176 224q-94 0 -181 -69t-155 -169v-707l123 -20v-41h-471z" />
<glyph unicode="o" horiz-adv-x="1228" d="M84 530q0 242 154 400q146 149 373 149h3q227 0 377 -153q154 -156 154 -396t-154 -395q-150 -156 -374.5 -156t-380.5 152q-152 156 -152 399zM309 428q0 -182 77 -292.5t228 -110.5q152 0 229 110.5t77 292.5v205q0 184 -76 292.5t-230 108.5t-229.5 -108.5 t-75.5 -292.5v-205z" />
<glyph unicode="p" horiz-adv-x="1310" d="M41 -539l143 21v1517l-143 21v41h348v-217q109 236 337 236h1q229 -1 363.5 -151.5t134.5 -400t-134.5 -399t-362.5 -149.5t-339 233v-731l193 -21v-41h-541v41zM389 426q0 -162 93 -278.5t233 -116.5q284 0 284 395v205q0 397 -284 397q-137 0 -229.5 -112.5 t-96.5 -270.5v-219z" />
<glyph unicode="q" horiz-adv-x="1310" d="M86 528.5q0 249.5 134 400t363.5 150.5t338.5 -235v217h348v-41l-144 -21v-1517l144 -21v-41h-592v41l244 21v731q-111 -233 -339.5 -233t-362.5 149.5t-134 399zM311 426q0 -395 285 -395q135 0 228.5 111.5t97.5 267.5v235q-4 158 -97.5 270.5t-228.5 112.5 q-285 0 -285 -397v-205z" />
<glyph unicode="r" horiz-adv-x="903" d="M53 0v41l144 20v938l-144 21v41h348v-158q129 176 291 176q78 0 137.5 -40t59.5 -103.5t-35 -99t-96.5 -35.5t-102.5 51q23 29 23 62.5t-23.5 55t-62.5 21.5q-78 0 -191 -164v-766l164 -20v-41h-512z" />
<glyph unicode="s" horiz-adv-x="966" d="M84 207q0 59 36 102t85 43q96 0 123 -86q-35 -39 -35 -86q0 -80 53 -121t166 -41t196 58.5t83 137.5t-56.5 118t-185.5 80l-264 84q-184 53 -185 270q0 135 105.5 224t275.5 89t266.5 -58t96.5 -153q0 -53 -33 -89t-80 -36t-74.5 24t-27.5 64q43 29 43 80q0 129 -187 129 q-133 0 -210.5 -53t-77.5 -121.5t27.5 -99.5t107.5 -57l325 -101q117 -37 169.5 -109.5t52.5 -197.5t-95.5 -223t-285.5 -98q-414 0 -414 227z" />
<glyph unicode="t" horiz-adv-x="708" d="M35 1020v41h145v170l205 51v-221h266v-41l-266 -21v-733q0 -217 156 -217q72 0 131 45l26 -33q-91 -81 -218 -81h-3q-297 0 -297 282v737z" />
<glyph unicode="u" horiz-adv-x="1282" d="M33 1020v41h348v-785q0 -223 176 -223t336 217v729l-143 21v41h348v-1000l143 -20v-41h-348v197q-160 -217 -399 -217q-147 0 -232.5 72.5t-85.5 219.5v727z" />
<glyph unicode="v" horiz-adv-x="1087" d="M-27 1020v41h510v-41l-147 -27l309 -770l277 744l-181 51v41h367v-41l-129 -49l-377 -1010h-57l-439 1040z" />
<glyph unicode="w" horiz-adv-x="1685" d="M-27 1020v41h459v-41l-96 -27l309 -770l182 498l-120 278l-107 21v41h483v-41l-147 -27l309 -770l277 742l-172 53v41h356v-41l-127 -49l-377 -1010h-57l-289 692l-254 -692h-57l-439 1040z" />
<glyph unicode="x" horiz-adv-x="1222" d="M2 1020v41h500v-41l-127 -23l278 -360l291 334l-162 47v41h377v-41l-149 -53l-324 -371l414 -535l129 -18v-41h-500v41l121 20l-305 396l-318 -369l166 -47v-41h-366v41l137 51l346 410l-385 499z" />
<glyph unicode="y" horiz-adv-x="1097" d="M-27 1018v41h510v-41l-143 -25l342 -731l244 705l-176 51v41h368v-41l-139 -51l-459 -1334q-43 -121 -103.5 -176t-170 -55t-175 53t-65.5 129t36 114t89 38q84 0 119 -66q-31 -43 -31 -87t26.5 -70.5t67.5 -26.5q98 0 150 147l123 353l-475 1011z" />
<glyph unicode="z" horiz-adv-x="1050" d="M76 0v49l635 961h-435l-122 -256h-64l23 307h837v-51l-635 -961h453l135 281h70l-25 -330h-872z" />
<glyph unicode="{" horiz-adv-x="641" d="M25 713v35q242 0 241 311q0 61 -21.5 244.5t-21.5 252.5q0 162 94.5 232t276.5 70v-37q-94 0 -133 -52.5t-39 -177.5q0 -57 19.5 -254t19.5 -250q0 -141 -78 -234t-221 -124q143 -29 221 -122t78 -234q0 -53 -19.5 -250t-19.5 -252q0 -125 39 -177t133 -52v-39 q-182 0 -276.5 70.5t-94.5 232.5q0 68 21.5 251t21.5 244q0 311 -241 312z" />
<glyph unicode="|" horiz-adv-x="432" d="M180 -492v2048h72v-2048h-72z" />
<glyph unicode="}" horiz-adv-x="641" d="M47 -358v-39q182 0 276.5 70.5t94.5 232.5q0 68 -21.5 251t-21.5 244q0 311 241 312v35q-242 0 -241 311q0 61 21.5 244.5t21.5 252.5q0 162 -94.5 232t-276.5 70v-37q94 0 133 -52.5t39 -177.5q0 -57 -19.5 -254t-19.5 -250q0 -141 78 -234t221 -124q-143 -29 -221 -122 t-78 -234q0 -53 19.5 -250t19.5 -252q0 -125 -39 -177t-133 -52z" />
<glyph unicode="~" horiz-adv-x="1087" d="M96 434q6 29 33 81t52.5 86t69.5 61.5t92 27.5t93 -22.5t72 -46t64.5 -65.5t58.5 -60q63 -57 114 -58q98 0 162 168l13 35l73 -23q-6 -27 -32.5 -81t-52 -87.5t-69.5 -61.5t-91.5 -28t-92.5 23t-69.5 45.5t-63.5 65.5t-59 61q-63 57 -116.5 57t-95.5 -50t-58 -99l-19 -51 q-76 23 -78 22z" />
<glyph unicode="&#xa1;" horiz-adv-x="466" d="M114 958.5q0 -51.5 35 -85t86 -33.5t86 33.5t35 85t-35 87t-86 35.5t-86 -35.5t-35 -87zM123 -457.5q0 -68.5 30.5 -104.5t81.5 -36t82 36t31 105.5t-41 478t-47 701.5h-49q-4 -295 -46 -703.5t-42 -477z" />
<glyph unicode="&#xa2;" horiz-adv-x="1120" d="M92 533.5q0 232.5 137.5 377t333.5 164.5v281h74v-277q174 -4 289.5 -92t115.5 -221q0 -68 -34.5 -103.5t-91 -35.5t-93.5 36.5t-37 92.5q57 39 57.5 108.5t-56 117.5t-150.5 52v-1009q135 4 232.5 82.5t123.5 203.5h47q-31 -150 -139 -238.5t-264 -92.5v-273h-74v277 q-205 18 -338 167.5t-133 382zM317 428q0 -164 61.5 -271.5t184.5 -127.5v1001q-119 -20 -182.5 -123.5t-63.5 -273.5v-205z" />
<glyph unicode="&#xa3;" horiz-adv-x="1294" d="M129 580v75h305v19q0 82 -41 164h-264v77h221q-16 25 -63 89.5t-69.5 99.5t-44 95.5t-21.5 119.5q0 150 131 255t358 105t375.5 -107.5t148.5 -273.5q0 -84 -47 -132t-110.5 -48t-107.5 39t-44 113q106 51 106.5 151.5t-78.5 155.5t-196 55t-195.5 -74.5t-78.5 -203.5 q0 -147 71 -320q35 -84 47 -119h336v-77h-317q10 -55 10 -102.5t-6 -80.5h313v-75h-329q-23 -78 -78 -155t-83 -103.5t-102 -92.5h707l125 330h55v-559h-1030v158q6 6 64.5 63.5t77 80t57.5 73.5q72 90 92 205h-295z" />
<glyph unicode="&#xa4;" horiz-adv-x="1107" d="M117 352l153 156q-80 96 -80 224t82 231l-153 151l55 57l154 -153q98 78 224 78t226 -80l158 158l55 -58l-155 -155q82 -98 82 -224.5t-82 -228.5l155 -154l-55 -55l-156 154q-98 -80 -226 -80t-228 78l-154 -154zM270 734q0 -118 83 -200.5t201 -82.5t202 82.5t84 200.5 t-84 201t-202 83t-201 -83t-83 -201z" />
<glyph unicode="&#xa5;" horiz-adv-x="1587" d="M61 1593v45h617v-45l-191 -28l431 -744l395 674l-246 98v45h459v-45l-158 -100l-416 -711h314v-77h-324v-142h324v-78h-324v-411l191 -31v-43h-603v43l191 31v411h-334v78h334v133l-6 9h-328v77h283l-447 783z" />
<glyph unicode="&#xa6;" horiz-adv-x="450" d="M184 328h82v-820h-82v820zM184 737v819h82v-819h-82z" />
<glyph unicode="&#xa7;" horiz-adv-x="1071" d="M109 672q0 123 45 204.5t131 153.5q-145 115 -145.5 287t96 257t275.5 85t288.5 -65.5t109.5 -170.5q0 -59 -36.5 -99t-88 -40t-83 26.5t-31.5 71.5q49 33 49 92.5t-62.5 101.5t-167 42t-185.5 -52.5t-81 -150.5q0 -63 30 -113.5t58.5 -73t83.5 -57.5l350 -167 q223 -109 224 -299q0 -217 -178 -371q139 -115 139 -280t-99.5 -250t-280.5 -85t-292 64.5t-111 169.5q0 59 37 99t89.5 40t83 -26.5t30.5 -69.5q-49 -37 -49 -95.5t63.5 -99.5t169 -41t189.5 52.5t84 148.5q0 63 -31 113.5t-61.5 74t-89.5 58.5l-349 168q-204 107 -204 297 zM186 761.5q0 -69.5 53.5 -121.5t172.5 -114l327 -155q2 -2 8.5 -5.5t8.5 -5.5q135 119 135 256q0 70 -58.5 121t-187.5 113l-323 156q-70 -63 -103 -119t-33 -125.5z" />
<glyph unicode="&#xa8;" horiz-adv-x="800" d="M88 1380.5q0 51.5 36 86t87 34.5t86 -34.5t35 -86t-35 -86t-86 -35t-88 34.5q-35 35 -35 86.5zM469 1380.5q0 51.5 35 86t86 34.5t86 -34.5t35 -86t-35 -86t-86 -35t-86 34.5t-35 86.5z" />
<glyph unicode="&#xa9;" horiz-adv-x="1880" d="M100 818q0 173 66.5 325.5t181.5 267.5t267.5 181.5t324.5 66.5t324.5 -67.5t267.5 -182.5t181.5 -267.5t66.5 -324.5t-66.5 -324.5t-181.5 -266t-267.5 -180t-324.5 -66.5t-324.5 66.5t-267.5 180t-181.5 266t-66.5 325.5zM178 816q0 -159 59.5 -297t163 -241.5 t241.5 -163t298 -59.5t298 60.5t240.5 164t162 241.5t59.5 296t-59.5 296t-162 241.5t-240.5 164t-297 60.5t-298 -60.5t-242.5 -164t-163 -241.5t-59.5 -297zM457 819.5q0 239.5 134 388t351 148.5q115 0 219 -76l88 76h39v-324h-39l-80 172q-92 92 -227 92 q-289 0 -289 -358v-240q0 -356 289 -356q66 0 133.5 30.5t112.5 80.5l74 180h38v-338h-38l-95 67q-100 -80 -225 -79q-217 0 -351 148.5t-134 388z" />
<glyph unicode="&#xaa;" horiz-adv-x="1021" d="M84 965.5q0 95.5 43 156t117 92.5q144 64 334 64h51v147q0 92 -38 129t-114 37t-119 -24.5t-43 -71.5t52 -65q0 -45 -36 -80t-83 -35t-79 33.5t-32 81.5q0 102 96.5 160.5t235.5 58.5q344 0 344 -256v-506q0 -53 53 -53q20 0 34.5 13t14.5 38h56q0 -59 -43 -92 t-109.5 -33t-117 33.5t-66.5 99.5q-94 -133 -295 -133q-115 0 -185.5 55t-70.5 150.5zM283 979q0 -141 127 -141q80 0 144.5 60.5t74.5 160.5v160h-51q-125 0 -210 -63.5t-85 -176.5z" />
<glyph unicode="&#xab;" horiz-adv-x="747" d="M92 535v36l354 392l19 -21l-193 -389l193 -391l-19 -19zM395 539v28l228 242l18 -18l-90 -238l90 -240l-18 -16z" />
<glyph unicode="&#xac;" horiz-adv-x="1146" d="M147 696v72h848v-516h-73v444h-775z" />
<glyph unicode="&#xad;" horiz-adv-x="786" d="M127 694v74h532v-74h-532z" />
<glyph unicode="&#xae;" horiz-adv-x="1880" d="M100 818q0 173 66.5 325.5t181.5 267.5t267.5 181.5t324.5 66.5t324.5 -67.5t267.5 -182.5t181.5 -267.5t66.5 -324.5t-66.5 -324.5t-181.5 -266t-267.5 -180t-324.5 -66.5t-324.5 66.5t-267.5 180t-181.5 266t-66.5 325.5zM178 816q0 -159 59.5 -297t163 -241.5 t241.5 -163t298 -59.5t298 60.5t240.5 164t162 241.5t59.5 296t-59.5 296t-162 241.5t-240.5 164t-297 60.5t-298 -60.5t-242.5 -164t-163 -241.5t-59.5 -297zM500 291v49l123 18v914l-123 18v49h448q217 0 312.5 -66.5t95.5 -203.5q0 -225 -330 -260v-8q211 -29 244 -234 l18 -112q6 -51 16.5 -74t43 -23t75.5 39l35 -39q-74 -80 -180 -79q-154 0 -176 155l-27 176q-12 86 -56 132t-147 46h-81v-430l120 -18v-49h-411zM791 842h127q252 0 251 221v27q1 196 -251 196h-127v-444z" />
<glyph unicode="&#xaf;" horiz-adv-x="940" d="M0 1364v70h940v-70h-940z" />
<glyph unicode="&#xb0;" horiz-adv-x="751" d="M76 1247q0 127 88 211q92 88 213 88q123 0 211 -88t88 -211q0 -121 -86 -211t-212 -90t-214 88t-88 213zM156 1247q0 -90 65.5 -155.5t155.5 -65.5t155.5 65.5t65.5 153.5q0 45 -18.5 85t-49.5 71q-68 68 -153 67q-90 0 -155.5 -65.5t-65.5 -155.5z" />
<glyph unicode="&#xb1;" horiz-adv-x="1243" d="M152 229v78h940v-78h-940zM152 692v78h430v330h77v-330h433v-78h-433v-330h-77v330h-430z" />
<glyph unicode="&#xb2;" horiz-adv-x="792" d="M104 778v82l238 232q168 164 168 340q0 80 -39 126t-97.5 46t-95 -25t-36.5 -73t63 -83q0 -43 -25.5 -66.5t-63.5 -23.5t-66.5 29t-28.5 78q0 100 71.5 154.5t199.5 54.5t202 -62.5t74 -159t-52.5 -170t-148.5 -149.5l-246 -199h340l57 162h48v-293h-562z" />
<glyph unicode="&#xb3;" horiz-adv-x="755" d="M84 961q0 47 26.5 74.5t62.5 27.5t61.5 -22.5t25.5 -63.5q-61 -33 -61 -82q0 -90 137 -90q70 0 118 51t48 156.5t-53.5 159t-180.5 61.5v43q111 6 155 51t44 137q0 139 -129 140q-102 0 -102 -76q0 -49 59 -72q0 -41 -24.5 -63.5t-60.5 -22.5t-61.5 27.5t-25.5 75.5 q0 88 67.5 132t179 44t181.5 -48.5t70 -142.5q0 -172 -246 -203v-4q301 -18 301 -243q0 -102 -91 -175t-249 -73q-104 0 -178 56t-74 145z" />
<glyph unicode="&#xb4;" horiz-adv-x="479" d="M59 1194l152 324q25 57 88 57q39 0 67.5 -28.5t28.5 -71.5t-35 -68l-268 -238z" />
<glyph unicode="&#xb5;" horiz-adv-x="1323" d="M184 -432l13 704v789h204v-785q0 -223 174.5 -223t337.5 240v768h205v-1000l144 -20v-41h-349v219q-166 -240 -399 -239q-166 0 -246 86q16 -238 75.5 -372t168.5 -190q-23 -45 -69 -73.5t-105 -28.5q-154 0 -154 166z" />
<glyph unicode="&#xb6;" horiz-adv-x="1120" d="M66 1255.5q0 165.5 106.5 274t292.5 108.5h567v-45l-188 -28v-1794h-86v1800h-203v-1800h-88v1101q-188 0 -294.5 109t-106.5 274.5z" />
<glyph unicode="&#xb7;" horiz-adv-x="491" d="M113 612.5q0 55.5 42 94t92 38.5t91 -40.5t41 -91t-39 -92.5t-94.5 -42t-93.5 39q-39 39 -39 94.5z" />
<glyph unicode="&#xb8;" horiz-adv-x="702" d="M143 -457l13 45q25 -6 75 -6t97 33t47 96q0 131 -148 148l43 159h56l-27 -108q250 -10 250 -189q0 -98 -75 -147t-170 -49t-161 18z" />
<glyph unicode="&#xb9;" horiz-adv-x="509" d="M102 768v43l86 10v764l-86 10v43h234v-817l86 -10v-43h-320z" />
<glyph unicode="&#xba;" horiz-adv-x="1026" d="M74 1204q0 98 33.5 180t93.5 140q123 125 311 125q186 0 313 -125q127 -123 127 -322q0 -195 -127 -317q-127 -125 -313 -125q-190 0 -311 121q-127 126 -127 323zM274 1120q0 -141 57.5 -223t180.5 -82t180.5 82t57.5 223v166q0 141 -57.5 223t-180.5 82t-180.5 -82 t-57.5 -223v-166z" />
<glyph unicode="&#xbb;" horiz-adv-x="747" d="M107 313l18 -16l228 242v28l-228 242l-18 -18l90 -238zM283 162l19 -19l354 392v36l-354 392l-19 -21l193 -389z" />
<glyph unicode="&#xbc;" horiz-adv-x="1366" d="M90 768v43l86 10v764l-86 10v43h234v-817l86 -10v-43h-320zM242 0l819 1638h105l-818 -1638h-106zM680 213v22l458 637h52v-589h98v-70h-98v-152l98 -16v-43h-344v43l100 16v152h-364zM776 283h268v370z" />
<glyph unicode="&#xbd;" horiz-adv-x="1433" d="M96 768v43l86 10v764l-86 10v43h234v-817l86 -10v-43h-320zM184 0l819 1638h105l-818 -1638h-106zM784 2v82l238 232q168 164 168 340q0 80 -39 126t-97.5 46t-95 -25t-36.5 -73t63 -83q0 -43 -25.5 -66.5t-63.5 -23.5t-66.5 29t-28.5 78q0 100 71.5 154.5t199.5 54.5 t202 -62.5t74 -159t-52.5 -170t-148.5 -149.5l-246 -199h340l57 162h48v-293h-562z" />
<glyph unicode="&#xbe;" horiz-adv-x="1425" d="M76 961q0 47 26.5 74.5t62.5 27.5t61.5 -22.5t25.5 -63.5q-61 -33 -61 -82q0 -90 137 -90q70 0 118 51t48 156.5t-53.5 159t-180.5 61.5v43q111 6 155 51t44 137q0 139 -129 140q-102 0 -102 -76q0 -49 59 -72q0 -41 -24.5 -63.5t-60.5 -22.5t-61.5 27.5t-25.5 75.5 q0 88 67.5 132t179 44t181.5 -48.5t70 -142.5q0 -172 -246 -203v-4q301 -18 301 -243q0 -102 -91 -175t-249 -73q-104 0 -178 56t-74 145zM342 0l819 1638h105l-818 -1638h-106zM727 213v22l458 637h52v-589h98v-70h-98v-152l98 -16v-43h-344v43l100 16v152h-364zM823 283 h268v370z" />
<glyph unicode="&#xbf;" horiz-adv-x="1054" d="M74 -217q0 90 35.5 174t91 145.5t118 133t118 136t91 157t35.5 192.5h45q0 -221 -102 -416q-41 -82 -82 -159q-100 -190 -100 -349q0 -209 59 -290.5t162.5 -81.5t179.5 53t76 137q0 106 -103 156q0 72 42 109.5t102.5 37.5t106.5 -46t46 -126q0 -160 -142 -263 t-350 -103t-318.5 92t-110.5 311zM465 956.5q0 51.5 35 87t86 35.5t86 -35.5t35 -87t-35 -85t-86 -33.5t-86 33.5t-35 85z" />
<glyph unicode="&#xc0;" horiz-adv-x="1476" d="M-55 0v43l200 82l592 1554h33l559 -1605l189 -31v-43h-603v43l168 27l-174 485h-544l-166 -430l184 -82v-43h-438zM373 1938.5q0 33.5 28.5 63.5t67.5 30t68 -25l268 -233l-18 -35l-342 104q-31 10 -51.5 36t-20.5 59.5zM381 598h514l-246 721z" />
<glyph unicode="&#xc1;" horiz-adv-x="1476" d="M-55 0v43l200 82l592 1554h33l559 -1605l189 -31v-43h-603v43l168 27l-174 485h-544l-166 -430l184 -82v-43h-438zM381 598h514l-246 721zM653 1774l270 233q29 25 68 25t66.5 -29t27.5 -63.5t-19 -60.5t-50 -36l-342 -104z" />
<glyph unicode="&#xc2;" horiz-adv-x="1476" d="M-55 0v43l200 82l592 1554h33l559 -1605l189 -31v-43h-603v43l168 27l-174 485h-544l-166 -430l184 -82v-43h-438zM381 598h514l-246 721zM441 1751l262 250h121l260 -250l-19 -30l-303 141l-303 -141z" />
<glyph unicode="&#xc3;" horiz-adv-x="1476" d="M-55 0v43l200 82l592 1554h33l559 -1605l189 -31v-43h-603v43l168 27l-174 485h-544l-166 -430l184 -82v-43h-438zM381 598h514l-246 721zM414 1778q35 139 152 198q47 25 106 25t114.5 -36t104.5 -72.5t94 -36.5q82 0 115 100l57 -8q-34 -140 -149 -199 q-49 -25 -116.5 -25t-160 73t-145.5 73q-78 0 -115 -100z" />
<glyph unicode="&#xc4;" horiz-adv-x="1476" d="M-55 0v43l200 82l592 1554h33l559 -1605l189 -31v-43h-603v43l168 27l-174 485h-544l-166 -430l184 -82v-43h-438zM381 598h514l-246 721zM428 1878q0 51 36 86t87 35t86 -35t35 -86t-35 -86t-86 -35t-88 35q-35 35 -35 86zM809 1878q0 51 36 86t87 35t85 -35t34 -86 t-34 -86t-85 -35t-88 35q-35 35 -35 86z" />
<glyph unicode="&#xc5;" horiz-adv-x="1476" d="M-55 0v43l200 82l568 1493q-53 10 -101.5 60.5t-48.5 130t56.5 137t137.5 57.5t137 -57.5t56 -137t-50 -131t-109 -61.5l538 -1542l189 -31v-43h-603v43l168 27l-174 485h-544l-166 -430l184 -82v-43h-438zM381 598h514l-246 721zM629 1808.5q0 -51.5 38 -89.5t89 -38 t90 38t39 89.5t-39 89t-90 37.5t-89 -37.5t-38 -89z" />
<glyph unicode="&#xc6;" horiz-adv-x="2279" d="M-78 0v43l195 80l946 1442l-174 28v45h1235v-469h-56l-157 418h-576v-737h246l121 297h55v-647h-55l-121 301h-246v-752h613l168 451h55v-500h-1059v633h-598l-336 -510l182 -80v-43h-438zM543 676h569v862z" />
<glyph unicode="&#xc7;" horiz-adv-x="1515" d="M106 829.5q0 374.5 207 612t545 237.5q184 0 344 -116l137 116h43v-508h-43l-127 318q-158 143 -364.5 143t-340.5 -166t-134 -458v-375q0 -295 129 -461t346 -166q104 0 208.5 46t174.5 124l119 330h43v-526h-43l-148 104q-158 -125 -354 -125h-14l-17 -70 q250 -10 250 -188q0 -98 -74.5 -147.5t-171 -49.5t-159.5 19l12 45q25 -6 75 -6t97 32.5t47 96.5q0 131 -148 147l33 125q-307 25 -489.5 258.5t-182.5 608z" />
<glyph unicode="&#xc8;" horiz-adv-x="1474" d="M86 0v43l188 31v1491l-188 28v45h1233v-469h-56l-157 418h-606v-737h266l121 297h53v-647h-53l-123 301h-264v-752h643l168 451h53v-500h-1278zM473 1940.5q0 33.5 28.5 63.5t67.5 30t68 -25l268 -233l-18 -35l-342 104q-31 10 -51.5 36t-20.5 59.5z" />
<glyph unicode="&#xc9;" horiz-adv-x="1474" d="M86 0v43l188 31v1491l-188 28v45h1233v-469h-56l-157 418h-606v-737h266l121 297h53v-647h-53l-123 301h-264v-752h643l168 451h53v-500h-1278zM694 1774l270 233q29 25 68 25t66.5 -29t27.5 -63.5t-19 -60.5t-50 -36l-342 -104z" />
<glyph unicode="&#xca;" horiz-adv-x="1474" d="M86 0v43l188 31v1491l-188 28v45h1233v-469h-56l-157 418h-606v-737h266l121 297h53v-647h-53l-123 301h-264v-752h643l168 451h53v-500h-1278zM469 1751l262 250h121l260 -250l-19 -30l-303 141l-303 -141z" />
<glyph unicode="&#xcb;" horiz-adv-x="1474" d="M86 0v43l188 31v1491l-188 28v45h1233v-469h-56l-157 418h-606v-737h266l121 297h53v-647h-53l-123 301h-264v-752h643l168 451h53v-500h-1278zM528 1878q0 51 36 86t87 35t86 -35t35 -86t-35 -86t-86 -35t-88 35q-35 35 -35 86zM909 1878q0 51 36 86t87 35t85 -35 t34 -86t-34 -86t-85 -35t-88 35q-35 35 -35 86z" />
<glyph unicode="&#xcc;" horiz-adv-x="765" d="M24 1938.5q0 33.5 28.5 63.5t67.5 30t68 -25l268 -233l-18 -35l-342 104q-31 10 -51.5 36t-20.5 59.5zM86 0v43l188 31v1491l-188 28v45h602v-45l-188 -28v-1491l188 -31v-43h-602z" />
<glyph unicode="&#xcd;" horiz-adv-x="765" d="M86 0v43l188 31v1491l-188 28v45h602v-45l-188 -28v-1491l188 -31v-43h-602zM289 1774l270 233q29 25 68 25t66.5 -29t27.5 -63.5t-19 -60.5t-50 -36l-342 -104z" />
<glyph unicode="&#xce;" horiz-adv-x="765" d="M64 1751l262 250h121l260 -250l-19 -30l-303 141l-303 -141zM86 0v43l188 31v1491l-188 28v45h602v-45l-188 -28v-1491l188 -31v-43h-602z" />
<glyph unicode="&#xcf;" horiz-adv-x="765" d="M72 1905q0 51 36 86t87 35t86 -35t35 -86t-35 -86t-86 -35t-88 35q-35 35 -35 86zM86 0v43l188 31v1491l-188 28v45h602v-45l-188 -28v-1491l188 -31v-43h-602zM453 1905q0 51 36 86t87 35t85 -35t34 -86t-34 -86t-85 -35t-88 35q-35 35 -35 86z" />
<glyph unicode="&#xd0;" horiz-adv-x="1748" d="M78 0v43l188 31v694h-155v68h155v729l-188 28v45h784q168 0 310.5 -59t244.5 -166q217 -229 217 -594q0 -369 -215 -594q-213 -225 -557 -225h-784zM492 49h378q225 4 364.5 163t139.5 450v315q0 295 -141.5 452.5t-370.5 157.5h-370v-751h376v-68h-376v-719z" />
<glyph unicode="&#xd1;" horiz-adv-x="1658" d="M84 0v43l190 82v1388l-190 80v45h381l883 -1237v1112l-191 80v45h436v-45l-194 -80v-1513h-51l-1022 1436v-1311l196 -82v-43h-438zM498 1778q35 139 152 198q47 25 106 25t114.5 -36t104.5 -72.5t94 -36.5q82 0 115 100l57 -8q-34 -140 -149 -199q-49 -25 -116.5 -25 t-160 73t-145.5 73q-78 0 -115 -100z" />
<glyph unicode="&#xd2;" d="M104 819q0 193 57.5 350.5t162.5 272.5q217 238 553 237q168 0 310 -63.5t245 -177.5q217 -240 217 -619q0 -377 -215 -618q-102 -115 -244.5 -178.5t-312.5 -63.5q-338 0 -555.5 240.5t-217.5 619.5zM358 662q0 -303 146 -482q143 -174 372.5 -174t372.5 174 q146 179 146 482v315q0 297 -146 477q-143 178 -372 178t-373 -178q-145 -180 -146 -477v-315zM559 1938.5q0 33.5 28.5 63.5t67.5 30t68 -25l268 -233l-18 -35l-342 104q-31 10 -51.5 36t-20.5 59.5z" />
<glyph unicode="&#xd3;" d="M104 819q0 193 57.5 350.5t162.5 272.5q217 238 553 237q168 0 310 -63.5t245 -177.5q217 -240 217 -619q0 -377 -215 -618q-102 -115 -244.5 -178.5t-312.5 -63.5q-338 0 -555.5 240.5t-217.5 619.5zM358 662q0 -303 146 -482q143 -174 372.5 -174t372.5 174 q146 179 146 482v315q0 297 -146 477q-143 178 -372 178t-373 -178q-145 -180 -146 -477v-315zM817 1774l270 233q29 25 68 25t66.5 -29t27.5 -63.5t-19 -60.5t-50 -36l-342 -104z" />
<glyph unicode="&#xd4;" d="M104 819q0 193 57.5 350.5t162.5 272.5q217 238 553 237q168 0 310 -63.5t245 -177.5q217 -240 217 -619q0 -377 -215 -618q-102 -115 -244.5 -178.5t-312.5 -63.5q-338 0 -555.5 240.5t-217.5 619.5zM358 662q0 -303 146 -482q143 -174 372.5 -174t372.5 174 q146 179 146 482v315q0 297 -146 477q-143 178 -372 178t-373 -178q-145 -180 -146 -477v-315zM553 1751l262 250h121l260 -250l-19 -30l-303 141l-303 -141z" />
<glyph unicode="&#xd5;" d="M104 819q0 193 57.5 350.5t162.5 272.5q217 238 553 237q168 0 310 -63.5t245 -177.5q217 -240 217 -619q0 -377 -215 -618q-102 -115 -244.5 -178.5t-312.5 -63.5q-338 0 -555.5 240.5t-217.5 619.5zM358 662q0 -303 146 -482q143 -174 372.5 -174t372.5 174 q146 179 146 482v315q0 297 -146 477q-143 178 -372 178t-373 -178q-145 -180 -146 -477v-315zM551 1778q35 139 152 198q47 25 106 25t114.5 -36t104.5 -72.5t94 -36.5q82 0 115 100l57 -8q-34 -140 -149 -199q-49 -25 -116.5 -25t-160 73t-145.5 73q-78 0 -115 -100z" />
<glyph unicode="&#xd6;" d="M104 819q0 193 57.5 350.5t162.5 272.5q217 238 553 237q168 0 310 -63.5t245 -177.5q217 -240 217 -619q0 -377 -215 -618q-102 -115 -244.5 -178.5t-312.5 -63.5q-338 0 -555.5 240.5t-217.5 619.5zM358 662q0 -303 146 -482q143 -174 372.5 -174t372.5 174 q146 179 146 482v315q0 297 -146 477q-143 178 -372 178t-373 -178q-145 -180 -146 -477v-315zM563 1905q0 51 36 86t87 35t86 -35t35 -86t-35 -86t-86 -35t-88 35q-35 35 -35 86zM944 1905q0 51 36 86t87 35t85 -35t34 -86t-34 -86t-85 -35t-88 35q-35 35 -35 86z" />
<glyph unicode="&#xd7;" horiz-adv-x="1001" d="M119 406l323 323l-323 326l55 55l324 -326l327 328l56 -55l-328 -328l328 -326l-56 -55l-325 328l-326 -326z" />
<glyph unicode="&#xd8;" d="M104 819q0 383 216.5 621.5t556.5 238.5q170 0 321 -67l33 71h84l-49 -108q180 -106 281.5 -303t101.5 -453q0 -381 -216 -620.5t-556 -239.5q-170 0 -316 64l-29 -68h-86l46 102q-182 106 -285 305t-103 457zM358 662q0 -344 181 -521l620 1401q-125 90 -282 90 q-227 0 -373 -175t-146 -480v-315zM598 90q121 -84 279 -84q227 0 372.5 175t145.5 481v315q0 332 -176 512z" />
<glyph unicode="&#xd9;" horiz-adv-x="1658" d="M59 1593v45h602v-45l-188 -28v-1116q0 -416 455 -416q434 0 434 416v1064l-191 80v45h437v-45l-197 -80v-1064q0 -246 -137.5 -368t-442.5 -122t-444 134t-139 356v1116zM592 1938.5q0 33.5 28.5 63.5t67.5 30t68 -25l268 -233l-18 -35l-342 104q-31 10 -51.5 36 t-20.5 59.5z" />
<glyph unicode="&#xda;" horiz-adv-x="1658" d="M59 1593v45h602v-45l-188 -28v-1116q0 -416 455 -416q434 0 434 416v1064l-191 80v45h437v-45l-197 -80v-1064q0 -246 -137.5 -368t-442.5 -122t-444 134t-139 356v1116zM780 1774l270 233q29 25 68 25t66.5 -29t27.5 -63.5t-19 -60.5t-50 -36l-342 -104z" />
<glyph unicode="&#xdb;" horiz-adv-x="1658" d="M59 1593v45h602v-45l-188 -28v-1116q0 -416 455 -416q434 0 434 416v1064l-191 80v45h437v-45l-197 -80v-1064q0 -246 -137.5 -368t-442.5 -122t-444 134t-139 356v1116zM578 1751l262 250h121l260 -250l-19 -30l-303 141l-303 -141z" />
<glyph unicode="&#xdc;" horiz-adv-x="1658" d="M59 1593v45h602v-45l-188 -28v-1116q0 -416 455 -416q434 0 434 416v1064l-191 80v45h437v-45l-197 -80v-1064q0 -246 -137.5 -368t-442.5 -122t-444 134t-139 356v1116zM596 1901q0 51 36 86t87 35t86 -35t35 -86t-35 -86t-86 -35t-88 35q-35 35 -35 86zM977 1901 q0 51 36 86t87 35t85 -35t34 -86t-34 -86t-85 -35t-88 35q-35 35 -35 86z" />
<glyph unicode="&#xdd;" horiz-adv-x="1384" d="M-63 1593v45h616v-45l-191 -28l431 -744l395 674l-246 98v45h459v-45l-158 -100l-426 -729v-690l191 -31v-43h-602v43l190 31v622l-498 869zM637 1774l270 233q29 25 68 25t66.5 -29t27.5 -63.5t-19 -60.5t-50 -36l-342 -104z" />
<glyph unicode="&#xde;" horiz-adv-x="1441" d="M78 0v43l188 31v1491l-188 28v45h610v-45l-188 -28v-287h229q338 0 496.5 -107.5t158.5 -344t-158.5 -344t-496.5 -107.5h-229v-301l188 -31v-43h-610zM500 424h200q422 0 422 371v61q0 373 -422 373h-200v-805z" />
<glyph unicode="&#xdf;" horiz-adv-x="1323" d="M41 0v41l143 20v1090q0 528 484 528q213 0 322.5 -82t109.5 -221q0 -41 -7.5 -74.5t-43 -79.5t-78.5 -72t-61.5 -35t-79 -37.5t-108.5 -52.5t-86 -61.5t-38 -89t37 -88t77 -52t103 -32.5l209 -53q248 -63 248 -323q0 -154 -89 -250t-288 -96q-383 0 -383 192q0 57 36 93 t84 36t79.5 -23.5t44.5 -60.5q-35 -41 -35 -91t47 -79t127 -29q129 0 217 64.5t88 157.5q0 92 -67 133q-57 33 -156 59l-184 51q-135 39 -203 115t-68 209q0 113 68 176q51 47 145 93t127 108.5t33 191.5q0 266 -227 266q-279 0 -279 -403v-1239h-348z" />
<glyph unicode="&#xe0;" horiz-adv-x="1142" d="M76 236.5q0 119.5 51 188.5t135 112q150 74 412 73h76v195q0 229 -209 229q-92 0 -151.5 -43t-59.5 -99t57 -75q0 -51 -39 -90t-92 -39t-90 38t-37 94.5t34 104.5t91 83q115 72 287 71q414 0 413 -315v-627q0 -92 76 -92t76 88h43q0 -72 -47 -112.5t-135 -40.5t-151.5 55 t-65.5 168q-51 -104 -153.5 -163.5t-229.5 -59.5t-209 68.5t-82 188zM250 1477q0 41 28.5 69.5t67.5 28.5q61 0 90 -57l150 -324l-33 -25l-268 238q-35 29 -35 70zM299 252q0 -82 45 -129t134 -47t174.5 73.5t97.5 198.5v211h-76q-160 0 -267.5 -75.5t-107.5 -231.5z" />
<glyph unicode="&#xe1;" horiz-adv-x="1142" d="M76 236.5q0 119.5 51 188.5t135 112q150 74 412 73h76v195q0 229 -209 229q-92 0 -151.5 -43t-59.5 -99t57 -75q0 -51 -39 -90t-92 -39t-90 38t-37 94.5t34 104.5t91 83q115 72 287 71q414 0 413 -315v-627q0 -92 76 -92t76 88h43q0 -72 -47 -112.5t-135 -40.5t-151.5 55 t-65.5 168q-51 -104 -153.5 -163.5t-229.5 -59.5t-209 68.5t-82 188zM299 252q0 -82 45 -129t134 -47t174.5 73.5t97.5 198.5v211h-76q-160 0 -267.5 -75.5t-107.5 -231.5zM469 1194l152 324q25 57 88 57q39 0 67.5 -28.5t28.5 -71.5t-35 -68l-268 -238z" />
<glyph unicode="&#xe2;" horiz-adv-x="1142" d="M76 236.5q0 119.5 51 188.5t135 112q150 74 412 73h76v195q0 229 -209 229q-92 0 -151.5 -43t-59.5 -99t57 -75q0 -51 -39 -90t-92 -39t-90 38t-37 94.5t34 104.5t91 83q115 72 287 71q414 0 413 -315v-627q0 -92 76 -92t76 88h43q0 -72 -47 -112.5t-135 -40.5t-151.5 55 t-65.5 168q-51 -104 -153.5 -163.5t-229.5 -59.5t-209 68.5t-82 188zM275 1237l246 317h80l245 -317l-43 -31l-243 193l-242 -193zM299 252q0 -82 45 -129t134 -47t174.5 73.5t97.5 198.5v211h-76q-160 0 -267.5 -75.5t-107.5 -231.5z" />
<glyph unicode="&#xe3;" horiz-adv-x="1142" d="M76 236.5q0 119.5 51 188.5t135 112q150 74 412 73h76v195q0 229 -209 229q-92 0 -151.5 -43t-59.5 -99t57 -75q0 -51 -39 -90t-92 -39t-90 38t-37 94.5t34 104.5t91 83q115 72 287 71q414 0 413 -315v-627q0 -92 76 -92t76 88h43q0 -72 -47 -112.5t-135 -40.5t-151.5 55 t-65.5 168q-51 -104 -153.5 -163.5t-229.5 -59.5t-209 68.5t-82 188zM174 1286q20 86 62 129q82 94 194 94q78 0 196 -72.5t169 -72.5q80 0 117 100l55 -8q-20 -86 -60 -130t-88.5 -68.5t-117 -24.5t-186 72.5t-169.5 72.5q-80 0 -116 -100zM299 252q0 -82 45 -129t134 -47 t174.5 73.5t97.5 198.5v211h-76q-160 0 -267.5 -75.5t-107.5 -231.5z" />
<glyph unicode="&#xe4;" horiz-adv-x="1142" d="M76 236.5q0 119.5 51 188.5t135 112q150 74 412 73h76v195q0 229 -209 229q-92 0 -151.5 -43t-59.5 -99t57 -75q0 -51 -39 -90t-92 -39t-90 38t-37 94.5t34 104.5t91 83q115 72 287 71q414 0 413 -315v-627q0 -92 76 -92t76 88h43q0 -72 -47 -112.5t-135 -40.5t-151.5 55 t-65.5 168q-51 -104 -153.5 -163.5t-229.5 -59.5t-209 68.5t-82 188zM238 1372.5q0 51.5 36 86t87 34.5t86 -34.5t35 -86t-35 -86t-86 -35t-88 34.5q-35 35 -35 86.5zM299 252q0 -82 45 -129t134 -47t174.5 73.5t97.5 198.5v211h-76q-160 0 -267.5 -75.5t-107.5 -231.5z M619 1372.5q0 51.5 35 86t86 34.5t86 -34.5t35 -86t-35 -86t-86 -35t-86 34.5t-35 86.5z" />
<glyph unicode="&#xe5;" horiz-adv-x="1142" d="M76 236.5q0 119.5 51 188.5t135 112q150 74 412 73h76v195q0 229 -209 229q-92 0 -151.5 -43t-59.5 -99t57 -75q0 -51 -39 -90t-92 -39t-90 38t-37 94.5t34 104.5t91 83q115 72 287 71q414 0 413 -315v-627q0 -92 76 -92t76 88h43q0 -72 -47 -112.5t-135 -40.5t-151.5 55 t-65.5 168q-51 -104 -153.5 -163.5t-229.5 -59.5t-209 68.5t-82 188zM299 252q0 -82 45 -129t134 -47t174.5 73.5t97.5 198.5v211h-76q-160 0 -267.5 -75.5t-107.5 -231.5zM344 1364q0 80 56 137.5t137 57.5t137.5 -57.5t56.5 -137.5t-56.5 -137t-137.5 -57t-137 57t-56 137 zM409 1364q0 -51 38 -89t89 -38t90 38t39 89t-39 89t-90 38t-89 -38t-38 -89z" />
<glyph unicode="&#xe6;" horiz-adv-x="1789" d="M76 236.5q0 117.5 51 190.5t141 112q166 72 406 71h76v195q0 229 -209 229q-92 0 -151.5 -43t-59.5 -99t57 -75q0 -51 -39 -90t-92 -39t-90 38t-37 91q0 117 121 189.5t291 72.5q270 0 362 -135q145 135 350 135t330 -125t129 -323h-754v-203q0 -180 81 -291.5 t228.5 -111.5t256 79.5t133.5 206.5h47q-29 -152 -145.5 -241.5t-284.5 -89.5t-302 80.5t-192 222.5q-113 -303 -415 -303q-125 0 -207 69.5t-82 187zM299 252q0 -82 45 -129t123 -47q109 0 196 93t87 222v168h-76q-160 0 -267.5 -75.5t-107.5 -231.5zM961 682h528 q0 352 -227 352q-137 0 -214 -95t-87 -257z" />
<glyph unicode="&#xe7;" horiz-adv-x="1112" d="M84 530q0 252 164 408q150 141 366 141q176 0 299 -88t123 -225q0 -72 -36.5 -105.5t-91 -33.5t-91.5 37t-37 92q55 41 55.5 111.5t-59 118.5t-162.5 48q-147 0 -226 -105.5t-79 -295.5v-205q0 -283 168 -373q57 -31 132 -30.5t136.5 21t110.5 56.5q104 82 129 209h47 q-29 -147 -133 -234t-256 -95l-16 -72q109 -4 179.5 -48t70.5 -141q0 -98 -82 -151q-70 -45 -165 -45t-159 18l12 45q25 -6 56.5 -6t60.5 7.5t51 23.5q51 37 51 98q0 131 -147 148l33 121q-217 12 -359 159q-145 154 -145 391z" />
<glyph unicode="&#xe8;" horiz-adv-x="1140" d="M84 530q0 242 154 398q147 152 374 151q199 0 322 -125q125 -129 129 -323h-754v-203q0 -182 80 -291q87 -112 232 -112q74 0 138 21.5t115 59.5q109 80 134 205h47q-29 -154 -145.5 -242.5t-284.5 -88.5q-231 0 -387 151q-154 152 -154 399zM311 682h527 q-1 352 -228 352q-137 0 -212.5 -96t-86.5 -256zM315 1477q0 41 28.5 69.5t67.5 28.5q61 0 90 -57l150 -324l-33 -25l-268 238q-35 29 -35 70z" />
<glyph unicode="&#xe9;" horiz-adv-x="1140" d="M84 530q0 242 154 398q147 152 374 151q199 0 322 -125q125 -129 129 -323h-754v-203q0 -182 80 -291q87 -112 232 -112q74 0 138 21.5t115 59.5q109 80 134 205h47q-29 -154 -145.5 -242.5t-284.5 -88.5q-231 0 -387 151q-154 152 -154 399zM311 682h527 q-1 352 -228 352q-137 0 -212.5 -96t-86.5 -256zM538 1194l152 324q25 57 88 57q39 0 67.5 -28.5t28.5 -71.5t-35 -68l-268 -238z" />
<glyph unicode="&#xea;" horiz-adv-x="1140" d="M84 530q0 242 154 398q147 152 374 151q199 0 322 -125q125 -129 129 -323h-754v-203q0 -182 80 -291q87 -112 232 -112q74 0 138 21.5t115 59.5q109 80 134 205h47q-29 -154 -145.5 -242.5t-284.5 -88.5q-231 0 -387 151q-154 152 -154 399zM311 682h527 q-1 352 -228 352q-137 0 -212.5 -96t-86.5 -256zM332 1237l246 317h80l245 -317l-43 -31l-243 193l-242 -193z" />
<glyph unicode="&#xeb;" horiz-adv-x="1140" d="M84 530q0 242 154 398q147 152 374 151q199 0 322 -125q125 -129 129 -323h-754v-203q0 -182 80 -291q87 -112 232 -112q74 0 138 21.5t115 59.5q109 80 134 205h47q-29 -154 -145.5 -242.5t-284.5 -88.5q-231 0 -387 151q-154 152 -154 399zM283 1372.5q0 51.5 36 86 t87 34.5t86 -34.5t35 -86t-35 -86t-86 -35t-88 34.5q-35 35 -35 86.5zM311 682h527q-1 352 -228 352q-137 0 -212.5 -96t-86.5 -256zM664 1372.5q0 51.5 35 86t86 34.5t86 -34.5t35 -86t-35 -86t-86 -35t-86 34.5t-35 86.5z" />
<glyph unicode="&#xec;" horiz-adv-x="587" d="M-6 1477q0 41 28.5 69.5t67.5 28.5q61 0 90 -57l150 -324l-33 -25l-268 238q-35 29 -35 70zM55 0v41l144 20v936l-144 21v41h348v-998l144 -20v-41h-492z" />
<glyph unicode="&#xed;" horiz-adv-x="587" d="M55 0v41l144 20v936l-144 21v41h348v-998l144 -20v-41h-492zM231 1194l152 324q25 57 88 57q39 0 67.5 -28.5t28.5 -71.5t-35 -68l-268 -238z" />
<glyph unicode="&#xee;" horiz-adv-x="587" d="M0 1237l246 317h80l245 -317l-43 -31l-243 193l-242 -193zM55 0v41l144 20v936l-144 21v41h348v-998l144 -20v-41h-492z" />
<glyph unicode="&#xef;" horiz-adv-x="587" d="M-18 1372.5q0 51.5 36 86t87 34.5t86 -34.5t35 -86t-35 -86t-86 -35t-88 34.5q-35 35 -35 86.5zM55 0v41l144 20v936l-144 21v41h348v-998l144 -20v-41h-492zM363 1372.5q0 51.5 35 86t86 34.5t86 -34.5t35 -86t-35 -86t-86 -35t-86 34.5t-35 86.5z" />
<glyph unicode="&#xf0;" horiz-adv-x="1273" d="M84 530q0 242 154 400q147 150 376 149q168 0 301 -69q-14 287 -151 424l-262 -146l-25 49l244 133q-119 90 -328 144l10 45q223 -53 381 -154l236 129l27 -45l-216 -119q315 -236 316 -708v-232q0 -242 -154 -399q-150 -152 -379 -151q-227 0 -376 151 q-154 158 -154 399zM309 428q0 -182 77 -292.5t228.5 -110.5t229.5 110.5t78 292.5v377q0 57 -4 151q-141 78 -298 78t-234 -109.5t-77 -291.5v-205z" />
<glyph unicode="&#xf1;" horiz-adv-x="1296" d="M53 0v41l144 20v938l-144 21v41h348v-221q166 240 400 239q147 0 232 -73.5t85 -219.5v-725l144 -20v-41h-471v41l122 20v721q0 223 -176 224q-94 0 -181 -69t-155 -169v-707l123 -20v-41h-471zM301 1286q20 86 62 129q82 94 194 94q78 0 196 -72.5t169 -72.5 q80 0 117 100l55 -8q-20 -86 -60 -130t-88.5 -68.5t-117 -24.5t-186 72.5t-169.5 72.5q-80 0 -116 -100z" />
<glyph unicode="&#xf2;" horiz-adv-x="1228" d="M84 530q0 242 154 400q147 150 376 149q227 0 377 -153q154 -156 154 -396t-154 -395q-150 -156 -374.5 -156t-380.5 152q-152 156 -152 399zM309 428q0 -182 77 -292.5t228 -110.5q152 0 229 110.5t77 292.5v205q0 184 -76 292.5t-230 108.5t-229.5 -108.5t-75.5 -292.5 v-205zM328 1477q0 41 28.5 69.5t67.5 28.5q61 0 90 -57l150 -324l-33 -25l-268 238q-35 29 -35 70z" />
<glyph unicode="&#xf3;" horiz-adv-x="1228" d="M84 530q0 242 154 400q147 150 376 149q227 0 377 -153q154 -156 154 -396t-154 -395q-150 -156 -374.5 -156t-380.5 152q-152 156 -152 399zM309 428q0 -182 77 -292.5t228 -110.5q152 0 229 110.5t77 292.5v205q0 184 -76 292.5t-230 108.5t-229.5 -108.5t-75.5 -292.5 v-205zM587 1194l152 324q25 57 88 57q39 0 67.5 -28.5t28.5 -71.5t-35 -68l-268 -238z" />
<glyph unicode="&#xf4;" horiz-adv-x="1228" d="M84 530q0 242 154 400q147 150 376 149q227 0 377 -153q154 -156 154 -396t-154 -395q-150 -156 -374.5 -156t-380.5 152q-152 156 -152 399zM309 428q0 -182 77 -292.5t228 -110.5q152 0 229 110.5t77 292.5v205q0 184 -76 292.5t-230 108.5t-229.5 -108.5t-75.5 -292.5 v-205zM330 1237l246 317h80l245 -317l-43 -31l-243 193l-242 -193z" />
<glyph unicode="&#xf5;" horiz-adv-x="1228" d="M84 530q0 242 154 400q147 150 376 149q227 0 377 -153q154 -156 154 -396t-154 -395q-150 -156 -374.5 -156t-380.5 152q-152 156 -152 399zM237 1286q20 86 62 129q82 94 194 94q78 0 196 -72.5t169 -72.5q80 0 117 100l55 -8q-20 -86 -60 -130t-88.5 -68.5t-117 -24.5 t-186 72.5t-169.5 72.5q-80 0 -116 -100zM309 428q0 -182 77 -292.5t228 -110.5q152 0 229 110.5t77 292.5v205q0 184 -76 292.5t-230 108.5t-229.5 -108.5t-75.5 -292.5v-205z" />
<glyph unicode="&#xf6;" horiz-adv-x="1228" d="M84 530q0 242 154 400q147 150 376 149q227 0 377 -153q154 -156 154 -396t-154 -395q-150 -156 -374.5 -156t-380.5 152q-152 156 -152 399zM303 1372.5q0 51.5 36 86t87 34.5t86 -34.5t35 -86t-35 -86t-86 -35t-88 34.5q-35 35 -35 86.5zM309 428q0 -182 77 -292.5 t228 -110.5q152 0 229 110.5t77 292.5v205q0 184 -76 292.5t-230 108.5t-229.5 -108.5t-75.5 -292.5v-205zM684 1372.5q0 51.5 35 86t86 34.5t86 -34.5t35 -86t-35 -86t-86 -35t-86 34.5t-35 86.5z" />
<glyph unicode="&#xf7;" horiz-adv-x="1210" d="M145 692v78h920v-78h-920zM496 403.5q0 45.5 32.5 77t78.5 31.5t78 -31.5t32 -77t-33 -78t-78 -32.5t-77.5 32.5t-32.5 78zM496 1061q0 45 32.5 76.5t77.5 31.5t78 -31.5t33 -76.5t-33 -79t-78 -34t-77.5 34t-32.5 79z" />
<glyph unicode="&#xf8;" horiz-adv-x="1228" d="M84 530q0 246 152.5 397.5t377.5 151.5q96 0 191 -32l82 184h82l-95 -215q125 -68 198 -194t73 -292q0 -246 -152.5 -398t-378.5 -152q-104 0 -196 34l-74 -166h-82l88 197q-123 68 -194.5 193.5t-71.5 291.5zM309 428q0 -193 82 -301l383 864q-70 43 -160 43 q-152 0 -228.5 -109.5t-76.5 -291.5v-205zM449 72q70 -47 165 -47q152 0 229 110.5t77 292.5v205q0 201 -86 305z" />
<glyph unicode="&#xf9;" horiz-adv-x="1282" d="M33 1020v41h348v-785q0 -223 176 -223t336 217v729l-143 21v41h348v-1000l143 -20v-41h-348v197q-160 -217 -399 -217q-147 0 -232.5 72.5t-85.5 219.5v727zM330 1477q0 41 28.5 69.5t67.5 28.5q61 0 90 -57l150 -324l-33 -25l-268 238q-35 29 -35 70z" />
<glyph unicode="&#xfa;" horiz-adv-x="1282" d="M33 1020v41h348v-785q0 -223 176 -223t336 217v729l-143 21v41h348v-1000l143 -20v-41h-348v197q-160 -217 -399 -217q-147 0 -232.5 72.5t-85.5 219.5v727zM510 1194l152 324q25 57 88 57q39 0 67.5 -28.5t28.5 -71.5t-35 -68l-268 -238z" />
<glyph unicode="&#xfb;" horiz-adv-x="1282" d="M33 1020v41h348v-785q0 -223 176 -223t336 217v729l-143 21v41h348v-1000l143 -20v-41h-348v197q-160 -217 -399 -217q-147 0 -232.5 72.5t-85.5 219.5v727zM344 1237l246 317h80l245 -317l-43 -31l-243 193l-242 -193z" />
<glyph unicode="&#xfc;" horiz-adv-x="1282" d="M33 1020v41h348v-785q0 -223 176 -223t336 217v729l-143 21v41h348v-1000l143 -20v-41h-348v197q-160 -217 -399 -217q-147 0 -232.5 72.5t-85.5 219.5v727zM321 1372.5q0 51.5 36 86t87 34.5t86 -34.5t35 -86t-35 -86t-86 -35t-88 34.5q-35 35 -35 86.5zM702 1372.5 q0 51.5 35 86t86 34.5t86 -34.5t35 -86t-35 -86t-86 -35t-86 34.5t-35 86.5z" />
<glyph unicode="&#xfd;" horiz-adv-x="1097" d="M-27 1018v41h510v-41l-143 -25l342 -731l244 705l-176 51v41h368v-41l-139 -51l-459 -1334q-43 -121 -103.5 -176t-170 -55t-175 53t-65.5 129t36 114t89 38q84 0 119 -66q-31 -43 -31 -87t26.5 -70.5t67.5 -26.5q98 0 150 147l123 353l-475 1011zM557 1194l152 324 q25 57 88 57q39 0 67.5 -28.5t28.5 -71.5t-35 -68l-268 -238z" />
<glyph unicode="&#xfe;" horiz-adv-x="1277" d="M14 -539l144 21v2095l-144 20v41h348v-782q111 223 340 223q219 0 355 -153q135 -150 135 -398t-133 -397q-135 -152 -361.5 -151.5t-335.5 219.5v-717l193 -21v-41h-541v41zM362 348q23 -137 110 -227t210 -90q285 0 285 395v205q0 397 -285 397q-123 0 -210 -91 t-110 -228v-361z" />
<glyph unicode="&#xff;" horiz-adv-x="1097" d="M-27 1018v41h510v-41l-143 -25l342 -731l244 705l-176 51v41h368v-41l-139 -51l-459 -1334q-43 -121 -103.5 -176t-170 -55t-175 53t-65.5 129t36 114t89 38q84 0 119 -66q-31 -43 -31 -87t26.5 -70.5t67.5 -26.5q98 0 150 147l123 353l-475 1011zM283 1372.5 q0 51.5 36 86t87 34.5t86 -34.5t35 -86t-35 -86t-86 -35t-88 34.5q-35 35 -35 86.5zM664 1372.5q0 51.5 35 86t86 34.5t86 -34.5t35 -86t-35 -86t-86 -35t-86 34.5t-35 86.5z" />
<glyph unicode="&#x152;" horiz-adv-x="2525" d="M104 820q0 382 216.5 620.5t548 238.5t520.5 -227v186h981v-469h-56l-157 418h-566v-737h240l123 297h53v-647h-53l-123 301h-240v-752h602l168 451h54v-500h-1026v186q-186 -227 -519 -227t-549.5 239.5t-216.5 621.5zM367 662q0 -308 141 -482t367.5 -174t358.5 173 t132 483v315q0 309 -132 482t-358.5 173t-367.5 -174t-141 -481v-315z" />
<glyph unicode="&#x153;" horiz-adv-x="1978" d="M84 530q0 242 154 400q147 150 376 149q264 0 418 -198q150 199 418 198q193 0 319 -125q127 -123 132 -323h-754v-203q0 -182 80 -291q82 -112 229 -112q74 0 138.5 21.5t115.5 59.5q109 80 133 205h47q-29 -154 -145.5 -242.5t-284.5 -88.5q-270 0 -428 200 q-72 -98 -180.5 -149t-229 -51t-217 39.5t-167.5 111.5q-154 158 -154 399zM309 428q0 -182 77 -292.5t228.5 -110.5t228.5 110.5t77 292.5v205q0 182 -77 291.5t-228.5 109.5t-228.5 -109.5t-77 -291.5v-205zM1149 682h526q0 352 -227 352q-137 0 -213 -96t-86 -256z" />
<glyph unicode="&#x2c6;" horiz-adv-x="731" d="M80 1237l246 317h80l245 -317l-43 -31l-243 193l-242 -193z" />
<glyph unicode="&#x2dc;" horiz-adv-x="925" d="M57 1286q20 86 62 129q82 94 194 94q78 0 196 -72.5t169 -72.5q80 0 117 100l55 -8q-20 -86 -60 -130t-88.5 -68.5t-117 -24.5t-186 72.5t-169.5 72.5q-80 0 -116 -100z" />
<glyph unicode="&#x2000;" horiz-adv-x="1017" />
<glyph unicode="&#x2001;" horiz-adv-x="2034" />
<glyph unicode="&#x2002;" horiz-adv-x="1017" />
<glyph unicode="&#x2003;" horiz-adv-x="2034" />
<glyph unicode="&#x2004;" horiz-adv-x="678" />
<glyph unicode="&#x2005;" horiz-adv-x="508" />
<glyph unicode="&#x2006;" horiz-adv-x="339" />
<glyph unicode="&#x2007;" horiz-adv-x="339" />
<glyph unicode="&#x2008;" horiz-adv-x="254" />
<glyph unicode="&#x2009;" horiz-adv-x="406" />
<glyph unicode="&#x200a;" horiz-adv-x="113" />
<glyph unicode="&#x2010;" horiz-adv-x="702" d="M127 526v68h448v-68h-448z" />
<glyph unicode="&#x2011;" horiz-adv-x="702" d="M127 526v68h448v-68h-448z" />
<glyph unicode="&#x2012;" horiz-adv-x="702" d="M127 526v68h448v-68h-448z" />
<glyph unicode="&#x2013;" horiz-adv-x="1298" d="M127 694v74h1044v-74h-1044z" />
<glyph unicode="&#x2014;" horiz-adv-x="2322" d="M127 696v70h2068v-70h-2068z" />
<glyph unicode="&#x2018;" horiz-adv-x="450" d="M82 1292q0 240 254 365l22 -33q-63 -37 -98 -86q-63 -86 -63 -152q0 -41 46 -40.5t81.5 -35.5t35.5 -87t-35.5 -85t-97 -34t-103.5 51t-42 137z" />
<glyph unicode="&#x2019;" horiz-adv-x="448" d="M100 1538q0 51 36 85t97.5 34t103.5 -51.5t42 -137.5q0 -239 -254 -364l-23 33q63 37 99 86q63 86 63 151q0 41 -46 41t-82 36t-36 87z" />
<glyph unicode="&#x201a;" horiz-adv-x="466" d="M98 102q0 51 36 85t97.5 34t103.5 -51t42 -137q0 -240 -254 -365l-23 33q63 37 99 86q63 86 63 152q0 41 -46 41t-82 35.5t-36 86.5z" />
<glyph unicode="&#x201c;" horiz-adv-x="804" d="M82 1292q0 240 254 365l22 -33q-63 -37 -98 -86q-63 -86 -63 -152q0 -41 46 -40.5t81.5 -35.5t35.5 -87t-35.5 -85t-97 -34t-103.5 51t-42 137zM436 1292q0 240 254 365l22 -33q-63 -37 -98 -86q-63 -86 -63 -152q0 -41 46 -40.5t81.5 -35.5t35.5 -87t-35.5 -85t-97 -34 t-103.5 51t-42 137z" />
<glyph unicode="&#x201d;" horiz-adv-x="802" d="M100 1538q0 51 36 85t97.5 34t103.5 -51.5t42 -137.5q0 -239 -254 -364l-23 33q63 37 99 86q63 86 63 151q0 41 -46 41t-82 36t-36 87zM454 1538q0 51 36 85t97.5 34t103.5 -51.5t42 -137.5q0 -239 -254 -364l-23 33q63 37 99 86q63 86 63 151q0 41 -46 41t-82 36t-36 87 z" />
<glyph unicode="&#x201e;" horiz-adv-x="821" d="M98 102q0 51 36 85t97.5 34t103.5 -51t42 -137q0 -240 -254 -365l-23 33q63 37 99 86q63 86 63 152q0 41 -46 41t-82 35.5t-36 86.5zM452 102q0 51 36 85t97.5 34t103.5 -51t42 -137q0 -240 -254 -365l-23 33q63 37 99 86q63 86 63 152q0 41 -46 41t-82 35.5t-36 86.5z " />
<glyph unicode="&#x2022;" horiz-adv-x="958" d="M293 729q0 76 56.5 132.5t129.5 56.5q74 0 130.5 -56.5t56.5 -130.5t-56.5 -130t-132.5 -56t-130 54t-54 130z" />
<glyph unicode="&#x202f;" horiz-adv-x="406" />
<glyph unicode="&#x2039;" horiz-adv-x="569" d="M92 535v36l354 392l19 -21l-193 -389l193 -391l-19 -19z" />
<glyph unicode="&#x203a;" horiz-adv-x="569" d="M104 162l19 -19l354 392v36l-354 392l-19 -21l193 -389z" />
<glyph unicode="&#x205f;" horiz-adv-x="508" />
<glyph unicode="&#x20ac;" horiz-adv-x="1652" d="M72 643v78h151q-4 61 -4 101t2 61h-149v78h155q37 328 238 523t506 195q184 0 344 -116l137 116h43v-508h-43l-127 318q-158 143 -364.5 143t-341 -166t-134.5 -458v-47h547l-31 -78h-516v-162h453l-31 -78h-422v-10q0 -295 129 -461t347 -166q104 0 208.5 46t173.5 124 l119 330h43v-526h-43l-147 104q-158 -125 -354 -125q-297 0 -491 185.5t-239 498.5h-159z" />
<glyph unicode="&#x25fc;" horiz-adv-x="1064" d="M0 0v1065h1065v-1065h-1065z" />
</font>
</defs>
</svg>
