<?xml version="1.0" standalone="no"?>
<!DOCTYPE svg PUBLIC "-//W3C//DTD SVG 1.1//EN" "http://www.w3.org/Graphics/SVG/1.1/DTD/svg11.dtd" >
<svg xmlns="http://www.w3.org/2000/svg">
<metadata></metadata>
<defs>
<font id="aleobolditalic" horiz-adv-x="1685" >
<font-face units-per-em="2048" ascent="1649" descent="-399" />
<missing-glyph horiz-adv-x="473" />
<glyph unicode="&#xfb01;" horiz-adv-x="1320" d="M-92 -237q0 78 81 78q42 0 76 12q36 12 61 35q25 22 44 65q17 39 25 97l76 627l1 2l8 63h-1l15 118l-90 15q-28 4 -45 20q-15 14 -12 43l12 103h157l4 34q12 97 54 179q42 83 114 143q71 59 174 94t237 35q24 0 37 -1q4 0 9 -1h2h5q10 -1 21 -2t13 -1q39 -5 66 -12 q107 -24 179 -81q12 -9 19 -19q19 -24 26 -46q9 -31 5 -64q-4 -32 -21 -61t-41 -50q-25 -22 -56 -35q-30 -13 -65 -13t-61 13q-25 13 -46 35q-19 20 -28 50q-10 32 -6 61q1 4 5 24q-88 25 -187 0q-67 -19 -108 -50q-46 -35 -70 -86t-33 -120l-3 -26h651l-103 -838 q23 -4 62 -11l14 -2t13.5 -2t8.5 -1q11 -1 15 -3q50 -11 44 -64l-15 -120h-167h-253l25 203l21 171l12 99l48 388h-390h-3v-1l-22 -183v-1l-77 -633q-14 -112 -51 -186q-39 -79 -105 -128q-67 -50 -161 -74q-95 -24 -220 -24v132z" />
<glyph unicode="&#xfb02;" horiz-adv-x="1374" d="M-92 -237q0 78 81 78q44 0 76 11q34 12 61 36q25 22 44 65q17 39 25 97l76 627l1 2l8 63h-1l15 118l-90 15q-28 4 -44 20q-16 15 -13 43l12 103h157l6 44q11 86 46 161q34 76 96 135q62 61 149 95q85 35 202 35q93 0 176 -6q82 -6 166 -6h142l-145 -1182q-4 -35 -1 -68 q5 -29 17 -45q16 -18 40 -25t62 -7q39 0 51 -6q13 -5 13 -27l-9 -136q-33 -11 -64 -15q-28 -4 -67 -4q-94 0 -154 25q-59 27 -94 72q-35 49 -45 106q-10 58 -1 129l124 1010h-194q-117 0 -183 -62q-70 -65 -83 -180l-5 -43h250l-22 -180h-245l-22 -184v-1l-77 -633 q-14 -112 -51 -186q-39 -79 -105 -128q-67 -50 -161 -74q-95 -24 -220 -24v132z" />
<glyph horiz-adv-x="0" />
<glyph unicode="&#xd;" horiz-adv-x="180" />
<glyph horiz-adv-x="180" />
<glyph horiz-adv-x="180" />
<glyph unicode=" "  horiz-adv-x="473" />
<glyph unicode="&#x09;" horiz-adv-x="473" />
<glyph unicode="&#xa0;" horiz-adv-x="473" />
<glyph unicode="!" horiz-adv-x="529" d="M44 139q5 32 20 61t38 49q24 21 54 33t63 12q32 0 59 -12t45 -33t27 -49q9 -30 5 -61t-20 -61q-12 -23 -39 -48q-22 -21 -53 -33q-27 -11 -62 -11t-60 11q-29 13 -46 33t-26 48q-9 29 -5 61zM163 712q2 94 13 183l72 586h239l-72 -586q-11 -87 -32 -183q-13 -59 -48 -190 h-171q-3 90 -1 190z" />
<glyph unicode="&#x22;" horiz-adv-x="739" d="M57 1186l37 295h220l-36 -295l-44 -160q-12 -46 -34 -69q-22 -24 -65 -24q-38 0 -56 24q-19 25 -19 69zM434 1186l36 295h221l-37 -295l-43 -160q-12 -46 -34 -69q-23 -24 -65 -24q-38 0 -56 24q-19 25 -19 69z" />
<glyph unicode="#" horiz-adv-x="1277" d="M43 486q2 17 7 33l23 81h195l88 283h-219l32 105q12 38 39 58q26 19 82 19h114l104 330q14 42 45 63q34 23 73 23h115l-129 -416h209l130 416h112q37 0 56 -21q20 -22 16 -52q-1 -10 -3 -15l-104 -328h208l-32 -106q-11 -37 -39 -57q-26 -19 -82 -19h-103l-86 -283h145 q33 0 48 -16t10 -54q-2 -16 -7 -32l-22 -80h-222l-131 -418h-115q-30 0 -50 25t-16 60q0 4 2 10l3 9l99 314h-210l-100 -326q-15 -50 -50 -70q-38 -22 -76 -22h-111l129 418h-118q-33 0 -48 16q-15 17 -11 52zM476 600h210l87 283h-209z" />
<glyph unicode="$" horiz-adv-x="1223" d="M37 178l92 116q13 17 30 25q20 10 37 10q23 0 46 -16q9 -6 28 -19.5t26 -18.5q36 -25 69 -43q37 -20 95 -31l96 458q-61 18 -138 49q-66 27 -119 73q-50 44 -78 115q-27 68 -13 174q9 77 50 152t107 133t158 96q94 39 205 43l27 129q5 24 26 44q22 20 50 20h94l-43 -202 q105 -18 180 -62t125 -99l-73 -93q-15 -19 -32 -31q-14 -10 -36 -10q-13 0 -35 10q-20 9 -46 23q-25 13 -56 28q-32 15 -70 24l-88 -424q66 -21 140 -50q71 -28 122 -70q52 -43 80 -107t16 -160q-12 -98 -53 -179t-111 -147q-67 -63 -163 -104q-94 -40 -210 -48l-30 -151 q-4 -23 -26 -43t-51 -20h-93l45 219q-119 17 -216 65q-99 50 -164 122zM449 1095q-4 -38 5 -69q9 -29 31 -53q21 -22 52 -41q24 -14 68 -32l78 379q-57 -7 -99 -24q-40 -16 -71 -42q-29 -25 -44 -54q-16 -32 -20 -64zM617 198q110 15 173 73t75 154q5 39 -6 68 q-12 32 -32 52q-23 23 -54 39q-27 14 -70 29z" />
<glyph unicode="%" horiz-adv-x="1629" d="M41 0l1277 1441q12 14 34 27q21 13 52 13h184l-1277 -1443q-16 -17 -35 -27q-22 -11 -47 -11h-188zM102 1122q11 87 45 156q36 72 85 118q52 49 117 74q67 26 140 26q72 0 133 -26q59 -25 100 -74q42 -49 58 -118q17 -70 6 -156q-10 -82 -47 -151q-35 -66 -89 -115 q-53 -49 -119 -74q-65 -25 -133 -25q-74 0 -133 25t-99 74q-39 48 -57 115q-18 66 -7 151zM298 1027q6 -39 22 -62t42 -34q24 -10 56 -10t59 10q31 11 52 34t38 62q15 36 23 95q7 58 1 100q-6 39 -23 64q-17 24 -43 35q-27 11 -56 11t-59 -11q-26 -10 -50 -35t-38 -64 q-16 -43 -23 -100q-7 -55 -1 -95zM842 348q11 87 45 156q35 70 86 118q52 49 117 74q67 26 139 26q73 0 134 -26q59 -25 100 -74q40 -48 57 -118q17 -72 7 -156q-10 -82 -47 -151q-35 -66 -90 -116q-52 -47 -118 -73q-67 -26 -134 -26q-72 0 -133 26q-59 25 -98 73 q-40 50 -58 116t-7 151zM1039 252q6 -40 22 -63q15 -22 41 -33q27 -11 57 -11q29 0 59 11q31 11 51 33q23 24 39 63t24 96q7 59 0 99q-8 43 -23 65q-17 24 -43 35q-27 11 -57 11q-28 0 -58 -11q-26 -10 -50 -35q-20 -22 -38 -65q-17 -41 -24 -99q-7 -52 0 -96z" />
<glyph unicode="&#x26;" horiz-adv-x="1436" d="M44 408q9 68 39 130t77 115q46 54 106 97q57 41 130 73q-44 75 -61 150t-8 146q9 75 46 146q35 67 97 120q61 52 142 82t180 30q87 0 157 -28q69 -28 113 -73q44 -46 67 -106q22 -59 19 -123l-164 -33q-2 -1 -7 -1h-7q-18 0 -30 9t-18 30q-6 27 -18 51q-13 26 -29 42 q-19 19 -45 29q-28 11 -62 11q-43 0 -79 -15q-35 -15 -62 -40q-26 -24 -43 -59q-17 -33 -21 -70q-4 -24 0 -59q3 -30 13 -57q10 -26 31 -59q25 -39 48 -65l344 -409q40 61 71 136q28 67 44 146q4 22 20 38q14 14 39 14h158q-18 -137 -70 -258q-51 -121 -137 -226l271 -322 h-248q-14 0 -34 2q-14 1 -27 8q-16 8 -24 15q-11 10 -22 23l-90 106q-109 -80 -234 -125q-126 -45 -266 -45q-85 0 -164 29q-80 29 -136 84q-58 57 -88 134q-30 78 -18 177zM304 428q-7 -54 7 -101q13 -45 44 -77q30 -32 72 -48q43 -17 93 -17q89 0 168 29q77 28 145 78 l-340 399q-88 -52 -134 -120t-55 -143z" />
<glyph unicode="'" horiz-adv-x="362" d="M57 1186l37 295h220l-36 -295l-44 -160q-12 -46 -34 -69q-22 -24 -65 -24q-38 0 -56 24q-19 25 -19 69z" />
<glyph unicode="(" horiz-adv-x="624" d="M40 391q-1 112 15 251q15 125 47 251q33 129 79 244q47 117 116 237q66 114 158 234l104 -68q13 -7 22 -21q10 -15 7 -32q-3 -20 -19 -46q-117 -180 -193 -384q-77 -204 -102 -415t0 -415q25 -201 100 -383q4 -9 6 -24q2 -12 0 -21q-3 -21 -14 -33q-12 -14 -27 -21 l-121 -69q-61 115 -100 235q-38 117 -58 237q-18 113 -20 243z" />
<glyph unicode=")" horiz-adv-x="626" d="M37 -201q1 9 6 21q5 14 12 24q118 180 194 383q77 204 102 415t0 415q-25 201 -99 384q-10 26 -7 46t14 32q12 13 27 21l121 68q60 -114 100 -234q38 -114 58 -237t20 -244q0 -123 -15 -251q-15 -125 -47 -251t-79 -243q-45 -112 -116 -237q-65 -114 -158 -235l-104 69 q-13 7 -22 21q-10 14 -7 33z" />
<glyph unicode="*" horiz-adv-x="785" d="M47 1081l174 95q13 8 39 18q17 7 39 10q-17 1 -36 10q-17 8 -34 20l-151 95l71 103l151 -97q25 -18 31 -23q16 -13 24 -26q-5 20 -5 37q0 26 2 40l23 189h121l-23 -187q-2 -17 -8 -41q-4 -19 -14 -38q11 12 30 26q2 2 37 23l173 95l48 -103l-174 -93q-17 -11 -39 -19 t-39 -11q35 -6 70 -28l151 -96l-71 -102l-152 95q-28 21 -31 23q-17 15 -24 25q10 -35 4 -75l-23 -189h-121l23 187q4 25 7 40q4 17 14 37q-8 -9 -30 -25q-8 -6 -36 -23l-173 -94z" />
<glyph unicode="+" horiz-adv-x="1114" d="M47 594l23 187h396l52 420h205l-52 -420h399l-23 -187h-399l-52 -422h-204l51 422h-396z" />
<glyph unicode="," horiz-adv-x="447" d="M57 -213q2 9 8 18q10 14 16 19q9 8 31 30q19 18 38 41q18 21 36 50q16 26 27 58q-31 0 -57 12q-25 12 -41 32q-17 21 -24 48q-8 27 -3 61q3 26 17 53q13 24 36 44t50 30q30 11 62 11q38 0 66 -14q26 -13 43 -38q16 -23 22 -55q6 -30 1 -66q-6 -50 -27 -104t-57 -108 q-38 -57 -84 -106q-49 -52 -107 -94l-40 40q-16 15 -13 38z" />
<glyph unicode="-" horiz-adv-x="677" d="M60 513l26 211h531l-26 -211h-531z" />
<glyph unicode="." horiz-adv-x="431" d="M59 139q5 34 19 61q15 28 39 49q25 22 53 33q30 12 63 12q32 0 59 -12t45 -33t27 -49q9 -30 5 -61t-20 -61q-12 -23 -39 -48q-22 -21 -53 -33q-27 -11 -62 -11t-60 11q-27 12 -45 33q-19 22 -27 48q-9 27 -4 61z" />
<glyph unicode="/" horiz-adv-x="1113" d="M40 -97l786 1530q23 44 58 66q37 23 82 23h107l-780 -1525q-11 -23 -28 -41q-13 -14 -37 -29q-19 -12 -41 -18q-21 -6 -41 -6h-106z" />
<glyph unicode="0" horiz-adv-x="1199" d="M57 404q-24 142 0 336q24 196 82 337q58 142 143 236q86 95 188 139q105 45 221 45q115 0 210 -45q94 -45 156 -139q61 -92 85 -236q24 -142 0 -337t-82 -336q-58 -140 -144 -236q-85 -94 -190 -139t-221 -45t-209 45t-155 139q-59 90 -84 236zM308 474q10 -105 42 -168 q31 -61 79 -87q47 -25 102 -25q56 0 109 25q58 27 102 87q47 64 83 168q37 107 56 266q20 161 9 267q-10 105 -42 168q-30 61 -80 87q-47 25 -103 25q-55 0 -108 -25q-56 -27 -101 -87q-46 -62 -82 -168t-56 -267q-20 -165 -10 -266z" />
<glyph unicode="1" horiz-adv-x="919" d="M42 0l15 118q4 43 47 52q35 5 262 22l105 861q7 57 16 105l-235 -178q-13 -10 -29 -15q-13 -4 -27 -4q-22 0 -37 8q-14 8 -22 20l-67 110l499 384h208l-159 -1293q200 -16 223 -20q41 -9 35 -52l-15 -118h-402h-15h-402z" />
<glyph unicode="2" horiz-adv-x="1213" d="M42 0l10 84q3 22 18 53q14 28 40 51l505 451q59 53 114 110q56 58 88 103q37 52 59 104q21 49 29 111q6 55 -4 94q-11 43 -35 68q-26 28 -63 41q-39 14 -87 14q-92 0 -156 -46q-66 -47 -98 -124q-17 -40 -40 -56q-25 -17 -60 -17q-15 0 -33 3l-130 24q29 107 82 187 q52 78 127 134q72 54 161 81q88 27 187 27q103 0 184 -30q80 -30 135 -86q54 -56 78 -133q24 -78 12 -173q-11 -86 -42 -151q-36 -74 -81 -134q-44 -57 -110 -122q-86 -82 -129 -121l-375 -341q47 14 99 22q45 7 91 7h327q16 77 20 92q14 38 52 38h109l-18 -143l-27 -222 h-23h-60h-956z" />
<glyph unicode="3" horiz-adv-x="1173" d="M41 376l117 46q30 12 60 12q28 0 46 -11q20 -12 29 -33q15 -41 31 -71q17 -33 45 -61q27 -27 67 -44t97 -17q64 0 115 21q54 22 87 54q38 37 58 76q22 44 26 83q6 53 0 97t-38 74q-31 30 -97 48q-64 18 -177 18l22 180q98 2 157 17q60 16 103 46q38 27 59 70q20 42 26 90 q13 105 -38 159t-150 54q-90 0 -155 -48q-66 -49 -98 -122q-17 -39 -41 -56q-25 -17 -58 -17q-17 0 -35 3l-130 24q29 107 82 187q52 78 127 134q72 54 161 81t187 27q101 0 182 -29q75 -27 131 -81q51 -49 74 -121q23 -71 13 -151q-9 -72 -31 -124q-21 -51 -58 -94 q-34 -40 -82 -68q-50 -29 -104 -46q127 -42 183 -128q56 -85 39 -216q-13 -108 -65 -195q-49 -83 -128 -143q-76 -58 -172 -88q-93 -29 -198 -29q-113 0 -191 25q-79 25 -136 76q-52 47 -89 123q-32 67 -53 168z" />
<glyph unicode="4" horiz-adv-x="1216" d="M43 545l816 937h240l-113 -924h186l-18 -146q-3 -21 -18 -36t-40 -15h-134l-45 -361h-221l44 361h-624q-26 0 -43 16q-19 17 -20 40zM314 558h451l59 484q2 15 11 71q6 35 17 79z" />
<glyph unicode="5" horiz-adv-x="1182" d="M42 158l91 107q29 35 70 35q27 0 50 -16q30 -21 56 -36q32 -19 77 -36q42 -16 109 -16q72 0 126 22q55 22 96 63q39 39 65 96q25 55 33 122q15 121 -47 189t-198 68q-107 0 -221 -39l-152 45l211 719h731l-13 -108q-6 -53 -45 -88q-38 -34 -118 -34h-408l-91 -309 q104 21 186 21q116 0 201 -35q83 -34 137 -97q52 -61 73 -143q21 -83 9 -178q-15 -120 -68 -215q-55 -99 -135 -166q-83 -70 -188 -107q-106 -38 -224 -38q-75 0 -131 14q-64 16 -112 38t-95 56q-39 28 -75 66z" />
<glyph unicode="6" horiz-adv-x="1131" d="M48 504q13 104 69 214q55 109 160 229l411 474q21 24 59 42q37 18 84 18h225l-505 -538q-22 -24 -31 -33t-29 -31q44 21 97 33q55 13 109 13q81 0 160 -28q75 -26 130 -83q52 -53 80 -139q27 -82 13 -194q-12 -103 -62 -194t-126 -158t-178 -106t-218 -39q-118 0 -209 38 q-89 37 -148 105q-56 65 -81 164t-10 213zM286 465q-7 -61 3 -112q10 -49 40 -87q29 -36 76 -56q48 -20 111 -20q60 0 113 21q59 24 95 57q39 37 67 87q26 48 34 108q7 63 -6 114q-14 51 -44 86q-31 36 -80 54q-48 18 -108 18q-63 0 -112 -20q-52 -21 -92 -57 q-38 -34 -65 -86q-24 -47 -32 -107z" />
<glyph unicode="7" horiz-adv-x="1176" d="M41 0l712 1132q45 69 95 119h-597q-23 -107 -29 -128q-14 -38 -52 -38h-109l27 220v2v3l21 171h1024l-13 -110q-6 -49 -21 -79q-20 -40 -27 -51l-702 -1155q-22 -35 -57 -61q-34 -25 -89 -25h-183z" />
<glyph unicode="8" horiz-adv-x="1155" d="M45 416q17 132 91 221q76 91 218 135q-103 45 -147 128t-29 200q11 86 53 156q44 72 112 127q67 53 157 84q88 30 191 30t185 -30q79 -29 136 -84q55 -53 81 -127q25 -72 15 -156q-15 -118 -79 -200q-65 -83 -178 -128q129 -43 184 -135q54 -91 38 -221q-12 -95 -60 -178 q-47 -81 -121 -137q-76 -58 -173 -87q-99 -30 -213 -30t-206 30t-152 87q-61 58 -88 137t-15 178zM305 420q-6 -50 5 -95t39 -76q29 -32 74 -50t107 -18t112 18q48 17 85 50q34 30 58 76q22 42 28 95q15 121 -45 184t-179 63t-194 -63t-90 -184zM424 1010q6 -39 28 -74 q19 -30 61 -51q40 -20 101 -20q60 0 106 20t74 51t45 74q14 36 21 86q5 47 -3 80q-9 38 -32 67q-22 27 -62 46q-39 18 -95 18t-99 -18q-45 -19 -74 -46q-29 -28 -48 -67t-23 -80q-6 -44 0 -86z" />
<glyph unicode="9" horiz-adv-x="1095" d="M51 1017q12 101 59 186q49 89 122 153q74 65 173 103t210 38q115 0 200 -36q89 -38 143 -100q57 -66 79 -155q23 -92 10 -197q-9 -71 -28 -130q-20 -63 -48 -119q-27 -53 -66 -110q-40 -58 -82 -108l-399 -484q-22 -26 -56 -41q-37 -17 -81 -17h-232l530 574q26 28 38 42 q33 39 35 41q-54 -32 -119 -49t-131 -17q-79 0 -147 26q-71 27 -122 81q-50 53 -76 133q-25 79 -12 186zM306 1036q-15 -124 41 -189t173 -65q61 0 112 20t87 53q37 34 59 80q23 48 29 99q7 59 -5 108q-12 48 -42 81q-29 32 -74 50q-42 17 -100 17q-59 0 -106 -19 q-53 -22 -85 -52q-37 -35 -59 -81t-30 -102z" />
<glyph unicode=":" horiz-adv-x="498" d="M49 139q5 32 20 61t38 49q24 21 54 33t63 12q32 0 59 -12t45 -33t27 -49q9 -30 5 -61t-20 -61q-12 -23 -39 -48q-22 -21 -53 -33q-28 -11 -62 -11q-35 0 -60 11q-27 12 -45 33q-19 22 -27 48q-9 29 -5 61zM139 869q5 34 19 61q15 28 39 49t54 33t63 12q32 0 59 -12 t45 -33q17 -19 26 -49t5 -61q-5 -34 -19 -61q-12 -23 -39 -48q-20 -19 -53 -32q-30 -12 -62 -12q-33 0 -60 12q-30 13 -46 32q-19 22 -27 48q-9 27 -4 61z" />
<glyph unicode=";" horiz-adv-x="515" d="M45 -213q2 9 8 18q10 14 16 19q18 16 32 30q18 18 38 41q18 21 36 50q16 26 27 58q-32 0 -57 12t-41 32q-16 21 -24 48q-8 30 -4 61q2 24 18 53q13 25 35 44q23 19 51 30q30 11 62 11q38 0 66 -14q26 -13 43 -38q16 -23 22 -55q6 -30 1 -66q-6 -50 -27 -104t-57 -108 q-38 -57 -84 -106q-47 -49 -108 -94l-39 40q-17 15 -14 38zM157 869q5 34 19 61q15 28 39 49t54 33t62 12t59 -12q29 -13 46 -33q17 -19 26 -49t5 -61t-20 -61q-13 -25 -38 -48q-19 -18 -54 -32q-30 -12 -61 -12q-33 0 -60 12q-30 13 -46 32q-19 22 -27 48q-9 27 -4 61z" />
<glyph unicode="&#x3c;" horiz-adv-x="973" d="M49 639l13 102l863 423l-22 -180q-3 -20 -15 -37t-38 -29l-395 -191q-27 -13 -52 -21q-18 -6 -58 -16q34 -9 54 -16q23 -8 47 -21l348 -191q24 -13 31 -29q8 -17 5 -38l-22 -180z" />
<glyph unicode="=" horiz-adv-x="1081" d="M53 414l23 188h908l-23 -188h-908zM98 775l23 188h907l-23 -188h-907z" />
<glyph unicode="&#x3e;" horiz-adv-x="971" d="M47 215l22 180q3 22 15 38q13 18 37 29l396 191q45 21 110 37q-34 9 -54 16q-23 8 -47 21l-349 191q-22 12 -30 29t-5 37l22 180l759 -423l-13 -102z" />
<glyph unicode="?" horiz-adv-x="855" d="M43 1347q48 37 83 58q45 27 96 48q48 20 108 32q58 12 124 12q88 0 159 -24q67 -23 117 -71q46 -44 67 -110t11 -144q-9 -78 -39 -135t-69 -99q-38 -41 -83 -72q-16 -11 -43.5 -30.5t-39.5 -27.5q-30 -21 -68 -53q-30 -25 -39 -59l-42 -150h-173l3 167v9l1 9q6 46 32 78 q29 35 64 62q48 36 80 57q44 28 80 60q42 37 66 73q26 39 34 97q4 38 -6 66q-11 31 -32 50q-21 20 -55 32q-30 11 -73 11q-63 0 -100 -12q-46 -15 -72 -29q-48 -26 -52 -29q-20 -13 -36 -13q-37 0 -49 31zM88 139q5 34 19 61q15 28 39 49t54 33t63 12q32 0 59 -12t45 -33 t27 -49q9 -30 5 -61t-20 -61q-12 -23 -39 -48q-22 -21 -53 -33q-27 -11 -62 -11t-60 11q-29 13 -46 33t-26 48q-9 29 -5 61z" />
<glyph unicode="@" horiz-adv-x="1669" d="M51 597q13 106 55 213q40 103 104 194q61 87 146 166q81 75 180 130q102 56 205 85q108 30 224 30q145 0 273 -48q124 -47 219 -140q92 -90 137 -221q45 -132 26 -294q-13 -107 -58 -206q-43 -94 -110 -166q-66 -70 -150 -111q-85 -41 -176 -41q-69 0 -120 33t-63 106 q-71 -75 -141 -106q-73 -32 -150 -32q-63 0 -109 23q-44 22 -72 62q-28 41 -37 93t-1 117q8 63 29 119q21 57 59 115q38 59 87 105q54 51 115 85q65 36 142 57q78 21 169 21q78 0 134 -12q51 -11 104 -35l-145 -380q-24 -66 -30 -109q-4 -28 1 -52q4 -19 17 -32t29 -17 q20 -5 39 -5q43 0 85 27q44 28 77 76q35 49 60 117q24 63 35 148q16 130 -13 234q-28 102 -95 170q-66 68 -165 102q-98 34 -222 34q-137 0 -256 -50q-120 -50 -216 -139q-95 -87 -158 -208q-62 -119 -79 -258q-21 -165 16 -295q36 -128 117 -213q82 -86 198 -129 q117 -43 262 -43q79 0 148 9q80 10 129 23q65 17 109 34q48 19 89 41q21 11 36 11q29 0 38 -33l24 -91q-120 -72 -263 -114q-149 -44 -330 -44q-185 0 -336 59t-252 167t-148 266q-46 155 -22 352zM629 490q-7 -66 16 -101q25 -37 78 -37q24 0 54 8q26 7 56 30q27 21 52 55 q23 32 44 87l110 289q-31 6 -67 6q-64 0 -122 -27q-56 -26 -105 -75q-44 -44 -77 -108q-32 -62 -39 -127z" />
<glyph unicode="A" d="M39 0l13 105q4 35 47 52q14 5 118 47l658 1277h282l344 -1277q99 -44 107 -47q34 -14 34 -45v-7l-13 -105h-73h-160h-34h-19h-214l13 105q4 35 47 52q20 8 43 17l-5 22l-49 201h-590l-103 -210l-6 -13l18 -8t14 -6t7 -3q34 -14 34 -45v-7l-13 -105h-213h-20h-34h-160h-73 zM683 592h448l-112 460q-9 31 -18 77q-11 55 -17 97q-30 -74 -40 -98q-18 -42 -37 -78z" />
<glyph unicode="B" horiz-adv-x="1423" d="M39 0l15 120q6 53 59 64q5 2 13 3q2 0 7 1t11 2t13 2t27.5 4.5t34.5 6.5l132 1075q-13 3 -33 6t-26 4t-12 2.5t-11.5 2.5t-6.5 1q-2 0 -6.5 0.5t-6.5 1.5q-44 9 -44 53q0 5 1 11l15 120h155h511q142 0 245 -27q97 -27 159 -79q59 -50 82 -124q14 -44 14 -101 q0 -30 -4 -63q-6 -50 -27 -99q-20 -45 -59 -89q-37 -42 -91 -76q-50 -32 -125 -57q267 -62 267 -281q0 -24 -3 -49q-12 -95 -57 -174q-44 -78 -121 -138q-72 -56 -180 -90q-105 -33 -234 -33h-559h-155zM496 215h279q77 0 131 18q51 17 89 50q34 30 54 71q19 39 25 87 q2 17 2 32q0 29 -7 55q-10 38 -40 65t-79 42q-46 14 -122 14h-279zM573 840h220q139 0 219 51q79 51 93 163q3 22 3 41q0 84 -49 124q-59 49 -198 49h-236z" />
<glyph unicode="C" horiz-adv-x="1390" d="M49 740q21 168 93 306q71 137 185 239q113 101 259 156q148 56 315 56q184 0 452 -107l-47 -377h-118q-40 0 -43 38v18q0 38 2 144q-164 50 -276 50q-103 0 -197 -37q-90 -35 -163 -104q-74 -69 -119 -164q-47 -99 -62 -218q-6 -50 -6 -95q0 -69 14 -127q24 -99 76 -164 q53 -66 130 -102q76 -35 172 -35q56 0 102 6q44 6 87 20q38 13 76 34q39 22 75 52q14 11 23 15q10 5 26 5q22 0 36 -17l94 -118q-104 -112 -242 -171q-137 -59 -323 -59q-168 0 -290 56q-126 58 -206 157t-113 239q-20 85 -20 180q0 60 8 124z" />
<glyph unicode="D" horiz-adv-x="1626" d="M39 0l15 120q6 53 59 64q5 2 13 3q2 0 7 1t11 2t13 2t27.5 4.5t34.5 6.5l132 1075q-13 3 -33 6t-26 4t-12 2.5t-11.5 2.5t-6.5 1q-2 0 -6.5 0.5t-6.5 1.5q-44 9 -44 53q0 5 1 11l15 120h155h543q168 0 299 -54q130 -55 218 -153q86 -97 124 -234q24 -90 24 -192 q0 -52 -6 -107q-19 -160 -91 -299q-69 -133 -182 -234q-112 -100 -255 -153q-146 -54 -313 -54h-543h-155zM498 219h266q108 0 200 36q90 35 159 103q68 67 113 164q45 98 60 218q6 51 6 97q0 65 -12 122q-21 97 -73 164t-134 103q-83 36 -191 36h-266z" />
<glyph unicode="E" horiz-adv-x="1347" d="M39 0l15 120q6 53 59 64q5 2 13 3q2 0 7 1t11 2t13 2t27.5 4.5t34.5 6.5l132 1075q-13 3 -33 6t-26 4t-12 2.5t-11.5 2.5t-6.5 1q-2 0 -6.5 0.5t-6.5 1.5q-44 9 -44 53q0 5 1 11l15 120h155h934l-18 -142l-9 -76l-21 -170h-9h-25h-84q-40 0 -43 38q-1 12 -1 36q0 35 2 96 h-476l-50 -411h501l-26 -212h-501l-51 -419h475q23 102 32 132q14 38 52 38h84h25h9l-21 -170l-9 -76l-18 -144h-934h-155z" />
<glyph unicode="F" horiz-adv-x="1399" d="M39 0l15 120q6 53 59 64q5 2 13 3q2 0 7 1t11 2t13 2t27.5 4.5t34.5 6.5l132 1075q-13 3 -33 6t-26 4t-12 2.5t-11.5 2.5t-6.5 1q-10 2 -13 2q-44 9 -44 53q0 5 1 11l15 121h155h887h47h51l-17 -143l-6 -48l-24 -198h-9h-25h-84q-40 0 -43 38q-1 12 -1 36q0 35 2 96h-528 l-53 -439h516l-27 -220h-516l-50 -400q13 -3 33 -6.5t27 -4.5q8 -2 18 -3.5t11 -1.5q10 -2 13 -3q44 -9 44 -53q0 -5 -1 -11l-14 -120h-155h-278h-155z" />
<glyph unicode="G" horiz-adv-x="1460" d="M48 740q21 170 92 307q72 140 183 239q112 100 262 156q145 54 312 55h13h1q238 0 511 -105l-47 -379h-8h-25h-84q-40 0 -43 38v17q0 38 2 143q-145 51 -344 51q-114 0 -203 -36q-95 -38 -164 -106q-71 -70 -116 -165q-45 -96 -60 -215q-7 -54 -7 -102q0 -69 14 -125 q24 -99 80 -169q55 -68 141 -105q84 -36 190 -36q91 0 164 17q76 18 138 46l33 270h-186q-27 0 -40 14q-14 16 -11 37l19 155h493l-74 -599q-64 -42 -126 -71q-63 -29 -136 -49q-72 -20 -151 -30q-79 -9 -172 -9q-164 0 -291 56q-130 57 -216 157q-87 101 -126 239 q-25 90 -25 192q0 54 7 112z" />
<glyph unicode="H" horiz-adv-x="1818" d="M39 0l15 120q6 53 59 64q5 2 13 3q2 0 7 1t11 2t13 2t27.5 4.5t34.5 6.5l132 1075q-13 3 -33 6t-26 4t-12 2.5t-11.5 2.5t-6.5 1q-10 2 -13 2q-44 9 -44 53q0 5 1 11l15 121h155h277h155l-14 -121q-6 -53 -60 -64q-1 0 -3 -0.5t-5 -1t-5 -0.5q-6 -1 -31 -6 q-7 -1 -27.5 -4t-34.5 -6l-53 -434h694l54 434q-13 3 -33 6t-26 4t-12 2.5t-11.5 2.5t-6.5 1q-2 0 -6.5 0.5t-6.5 1.5q-44 9 -44 53q0 5 1 11l15 121h155h277h155l-15 -121q-6 -53 -59 -64q-1 0 -3 -0.5t-5 -1t-5 -0.5q-6 -1 -31 -6q-7 -1 -27.5 -4t-34.5 -6l-132 -1075 q13 -3 32.5 -6.5t26.5 -4.5q8 -2 18.5 -3.5t11.5 -1.5q10 -2 13 -3q44 -9 44 -53q0 -5 -1 -11l-15 -120h-155h-277h-155l15 120q6 53 59 64q5 2 13 3q2 0 7 1t11 2t13 2t27.5 4.5t34.5 6.5l54 444h-694l-55 -444q13 -3 33 -6.5t27 -4.5q8 -2 18 -3.5t11 -1.5q10 -2 13 -3 q44 -9 44 -53q0 -5 -1 -11l-15 -120h-154h-278h-155z" />
<glyph unicode="I" horiz-adv-x="845" d="M39 0l15 120q6 53 59 64q5 2 13 3q2 0 7 1t11 2t13 2t27.5 4.5t34.5 6.5l132 1075q-13 3 -33 6t-26 4t-12 2.5t-11.5 2.5t-6.5 1q-10 2 -13 2q-44 9 -44 53q0 5 1 11l15 121h155h276h155l-14 -121q-6 -53 -59 -64q-1 0 -2.5 -0.5t-3 -0.5t-4 -0.5t-4.5 -0.5q-6 -1 -31 -6 q-7 -1 -27.5 -4t-34.5 -6l-132 -1075q13 -3 33 -6.5t27 -4.5q8 -2 18 -3.5t11 -1.5q10 -2 13 -3q44 -9 44 -53q0 -5 -1 -11l-14 -120h-155h-277h-155z" />
<glyph unicode="J" horiz-adv-x="1119" d="M39 11l34 164q5 23 22 37q16 13 45 13q20 0 45 -7t70 -7q57 0 105 17t82 54q37 40 58 95q21 54 32 143l93 758q-15 3 -37.5 6t-26.5 4q-30 5 -39 6l-17 2q-45 10 -45 53q0 5 1 11l15 121h174h276h155l-15 -121q-6 -53 -59 -64q-1 0 -3 -0.5t-5 -1t-5 -0.5q-6 -1 -31 -6 q-7 -1 -27.5 -4t-34.5 -6l-92 -752q-15 -123 -59 -225q-44 -101 -112 -171t-166 -108q-97 -38 -216 -38q-56 0 -108 6t-109 21z" />
<glyph unicode="K" horiz-adv-x="1635" d="M39 0l15 120q6 53 59 64q5 2 13 3q2 0 7 1t11 2t13 2t27.5 4.5t34.5 6.5l132 1076q-13 3 -33 6t-26 4t-12 2.5t-11.5 2.5t-6.5 1q-2 0 -6.5 0.5t-6.5 1.5q-44 9 -44 53q0 5 1 11l15 121h155h275h155l-14 -121q-6 -53 -60 -64q-1 0 -3 -0.5t-5 -1t-5 -0.5q-6 -1 -31 -6 q-7 -1 -27 -4t-34 -6l-52 -419h65q37 0 65 11q29 11 49 34l352 386q-8 2 -13 3q-2 0 -6.5 0.5t-6.5 1.5q-44 9 -44 53q0 5 1 11l14 121h340h51h155l-14 -121q-6 -53 -60 -64l-16 -2q-2 0 -15 -2t-23 -3q-7 -1 -62 -10l-386 -414q-27 -29 -51 -48q-25 -20 -50 -32 q35 -13 57 -34q25 -23 46 -58l304 -491q51 -9 59 -10q9 -1 21 -3t15 -2q13 -2 17 -3q44 -9 44 -53q0 -5 -1 -11l-15 -120h-16h-139h-79h-25h-315l15 120q6 53 59 64q4 1 17 3q2 0 28 5l-263 409q-15 25 -41 38q-24 12 -72 12h-87l-55 -448q13 -3 32.5 -6.5t26.5 -4.5 q8 -2 18.5 -3.5t11.5 -1.5q10 -2 13 -3q44 -9 44 -53q0 -5 -1 -11l-15 -120h-155h-275h-155z" />
<glyph unicode="L" horiz-adv-x="1196" d="M39 0l15 120q6 53 59 64q5 2 13 3q2 0 7 1t11 2t13 2t27.5 4.5t34.5 6.5l132 1075q-13 3 -33 6t-26 4t-12 2.5t-11.5 2.5t-6.5 1q-10 2 -13 2q-44 9 -44 53q0 5 1 11l15 121h155h275h155l-15 -121q-6 -53 -59 -64q-1 0 -3 -0.5t-5 -1t-5 -0.5q-6 -1 -31 -6 q-10 -2 -62 -10l-129 -1051h477q18 87 19 89q14 38 53 38h109l-26 -207l-4 -39l-14 -108h-49h-6h-862h-155z" />
<glyph unicode="M" horiz-adv-x="2174" d="M39 0l15 120q6 53 59 64q5 2 13 3q2 0 7 1t11 2t13 2t27.5 4.5t34.5 6.5l132 1075q-13 3 -33 6t-26 4t-12 2.5t-11.5 2.5t-6.5 1q-10 2 -13 2q-44 9 -44 53q0 5 1 11l15 121h155h208q22 0 31 -1q17 -2 24 -5q10 -4 18 -14q10 -12 15 -24l341 -823q13 -32 24 -68 q4 -13 10.5 -37t9.5 -34q7 13 39 73q13 24 41 68l539 821q12 17 20 24q13 11 21 14t25 5q9 1 32 1h207h156l-15 -121q-6 -53 -59 -64q-1 0 -3 -0.5t-5 -1t-5 -0.5q-12 -2 -32 -6q-7 -1 -27 -4t-34 -6l-132 -1075q13 -3 32.5 -6.5t26.5 -4.5q8 -2 18.5 -3.5t11.5 -1.5 q8 -1 12 -3q45 -10 45 -53q0 -5 -1 -11l-15 -120h-155h-243h-185l15 120q6 53 59 64l136 19l92 753q3 28 9 59q8 42 13 64l-551 -839q-21 -30 -45 -45q-26 -16 -60 -16h-38q-33 0 -55 16t-34 45l-351 842q0 -44 -2 -66q-4 -42 -6 -60l-92 -753q128 -18 131 -19q44 -9 44 -53 q0 -5 -1 -11l-15 -120h-184h-243h-155z" />
<glyph unicode="N" horiz-adv-x="1818" d="M39 0l15 120q6 53 59 64q5 2 13 3q2 0 7 1t11 2t13 2t27.5 4.5t34.5 6.5l132 1075q-13 3 -33 6t-26 4t-12 2.5t-11.5 2.5t-6.5 1q-2 0 -6.5 0.5t-6.5 1.5q-44 9 -44 53q0 5 1 11l15 120h155h144q15 0 31 -1q12 -1 21 -6q11 -5 17 -13q15 -18 18 -23l656 -991q0 36 3 71 q3 31 6 64l86 697q-36 5 -69 9.5t-47 6.5t-16 2q-44 9 -44 53q0 5 1 11l15 120h184h243h155l-15 -120q-6 -53 -59 -64q-1 0 -3 -0.5t-5 -1t-5 -0.5q-6 -1 -31 -6q-7 -1 -27.5 -4t-34.5 -6l-157 -1278h-142q-34 0 -53 10q-22 11 -38 37l-653 986q-3 -64 -3 -65q-2 -27 -6 -59 l-86 -706q130 -19 131 -19q44 -9 44 -53q0 -5 -1 -11l-15 -120h-184h-243h-155z" />
<glyph unicode="O" horiz-adv-x="1598" d="M48 740q19 163 91 302q71 137 183 240q109 100 257 158q146 57 313 57q170 0 300 -57q131 -57 217 -158q85 -100 123 -240q24 -89 24 -190q0 -54 -7 -112q-19 -162 -91 -301q-71 -138 -182 -240t-256 -159q-143 -56 -313 -56t-300 56t-218 159q-87 102 -124 240 q-24 88 -24 189q0 54 7 112zM330 740q-6 -53 -6 -101q0 -64 11 -117q21 -95 74 -164q52 -67 135 -103q82 -36 192 -36q108 0 199 36q92 36 160 103q69 67 112 164q46 103 60 218q6 51 6 97q0 65 -12 122q-21 99 -72 164q-53 68 -135 104t-190 36t-200 -36q-91 -36 -161 -104 t-114 -164q-44 -95 -59 -219z" />
<glyph unicode="P" horiz-adv-x="1394" d="M39 0l15 120q6 53 59 64q5 2 13 3q2 0 7 1t11 2t13 2t27.5 4.5t34.5 6.5l132 1075q-13 3 -33 6t-26 4t-12 2.5t-11.5 2.5t-6.5 1q-10 2 -13 2q-44 9 -44 53q0 5 1 11l15 121h155h458q146 0 253 -35q104 -34 167 -97q64 -64 86 -150q14 -56 15 -119q0 -34 -5 -71 q-13 -107 -60 -197q-47 -91 -126 -155q-78 -64 -192 -100q-112 -36 -256 -36h-183l-39 -318q13 -3 32.5 -6.5t26.5 -4.5q8 -2 18.5 -3.5t11.5 -1.5q10 -2 13 -3q44 -9 44 -53q0 -5 -1 -11l-15 -120h-155h-275h-155zM560 736h183q77 0 134 19q63 21 100 54q44 39 66 86 q25 52 32 114q3 21 3 42q0 35 -8 65q-12 47 -45 82q-32 34 -87 52q-54 18 -130 18h-183z" />
<glyph unicode="Q" horiz-adv-x="1597" d="M48 740q19 163 91 302q71 137 183 240q109 100 257 158q146 57 313 57q170 0 300 -57q131 -57 217 -158q85 -100 123 -240q24 -89 24 -190q0 -54 -7 -112q-12 -98 -44 -190q-32 -91 -79 -169q-45 -75 -112 -145q-63 -66 -140 -116l325 -410h-227q-48 0 -87 14 q-38 14 -66 49l-188 239q-44 -12 -109 -21q-52 -7 -115 -7q-170 0 -300 56t-218 159q-87 102 -124 240q-24 88 -24 189q0 54 7 112zM330 740q-6 -53 -6 -101q0 -63 11 -117q21 -95 74 -164q52 -67 135 -103q82 -36 192 -36q108 0 199 36q92 36 160 103q69 67 112 164 q46 103 60 218q6 51 6 97q0 65 -12 122q-21 99 -72 164q-53 68 -135 104t-190 36t-200 -36q-91 -36 -161 -104t-114 -164q-44 -95 -59 -219z" />
<glyph unicode="R" horiz-adv-x="1421" d="M39 0l15 120q6 53 59 64q5 2 13 3q2 0 7 1t11 2t13 2t27.5 4.5t34.5 6.5l132 1075q-13 3 -33 6t-26 4t-12 2.5t-11.5 2.5t-6.5 1q-2 0 -6.5 0.5t-6.5 1.5q-44 9 -44 53q0 5 1 11l15 120h155h437q151 0 256 -31q107 -33 166 -87q63 -58 85 -135q15 -52 15 -110 q0 -30 -4 -62q-9 -76 -39 -142q-29 -64 -79 -120q-51 -57 -114 -96q-68 -41 -147 -65q49 -31 80 -85l191 -344q14 -3 35.5 -6.5t26.5 -4.5l35 -5q10 -1 15 -3q45 -10 45 -53q0 -5 -1 -11l-15 -120h-28h-127h-121q-37 0 -59 14q-25 16 -38 41l-253 474q-12 25 -34 38 q-20 12 -60 12h-103l-47 -376q13 -3 32.5 -6.5t26.5 -4.5q8 -2 18.5 -3.5t11.5 -1.5q10 -2 13 -3q44 -9 44 -53q0 -5 -1 -11l-15 -120h-155h-275h-155zM565 776h157q76 0 138 20t102 53q41 34 66 82q23 45 31 103q2 20 2 38q0 86 -55 135q-69 61 -219 61h-162z" />
<glyph unicode="S" horiz-adv-x="1180" d="M39 62l4 37l43 344h8h25h85q40 0 43 -38v-16q0 -40 -3 -153q86 -27 277 -27q116 0 189 56q70 54 84 160q2 12 2 24q0 41 -20 71q-23 36 -69 62q-43 24 -105 43q-100 30 -120 37q-55 19 -119 50q-59 29 -100 74q-42 46 -63 116q-13 44 -13 101q0 32 4 69q11 83 52 158 q41 76 111 136q67 58 164 95q94 36 210 36q218 0 415 -84l-47 -379h-9h-25h-84q-40 0 -43 38v19q0 39 2 147q-75 35 -233 35q-57 0 -102 -14q-44 -14 -76 -38q-34 -26 -51 -59q-20 -38 -24 -76q-1 -10 -1 -20q0 -40 20 -67q26 -36 70 -59q47 -25 104 -44q58 -20 120 -42 q63 -23 119 -51q60 -29 101 -73q43 -46 64 -110q14 -43 15 -96q0 -29 -5 -60q-12 -99 -58 -188t-119 -153q-74 -65 -173 -102t-223 -37h-31q-198 0 -415 78z" />
<glyph unicode="T" horiz-adv-x="1349" d="M37 1130l43 351h30h3h1164h2h32l-43 -351h-9h-25h-84q-40 0 -43 39q0 9 -0.5 30t0.5 55h-302l-129 -1051q13 -3 32.5 -6.5t26.5 -4.5q8 -2 18.5 -3.5t11.5 -1.5q10 -2 13 -3q44 -9 44 -53q0 -5 -1 -11l-15 -120h-155h-275h-155l15 120q6 53 59 64q5 2 13 3q2 0 7 1t11 2 t13 2t27.5 4.5t34.5 6.5l129 1051h-302q-15 -66 -21 -85q-14 -39 -52 -39h-85h-24h-9z" />
<glyph unicode="U" horiz-adv-x="1632" d="M42 1360l14 120h156h275h164l-15 -120q-6 -53 -59 -64q-1 0 -3.5 -0.5t-5.5 -1t-6 -0.5q-10 -2 -36 -6q-7 -1 -64 -10l-84 -683q-4 -34 -4 -65q0 -47 9 -89q16 -72 51 -117q38 -48 97 -75q60 -27 139 -27q81 0 147 27q65 27 115 75q50 49 81 116q32 69 42 154l84 684 q-14 3 -34.5 6t-26.5 4q-22 4 -35 6q-3 0 -6 0.5t-5.5 1t-3.5 0.5q-44 9 -44 53q0 5 1 11l15 120h164h275h156l-15 -120q-6 -53 -59 -64q-1 0 -2.5 -0.5t-3 -0.5t-4 -0.5t-4.5 -0.5q-6 -1 -31 -6q-7 -1 -27.5 -4t-34.5 -6l-84 -684q-17 -135 -72 -244q-58 -115 -146 -194 q-93 -83 -209 -127q-120 -45 -262 -45t-250 45t-178 127t-98 194q-18 71 -18 151q0 45 6 93l84 684q-13 3 -33 6t-26 4t-12 2.5t-11.5 2.5t-6.5 1q-2 0 -6.5 0.5t-6.5 1.5q-44 9 -44 53q0 5 1 11z" />
<glyph unicode="V" horiz-adv-x="1682" d="M43 1360l15 120h70h85h137h261l-15 -120q-6 -53 -59 -64q-1 0 -2 -0.5t-3.5 -1t-4.5 -0.5t-9 -2t-13 -3q-10 -2 -34 -8l201 -766q14 -51 22 -97q7 -41 16 -111q38 120 84 208l388 765l-32 8q-10 3 -22 6q-8 2 -9 2q-45 10 -45 53q0 5 1 11l15 120h261h137h85h70l-14 -120 q-6 -53 -60 -64q-2 -1 -6.5 -1.5t-6.5 -0.5l-30 -5q-35 -7 -60 -11l-673 -1278h-249l-359 1278q-25 4 -57 11q-8 2 -18 3.5t-11 1.5q-2 0 -6.5 0.5t-6.5 1.5q-44 9 -44 53q0 5 1 11z" />
<glyph unicode="W" horiz-adv-x="2354" d="M42 1360l14 121h71h85h147h251l-15 -121q-6 -53 -59 -64q-1 0 -11 -2q-4 -1 -23 -6q-6 -2 -19 -4.5t-18 -3.5l121 -748q6 -43 8 -71q4 -48 5 -81q13 42 28 81q13 33 30 71l399 886q10 23 38 43t61 20h81q35 0 57 -17t28 -46l180 -886q15 -66 21 -145q16 52 24 77 q10 31 24 68l304 746q-28 7 -83 18q-44 9 -44 53q0 5 1 11l15 121h267h131h85h70l-15 -121q-6 -53 -59 -64q-1 0 -3.5 -0.5t-8 -1.5t-11.5 -2t-25.5 -4.5t-33.5 -5.5l-556 -1282h-249l-199 1012q-2 7 -4.5 22t-3.5 20q-3 16 -7 48q-9 -26 -18 -48q-11 -24 -18 -42 l-451 -1012h-249l-240 1282q-23 5 -58 10q-17 4 -22 4q-44 9 -44 53q0 5 1 11z" />
<glyph unicode="X" horiz-adv-x="1758" d="M40 0l15 120q6 53 59 64q29 5 157 19l430 559l-275 516q-140 15 -156 18q-44 9 -44 53q0 5 1 11l14 121h76h78h11h186h286l-15 -121q-6 -53 -59 -64q-13 -3 -29 -6t-25.5 -5t-14.5 -3l187 -378q2 5 8 14.5t7 11.5q8 14 17 26l245 323q-31 8 -76 17q-44 9 -44 53q0 5 1 11 l15 121h290h171h22h71h71l-15 -121q-6 -53 -59 -64q-20 -3 -158 -18l-403 -505l292 -570q123 -13 153 -19q45 -10 45 -53q0 -5 -1 -11l-15 -120h-78h-68h-18h-190h-274l14 120q6 53 59 64q19 4 39.5 8t22.5 5l-201 417q-8 -16 -12 -23q-2 -4 -13 -20l-276 -368 q48 -12 83 -19q44 -9 44 -53q0 -5 -1 -11l-15 -120h-302h-169h-12h-77h-75z" />
<glyph unicode="Y" horiz-adv-x="1517" d="M43 1360l15 121h33h37h85h121h277l-15 -121q-6 -53 -59 -64q-2 0 -10 -2q-1 0 -4.5 -1t-7.5 -2l-8 -2q-2 -1 -13 -3.5t-17 -3.5l152 -357q20 -49 31 -84q16 -52 22 -77q12 26 40 78q24 43 51 83l238 357q-7 2 -29 7q-5 1 -12 3l-7 2q-8 2 -9 2q-44 9 -44 53q0 5 1 11 l15 121h275h123h85h36h34l-15 -121q-6 -53 -59 -64q-1 0 -3 -0.5t-5 -1t-5 -0.5q-6 -1 -31 -6q-10 -2 -62 -10l-504 -703l-45 -372q13 -3 32.5 -6.5t26.5 -4.5q8 -2 18 -3.5t11 -1.5q10 -2 13 -3q44 -9 44 -53q0 -5 -1 -11l-14 -120h-155h-276h-155l15 120q6 53 59 64 q5 2 13 3q2 0 7 1t11 2t13 2t27.5 4.5t34.5 6.5l46 372l-333 703q-13 3 -33 6t-26 4q-14 3 -29 6q-10 2 -13 2q-44 9 -44 53q0 5 1 11z" />
<glyph unicode="Z" horiz-adv-x="1402" d="M39 0l13 109q3 19 12 39q7 16 23 35l894 1079h-564q-33 -139 -36 -146q-14 -39 -53 -39h-109l50 404h1095l-12 -102q-6 -48 -37 -86l-892 -1073h594q35 140 35 141q14 39 52 39h109l-22 -180l-27 -220h-1125z" />
<glyph unicode="[" horiz-adv-x="728" d="M37 -315l233 1899h420l-12 -99q-3 -25 -25 -46q-20 -19 -51 -19h-141l-193 -1572h141q32 0 47 -18q16 -19 13 -46l-12 -99h-420z" />
<glyph unicode="\" horiz-adv-x="718" d="M43 1522h109q44 0 75 -23t43 -66l409 -1530h-107q-40 0 -75 23t-47 71z" />
<glyph unicode="]" horiz-adv-x="729" d="M37 -315l12 99q3 25 25 46q19 18 51 18h141l193 1572h-141q-31 0 -47 19t-13 46l12 99h420l-233 -1899h-420z" />
<glyph unicode="^" horiz-adv-x="1020" d="M48 796l466 685h164l298 -685h-185q-23 0 -37 12q-15 13 -22 30l-126 296q-18 43 -22 54q-10 29 -14 52q-16 -36 -26 -53t-34 -53l-196 -296q-12 -19 -28 -30q-16 -12 -43 -12h-195z" />
<glyph unicode="_" horiz-adv-x="987" d="M78 -301l20 164h807l-20 -164h-807z" />
<glyph unicode="`" horiz-adv-x="557" d="M58 1497h237q41 0 60 -14q20 -15 31 -40l115 -249h-144q-28 0 -46 8q-17 8 -33 28z" />
<glyph unicode="a" horiz-adv-x="1062" d="M37 361q0 99 23 184q25 91 67 167q43 78 105 144q63 67 138 113q80 48 165 73q90 26 187 26q75 0 142 -10q73 -11 140 -37l-103 -822l1 1q22 -4 52 -9q5 -1 10.5 -2t8 -1.5t3.5 -0.5q44 -9 44 -54q0 -5 -1 -11l-15 -120h-127h-134q-45 0 -64 22t-19 54l9 143 q-68 -107 -157 -171q-87 -63 -191 -63q-63 0 -112 23q-52 24 -90 70q-37 44 -60 117q-22 69 -22 164zM290 406q0 -109 35 -161q35 -51 95 -51q42 0 82 28q41 29 77 80q37 53 66 119q33 75 53 147l40 318q-27 3 -51 3q-86 0 -158 -39q-75 -40 -126 -105q-52 -63 -83 -154 q-30 -87 -30 -185z" />
<glyph unicode="b" horiz-adv-x="1120" d="M41 42l40 330l117 947q-14 3 -34.5 6t-26.5 4q-26 5 -34 6q-3 0 -6 0.5t-5.5 1t-3.5 0.5q-44 9 -44 53q0 5 1 11l15 121h163h253l-74 -600q73 68 154 106q84 39 189 39q87 0 153 -35t110 -103q43 -67 60 -167q8 -50 8 -107t-8 -121q-15 -117 -59 -219q-43 -98 -112 -174 q-67 -73 -156 -115q-86 -41 -192 -41q-227 0 -508 57zM313 197q103 -20 201 -20q56 0 106 22t87 65q37 44 63 111q27 71 37 159q7 53 7 99q0 30 -3 57q-7 63 -30 104q-22 40 -59 58q-38 18 -88 18q-79 0 -139 -33q-57 -31 -115 -94z" />
<glyph unicode="c" horiz-adv-x="982" d="M44 527q13 112 60 215q45 100 118 171q74 73 174 113q102 41 224 41q130 0 322 -76l-40 -323h-9h-25h-84q-40 0 -43 38v16q0 35 2 132q-80 20 -131 20q-68 0 -120 -24q-53 -24 -92 -69t-63 -109q-23 -63 -34 -145q-5 -42 -5 -79t5 -70q11 -67 38 -110q29 -46 73 -68 q46 -23 106 -23q61 0 100 15q38 15 67 33q27 18 48 33q20 14 45 14q32 0 43 -23l61 -92q-48 -50 -101 -83q-54 -34 -108 -53q-60 -21 -113 -28q-61 -8 -113 -8q-97 0 -178 36t-137 106q-55 69 -81 170q-16 61 -16 132q0 47 7 98z" />
<glyph unicode="d" horiz-adv-x="1172" d="M46 292q-8 50 -8 107t8 122q15 119 58 218q43 98 112 174q68 74 157 116q86 41 192 41q89 0 147 -27t102 -75l43 351q-13 3 -33 6t-26 4t-12 2.5t-11.5 2.5t-6.5 1q-2 0 -6 0.5t-6 1.5q-45 10 -45 53q0 5 1 11l15 121h155h253l-161 -1317q32 -6 51 -9q4 -1 26 -5 q2 0 6 -0.5t6 -1.5q45 -10 45 -53q0 -5 -1 -11l-15 -121h-143h-155q-25 0 -40 11q-16 12 -19 35l-8 98q-75 -75 -160 -118q-89 -45 -199 -45q-86 0 -153 36q-66 35 -110 103q-42 65 -59 168zM303 365q8 -66 29 -104q22 -40 60 -58q40 -19 88 -19q76 0 138 34q61 34 116 93 l58 471q-36 53 -85 75q-48 21 -106 21q-55 0 -107 -22q-49 -21 -87 -65q-37 -43 -63 -112q-27 -72 -37 -158q-7 -53 -7 -99q0 -30 3 -57z" />
<glyph unicode="e" horiz-adv-x="966" d="M38 421q0 83 18 163q18 81 52 151q37 78 82 132q51 62 112 105q63 45 136 68q77 25 159 25q83 0 145 -24t103 -61t62 -83q21 -47 21 -90q0 -72 -28 -129q-28 -58 -101 -105q-70 -45 -197 -79t-317 -53v-13q0 -248 210 -248q45 0 79 9q37 10 61 21q23 11 47 28 q21 15 39 27t36 21t38 9q12 0 24 -6q14 -7 21 -17l64 -77q-58 -58 -106 -95t-107 -65q-55 -26 -115 -38t-132 -12q-93 0 -167 31q-77 32 -128 88q-54 57 -82 137q-29 82 -29 180zM305 603q132 19 204 38q78 21 120 45q43 25 57 52q13 26 13 60q0 14 -6 31q-5 14 -21 30 q-11 11 -36 21q-22 9 -53 9q-53 0 -96 -21q-42 -20 -79 -59q-34 -35 -61 -91q-29 -59 -42 -115z" />
<glyph unicode="f" horiz-adv-x="927" d="M-92 -237q0 78 81 78q42 0 76 12q36 12 61 35q25 22 44 65q17 39 25 97l76 627l1 2l8 63h-1l15 118l-89 15q-29 5 -46 20q-15 14 -12 43l12 103h157l10 78q10 89 47 162q37 74 92 122q58 51 133 77q74 26 167 26q75 0 133 -19l-21 -127q-6 -30 -32 -37q-25 -7 -60 -7 q-42 0 -82 -10q-36 -9 -64 -34q-27 -24 -45 -63q-17 -37 -25 -98l-8 -70h273l-22 -180h-265h-3v-1l-22 -183v-1l-77 -633q-14 -112 -51 -186q-39 -79 -105 -128q-67 -50 -161 -74q-95 -24 -220 -24v132z" />
<glyph unicode="g" horiz-adv-x="1186" d="M36 -98q0 85 44 146q43 59 114 96q67 35 156 52q84 16 172 16q28 0 82 -4q40 -3 76 -9q-4 13 -7 32q-2 11 -2 35q0 61 32 131q-37 -25 -88 -41q-46 -14 -118 -14q-61 0 -114 19t-94 60q-42 42 -65 100q-24 60 -24 139q0 78 28 150q29 74 85 132q55 56 140 92 q84 35 192 35q57 0 111 -14q56 -14 97 -40h294l-11 -82q-5 -25 -16 -42q-12 -18 -35 -24l-107 -28q6 -28 8 -43t2 -47q0 -49 -10 -85q-11 -40 -25 -69q-18 -38 -32 -60q-18 -29 -33 -57q-16 -30 -25 -62q-10 -37 -10 -71q0 -43 17 -77q19 -39 38 -72q18 -32 38 -79 q18 -42 18 -98q0 -75 -35 -147q-34 -70 -101 -123q-70 -56 -159 -84q-98 -31 -213 -31q-95 0 -175 20q-74 19 -132 56q-55 35 -84 85q-29 49 -29 107zM275 -67q0 -61 50 -93q49 -31 151 -31q62 0 105 14q46 15 80 40q33 24 53 60q19 34 19 75q0 19 -1 28q-1 5 -2.5 13.5 t-1.5 12.5q-63 10 -102 14q-41 4 -87 4q-71 0 -120 -12q-54 -13 -82 -29q-31 -17 -47 -43q-15 -24 -15 -53zM430 659q0 -79 35 -121q36 -43 103 -43q46 0 81 21t59 56q24 34 36 79q13 47 13 88q0 77 -36 118t-105 41q-45 0 -80 -20t-59 -53q-23 -31 -35 -76q-12 -43 -12 -90 z" />
<glyph unicode="h" horiz-adv-x="1166" d="M38 0l25 203l12 101l18 148l107 867q-13 3 -33 6t-26 4t-12 2.5t-11.5 2.5t-6.5 1q-2 0 -6.5 0.5t-6.5 1.5q-44 9 -44 53q0 5 1 11l15 121h155h253l-72 -585q68 57 147 94q78 36 177 36q85 0 149 -29q63 -28 101 -82q39 -54 52 -126q7 -41 8 -87q0 -35 -5 -74l-57 -466 q13 -3 32.5 -6.5t26.5 -4.5q8 -2 18.5 -3.5t11.5 -1.5q10 -2 13 -3q44 -9 44 -53q0 -5 -1 -11l-15 -120h-155h-253l83 669q3 22 3 42q0 65 -30 107q-37 52 -127 52q-67 0 -126 -29q-63 -31 -119 -81l-62 -507l-31 -253h-253z" />
<glyph unicode="i" horiz-adv-x="578" d="M40 930l14 120h156h252l-104 -847q13 -3 33 -6.5t27 -4.5q8 -2 18 -3.5t11 -1.5q10 -2 13 -3q44 -9 44 -53q0 -5 -1 -11l-14 -120h-155h-253l25 203l79 645q-13 3 -33.5 6t-26.5 4q-14 3 -29 6q-2 0 -6.5 0.5t-6.5 1.5q-44 9 -44 53q0 5 1 11zM214 1357q4 33 21 63 q16 29 41 51q27 23 54 35q30 13 64 13q35 0 62 -13q26 -12 47 -35q20 -22 29 -51q7 -24 7 -46q0 -9 -1 -17q-5 -34 -21 -62q-17 -29 -41 -50q-22 -20 -56 -34q-30 -13 -65 -13t-61 13q-27 13 -46 34q-19 20 -28 50q-7 23 -7 45q0 8 1 17z" />
<glyph unicode="j" horiz-adv-x="785" d="M35 -349l25 136q6 20 19 26q14 6 52 6q40 0 65 7t45 25q16 15 28 45q10 27 15 68l109 884q-49 8 -59 10q-6 1 -12 2.5t-11.5 2.5t-6.5 1q-2 0 -6.5 0.5t-6.5 1.5q-44 9 -44 53q0 5 1 11l15 121h155h253l-134 -1087q-9 -71 -34 -129q-27 -63 -70 -106q-46 -46 -112 -71 q-71 -27 -160 -27q-33 0 -66 5q-30 4 -60 15zM422 1357q4 33 21 63q16 29 41 51q26 22 55 35t63 13q35 0 62 -13q26 -12 47 -35q22 -23 30 -51q6 -21 6 -43q0 -10 -1 -20q-5 -34 -21 -62q-17 -29 -41 -50q-22 -20 -56 -34q-30 -13 -65 -13t-61 13q-27 13 -46 34 q-19 20 -28 50q-7 23 -7 45q0 8 1 17z" />
<glyph unicode="k" horiz-adv-x="1152" d="M38 0l56 453l106 866q-13 3 -33 6t-26 4t-12 2.5t-11.5 2.5t-6.5 1q-2 0 -6.5 0.5t-6.5 1.5q-44 9 -44 53q0 5 1 11l15 121h155h253l-107 -872h47q27 0 41 7t34 27l167 179q-14 3 -17 3q-44 9 -44 53q0 5 1 11l15 121h251l-1 -2q16 2 22 2h224h1l-14 -121q-6 -53 -60 -64 q-6 -2 -18 -3l-40 -5q-16 -2 -58 -8l-178 -189q-22 -24 -41 -40q-18 -15 -44 -31q21 -17 34 -36q18 -28 27 -44l173 -307q13 -2 35.5 -5.5t28.5 -4.5q25 -4 43 -6q14 -2 19 -3q45 -10 45 -53q0 -5 -1 -11l-15 -120h-40h-115h-114q-30 0 -49 10q-18 10 -32 35l-219 398 q-12 23 -27 31q-14 7 -45 7h-57l-9 -70v1l-51 -412h-252z" />
<glyph unicode="l" horiz-adv-x="514" d="M38 0l25 203l30 250l33 265l74 601q-13 3 -33 6t-26 4t-12 2.5t-11.5 2.5t-6.5 1q-2 0 -6.5 0.5t-6.5 1.5q-44 9 -44 53q0 5 1 11l15 121h155h253l-162 -1319q30 -5 59 -11q8 -2 18.5 -3.5t11.5 -1.5q7 -1 12 -3q45 -10 45 -53q0 -5 -1 -11l-15 -120h-155h-253z" />
<glyph unicode="m" horiz-adv-x="1771" d="M41 930l14 120h156h154q50 0 59 -45l7 -78q32 31 65 56t70 44q38 19 77 29q42 11 88 11q99 0 156 -54q58 -55 79 -143q33 55 72 90q41 37 88 61q43 22 98 35q47 11 102 11q86 0 151 -27q64 -27 104 -77t55 -125q8 -41 8 -89q0 -38 -5 -80l-57 -466q13 -3 32.5 -6.5 t26.5 -4.5q8 -2 18.5 -3.5t11.5 -1.5q10 -2 13 -3q44 -9 44 -53q0 -5 -1 -11l-15 -120h-155h-253l82 669q3 25 3 46q0 67 -28 105q-37 50 -123 50q-41 0 -74 -13q-36 -14 -63 -38t-47 -63q-19 -36 -25 -87l-25 -200l-18 -152l-14 -114l-25 -203h-254l82 669q3 27 3 50 q0 66 -27 103q-36 48 -119 48q-54 0 -105 -27t-98 -74l-50 -406l-44 -363h-253l52 423l52 425q-13 3 -33.5 6t-26.5 4q-14 3 -29 6q-2 0 -6.5 0.5t-6.5 1.5q-44 9 -44 53q0 5 1 11z" />
<glyph unicode="n" horiz-adv-x="1211" d="M41 930l14 120h156h154q50 0 59 -45l7 -83q32 29 75 59q39 27 80 46q42 20 88 30q44 10 100 10q85 0 149 -29q63 -28 101 -82q39 -54 52 -126q7 -41 7 -87q0 -35 -4 -74l-57 -466q13 -3 32.5 -6.5t26.5 -4.5q8 -2 18.5 -3.5t11.5 -1.5q10 -2 13 -3q44 -9 44 -53 q0 -5 -1 -11l-15 -120h-155h-253l82 669q3 23 3 44q0 65 -29 105q-37 52 -127 52q-68 0 -127 -29q-60 -29 -118 -81l-41 -334l-6 -49l-22 -174l-24 -203h-253l37 306l67 542q-13 3 -33.5 6t-26.5 4q-14 3 -29 6q-2 0 -6.5 0.5t-6.5 1.5q-44 9 -44 53q0 5 1 11z" />
<glyph unicode="o" horiz-adv-x="1132" d="M44 527q15 123 65 225q50 101 126 170q77 69 178 107q102 38 218 38t209 -38q91 -37 150 -107q60 -71 84 -170q15 -62 15 -133q0 -44 -6 -92q-15 -126 -64 -225q-49 -100 -126 -171t-177 -108q-102 -38 -218 -38t-209 38q-91 37 -151 108q-59 70 -85 171q-15 59 -15 131 q0 44 6 94zM305 525q-6 -49 -6 -91q0 -104 37 -166q53 -89 186 -89q132 0 205 88q74 89 95 258q6 49 6 92q0 105 -37 167q-53 89 -184 89q-133 0 -207 -89t-95 -259z" />
<glyph unicode="p" horiz-adv-x="1316" d="M36 -343l15 120q6 53 59 64q5 2 13 3q2 0 7 1t11 2t13 2t27.5 4.5t34.5 6.5l121 988q-13 3 -33 6t-26 4l-30 6q-2 0 -6 0.5t-6 1.5q-45 10 -45 53q0 5 1 11l15 121h155h155q23 0 40 -12q16 -12 19 -34l8 -98q75 75 160 118q89 45 199 45q85 0 153 -36q65 -35 110 -104 q42 -65 59 -168q8 -50 8 -107t-8 -121q-15 -120 -58 -219q-43 -98 -112 -174q-66 -72 -157 -115q-86 -41 -192 -41q-88 0 -147 27t-102 75l-28 -227q13 -3 32.5 -6.5t26.5 -4.5q8 -2 18.5 -3.5t11.5 -1.5l12 -3q45 -10 45 -53q0 -5 -1 -11l-15 -120h-155h-253h-155zM519 272 q35 -52 85 -74q48 -21 107 -21q54 0 106 22q49 21 87 65t63 111q27 71 37 159q7 53 7 99q0 30 -3 57q-8 66 -29 104q-22 40 -60 58t-88 18q-78 0 -138 -33q-59 -33 -116 -94z" />
<glyph unicode="q" horiz-adv-x="1122" d="M46 292q-8 50 -8 107t8 121q15 119 58 218q43 98 112 174q68 74 157 116q86 41 192 41q228 0 508 -57l-41 -330l-101 -823q15 -3 36 -6.5t25 -4.5q3 -1 34 -5q10 -1 15 -3q44 -9 44 -53q0 -5 -1 -11l-15 -120h-163h-253h-155l15 120q6 53 59 64q5 2 13 3q2 0 7 1t11 2 t13 2t27.5 4.5t34.5 6.5l34 273q-73 -68 -154 -106q-84 -39 -190 -39q-86 0 -152 35q-68 36 -111 103q-42 65 -59 167zM303 364q8 -66 29 -104q22 -40 60 -58q40 -19 88 -19q76 0 138 34q61 34 116 93l67 547q-103 20 -202 20q-56 0 -106 -22q-47 -20 -86 -66 q-37 -43 -63 -111q-27 -72 -37 -158q-7 -53 -7 -99q0 -30 3 -57z" />
<glyph unicode="r" horiz-adv-x="918" d="M41 930l14 121h156h148q39 0 53 -15q12 -14 14 -49v-127q69 97 151 154q81 56 177 56q78 0 124 -36l-56 -189q-6 -19 -16 -26q-11 -8 -29 -8q-17 0 -41 7t-70 7q-79 0 -140 -43t-111 -128l-45 -365l-35 -289h-253l25 203l14 120l9 72l56 453q-27 5 -49 8.5t-29 5t-13 2.5 t-11 2q-44 9 -44 53q0 5 1 11z" />
<glyph unicode="s" horiz-adv-x="900" d="M40 40l13 103l23 195h9h25h84q40 0 43 -39q1 -6 1 -26q0 -31 -2 -94q57 -18 164 -18q43 0 78 11q37 12 57 28q26 20 36 40q12 22 15 48q4 37 -14 60q-19 23 -53 41q-32 16 -80 31q-24 7 -91 31q-56 20 -91 38q-47 24 -76 56q-32 35 -48 83q-10 31 -10 70q0 22 3 48 q8 66 40 123q33 59 88 102q58 45 133 70q80 26 174 26q79 0 137.5 -10t161.5 -44l-37 -298h-9h-24h-85q-40 0 -43 38q-1 6 -1 26q0 30 2 90q-39 14 -120 14q-75 0 -122 -32t-53 -83q-4 -34 15 -57q20 -23 53 -40t79 -31q17 -5 90 -31q50 -18 90 -37q44 -21 76 -53 q31 -30 49 -78q11 -31 11 -71q0 -18 -2 -37q-9 -75 -45 -140q-36 -64 -95 -111q-58 -46 -140 -72q-83 -26 -183 -26q-187 0 -326 56z" />
<glyph unicode="t" horiz-adv-x="781" d="M40 914l12 101l172 27l89 287q6 21 23 32q15 11 38 11h131l-40 -331h276l-22 -180h-276l-70 -569q-1 -11 -1 -21q0 -35 16 -56q22 -28 62 -28q24 0 40 6q18 7 29 12q16 8 23 12q9 5 19 5q13 0 18 -5q6 -6 13 -17l60 -123q-61 -46 -135 -70q-72 -23 -151 -23 q-137 0 -201 77q-50 61 -50 160q0 25 3 53l72 587h-107q-20 0 -33 13q-11 11 -11 30q0 5 1 10z" />
<glyph unicode="u" horiz-adv-x="1211" d="M41 930l14 121h156h253l-82 -668q-3 -23 -3 -44q0 -65 29 -105q38 -53 127 -53q63 0 126 29q59 27 119 81l68 557q-93 17 -101 18q-45 10 -45 53q0 5 1 11l15 121h155h253l-104 -848q59 -10 102 -19q44 -9 44 -53q0 -5 -1 -11l-15 -120h-155h-155q-49 0 -58 46l-8 84 q-42 -37 -74 -60q-35 -25 -80 -46q-42 -19 -89 -30q-44 -10 -99 -10q-85 0 -149 29q-62 28 -101 82q-38 51 -52 127q-7 41 -7 87q0 35 4 74l57 465q-27 5 -49 8.5t-29 5t-13 2.5t-11 2q-44 9 -44 53q0 5 1 11z" />
<glyph unicode="v" horiz-adv-x="1296" d="M42 930l14 121h68h210h1h233l-15 -121q-6 -53 -59 -64q-2 0 -17.5 -3t-40.5 -7l99 -414q10 -41 17 -96q8 -61 10 -94q22 68 32 94q18 46 42 96l203 412q-22 4 -36 6.5t-19.5 3.5t-10.5 2q-44 9 -44 53q0 5 1 11l15 121h243h1h199h68l-14 -121q-6 -53 -60 -64 q-25 -5 -98 -17l-441 -849h-230l-233 849q-85 15 -95 17q-44 9 -44 53q0 5 1 11z" />
<glyph unicode="w" horiz-adv-x="1869" d="M42 930l14 121h85h200h1h226l-15 -121q-6 -53 -59 -64q-5 -1 -21 -4t-43 -7l60 -413q6 -46 9 -90q2 -28 4 -88q16 41 35 88q7 16 20 47t18 43l243 564q8 18 29 33q20 14 44 14h112q27 0 44 -14q18 -15 21 -33l102 -574q5 -29 13 -85t11 -84q2 9 27 88q15 47 33 91 l164 411q-18 3 -32.5 6t-20 4t-10.5 1.5t-9 1.5q-44 9 -44 53q0 5 1 11l15 121h235h1h191h84l-14 -121q-6 -53 -60 -64q-17 -3 -99 -17l-373 -849h-203q-33 0 -42 45l-115 607l-9 60q-5 30 -6 60q-4 -10 -11 -30.5t-10 -30.5q-16 -45 -23 -61l-266 -605q-19 -45 -61 -45 h-194l-164 849q-85 15 -95 17q-44 9 -44 53q0 5 1 11z" />
<glyph unicode="x" horiz-adv-x="1259" d="M40 0l15 120q6 53 59 64q5 1 11 2t13 2l24.5 3.5t40.5 6.5l270 344l-172 311q-62 10 -83 13q-44 9 -44 53q0 5 1 11l15 121h1h243h1h210l-14 -121q-6 -53 -60 -64l101 -199q7 17 17 34q11 19 23 35l97 127q-4 1 -9 2t-7 1q-44 9 -44 53q0 5 1 11l14 121h222h233h1 l-15 -121q-6 -53 -59 -64q-6 -1 -13 -2t-27.5 -4t-49.5 -8l-244 -299l187 -355q27 -5 46 -8t25.5 -4t12.5 -2q45 -10 45 -53q0 -5 -1 -11l-15 -120h-8h-91h-56h-97h-204l15 120q6 52 56 64l-112 229q-14 -38 -33 -62l-127 -164l12 -3q44 -9 44 -53q0 -5 -1 -11l-14 -120 h-222h-79h-56h-92h-7z" />
<glyph unicode="y" horiz-adv-x="1291" d="M42 930l14 121h60h221h1h230l-15 -121q-6 -53 -59 -64q-3 0 -16.5 -2t-32.5 -6l116 -399q7 -26 12 -56q6 -38 8 -57q14 35 25 57q4 7 12.5 27t14.5 30l202 394q-17 3 -30 5.5t-18 3.5t-10 1.5t-9 1.5q-45 10 -45 53q0 5 1 11l15 121h247h1h202h62l-15 -121 q-6 -53 -59 -64q-17 -3 -99 -17l-626 -1138q-15 -27 -34 -40q-20 -14 -56 -14h-189l249 421l-242 771q-85 15 -95 17q-44 9 -44 53q0 5 1 11z" />
<glyph unicode="z" horiz-adv-x="1034" d="M39 0l13 105q1 15 13 42q10 24 31 46l586 664h-331q-23 -102 -24 -104q-14 -38 -53 -38h-84h-25h-9l40 323l2 13h796l-13 -105q-3 -28 -16 -52q-12 -23 -28 -42l-580 -657h367q23 100 26 110q14 38 53 38h84h25h9l-42 -343h-28h-6h-806z" />
<glyph unicode="{" horiz-adv-x="712" d="M39 561l18 147q63 0 98 39t42 102q6 51 5 96q-3 94 -3 95q-4 64 -4 97q0 49 6 99q9 74 40 142q30 64 82 110q50 44 127 71q74 25 170 25h54l-13 -113q-2 -14 -9 -23q-8 -10 -16 -15q-11 -7 -19 -10q-9 -3 -17 -3h-9q-71 0 -115 -45q-44 -46 -53 -124q-7 -53 -7 -108v-100 q0 -16 0.5 -48.5t0.5 -47.5q0 -55 -5 -95q-4 -38 -20 -74q-14 -32 -40 -63q-22 -27 -56 -49q-32 -21 -70 -32q36 -12 62 -32q24 -19 44 -50q18 -28 24 -64t2 -72q-6 -49 -18 -95q-4 -14 -8 -30t-8.5 -35.5t-7.5 -30.5t-12 -46.5t-14 -54.5q-11 -46 -19 -108q-9 -78 23 -122 q34 -46 104 -46h9q7 0 16 -3q10 -3 17 -9q8 -6 12 -16t3 -24l-14 -111h-54q-98 0 -164 25q-70 26 -109 70q-41 46 -56 110q-14 61 -5 142q5 45 19 99q12 48 27 96q14 44 27 97q12 48 18 96q8 64 -16 102q-24 39 -89 39z" />
<glyph unicode="|" horiz-adv-x="508" d="M163 -343v1927h196v-1927h-196z" />
<glyph unicode="}" horiz-adv-x="713" d="M37 -315l14 111q2 15 8 24q7 10 16 16q8 5 19 9q9 3 17 3h9q72 0 116 45q44 46 53 123q7 53 7 108q0 17 -0.5 51t-0.5 50t-0.5 48.5t-0.5 47.5q0 47 6 95q5 39 19 72q16 37 39 64q25 30 57 50q30 19 70 32q-33 10 -62 32q-30 24 -45 49q-17 30 -23 63q-6 36 -2 74 q6 49 18 95q2 10 11 44t14 52l25 100q11 46 19 108q9 81 -22 124q-33 45 -105 45h-9q-7 0 -16 3q-8 3 -17 10q-7 6 -12 15t-3 23l14 113h54q99 0 165 -25q70 -27 109 -71q40 -46 55 -110q14 -61 5 -142q-6 -52 -18 -99q-9 -37 -28 -97q-16 -52 -27 -95q-12 -48 -18 -96 q-7 -62 17 -102q24 -39 88 -39l-18 -147q-64 0 -98 -39t-42 -102q-5 -40 -5 -96q0 -33 4 -97q3 -48 3 -96q0 -58 -5 -99q-9 -74 -40 -142q-30 -65 -83 -110q-52 -44 -126 -70q-72 -25 -171 -25h-54z" />
<glyph unicode="~" horiz-adv-x="1147" d="M55 408q8 72 39 142q28 64 74 110q47 47 105 70q63 25 134 25q54 0 102 -15q59 -18 91 -31q5 -2 34.5 -13.5t44.5 -17.5q35 -14 70 -14q59 0 94 36q37 38 44 104h204q-9 -77 -38 -143q-29 -65 -74 -110q-46 -46 -106 -70t-134 -24q-57 0 -102 14q-54 17 -90 31 q-12 5 -26 10.5t-30 12t-24 9.5q-35 14 -70 14q-57 0 -93 -37q-38 -39 -45 -103h-204z" />
<glyph unicode="&#xa1;" horiz-adv-x="520" d="M45 -343l67 546q11 87 32 183q12 53 48 189h171q3 -89 1 -189q-2 -94 -13 -183l-67 -546h-239zM160 913q4 31 20 61q14 27 38 49q20 19 53 32q30 12 63 12q32 0 59 -12q30 -13 46 -32q18 -21 27 -49q9 -29 5 -61q-4 -31 -20 -61q-14 -26 -39 -48q-24 -21 -54 -33t-62 -12 q-33 0 -60 12t-45 33q-17 20 -26 48q-9 29 -5 61z" />
<glyph unicode="&#xa2;" horiz-adv-x="989" d="M49 525q13 112 60 215q45 98 119 171q75 74 173 113q68 27 146 36l20 98l14 65q5 24 26 44q22 20 51 20h93l-31 -148l-1 -3l-16 -75q83 -9 244 -72l-40 -323h-9h-24h-85q-40 0 -43 38q-1 20 2 148q-63 16 -85 18l-1 -6l-144 -689h7q61 0 100 15q38 15 67 33l48 32 q21 15 45 15q31 0 43 -23l61 -92q-48 -50 -101 -83q-54 -34 -108 -53q-60 -21 -113 -28q-50 -7 -89 -8l-24 -117l-7 -31q-5 -25 -25 -44q-22 -20 -51 -20h-93l28 135l20 95q-28 8 -50 18q-81 36 -137 106q-55 69 -81 170t-9 230zM308 376q11 -67 38 -110q13 -22 28 -35 l57 273l72 347q-1 0 -2 -1q-2 -2 -4 -2q-53 -24 -92 -69t-63 -109q-23 -63 -34 -145q-10 -83 0 -149z" />
<glyph unicode="&#xa3;" horiz-adv-x="1294" d="M42 0l19 159q36 7 70 23q32 14 60 38q27 22 45 54q20 35 24 73l33 267h-196l10 81q4 34 29 60q24 25 66 25h111l30 242q12 96 51 183q39 86 105 151q68 66 159 103q94 38 212 38q81 0 144 -21q62 -21 109 -57t78 -84t51 -105l-109 -65q-33 -16 -61 -16q-38 0 -63 34 q-5 6 -34 41q-15 18 -37 32t-45 21q-24 7 -59 7q-106 0 -166 -69q-61 -70 -76 -192l-30 -243h419l-13 -100q-3 -25 -25 -45q-23 -21 -54 -21h-347l-25 -198q-9 -70 -40 -121t-81 -97q74 17 153 17h600l-13 -106q-4 -23 -12 -38q-10 -19 -27 -36q-16 -16 -37 -25 q-23 -10 -46 -10h-982z" />
<glyph unicode="&#xa4;" horiz-adv-x="1131" d="M45 336l174 153q-20 42 -30 95q-9 51 -2 105q6 54 26 103t51 92l-138 155l144 125l134 -153q45 25 100 41q52 15 107 15q51 0 101 -14q45 -13 87 -39l175 155l110 -126l-173 -154q21 -43 30 -94q9 -48 1 -106q-6 -52 -26 -102q-19 -47 -51 -91l138 -156l-143 -126 l-136 154q-44 -26 -98 -41q-52 -15 -108 -15q-52 0 -100 14q-46 14 -87 39l-176 -156zM373 689q-4 -38 6 -74q11 -37 33 -62q23 -26 56 -41t73 -15q39 0 77 15q35 14 67 41q29 24 49 62q20 36 24 74q4 40 -6 76q-10 35 -34 62q-23 26 -56 41q-35 16 -74 16q-38 0 -76 -16 q-35 -15 -66 -41q-29 -24 -49 -62q-20 -36 -24 -76z" />
<glyph unicode="&#xa5;" horiz-adv-x="1263" d="M41 269l17 141h328l12 97h-328l17 141h283l-305 833h210q34 0 56 -17q19 -15 29 -45l163 -499q16 -51 23 -85q8 -43 11 -77q20 57 29 77q15 36 43 85l283 499q13 23 39 43q25 19 60 19h212l-511 -833h283l-18 -141h-326l-12 -97h326l-17 -141h-326l-33 -269h-253l33 269 h-328z" />
<glyph unicode="&#xa6;" horiz-adv-x="513" d="M39 -343l102 827h196l-101 -827h-197zM174 756l102 828h196l-102 -828h-196z" />
<glyph unicode="&#xa7;" horiz-adv-x="1042" d="M40 5l71 96q13 18 30 27t39 9q24 0 43 -13q25 -17 46 -29q26 -15 65 -28q40 -14 99 -14q83 0 135 35q50 34 58 96q5 42 -16 71q-21 30 -59 53q-37 22 -87 42q-89 35 -101 40q-38 16 -99 48q-51 27 -86 62q-38 38 -55 85q-19 51 -10 116q11 83 60 145q51 65 142 102 q-43 42 -65 95q-22 54 -13 133q7 61 40 122q31 57 88 102q58 45 132 70q78 26 175 26q108 0 193 -36q87 -37 137 -94l-68 -91q-12 -17 -24 -24q-11 -7 -30 -7q-20 0 -39 10q-6 3 -21.5 10.5t-24.5 12.5q-21 11 -60 23q-36 11 -82 11q-39 0 -77 -10q-30 -8 -58 -27 q-24 -16 -39 -39q-14 -21 -17 -48q-5 -33 17 -58q21 -24 58 -46q36 -21 85 -43q13 -6 46.5 -20.5t52.5 -22.5q34 -15 98 -51q43 -24 82 -63q36 -36 54 -83q18 -48 11 -109q-10 -83 -57 -150q-46 -67 -137 -108q42 -38 65 -88q23 -51 14 -120q-9 -73 -44 -139 q-34 -63 -94 -111t-140 -73q-83 -26 -184 -26q-48 0 -105 10q-51 9 -96 27q-50 20 -83 41q-39 25 -65 51zM342 742q-6 -41 21 -74q24 -30 70 -56q45 -26 102 -48q44 -17 111 -50q44 21 66 52q23 32 27 68q6 44 -20 76q-27 34 -67 57q-46 27 -98 48q-63 26 -110 49 q-47 -23 -73 -54q-25 -29 -29 -68z" />
<glyph unicode="&#xa8;" horiz-adv-x="784" d="M61 1323q3 29 19 56q17 28 36 45q23 20 48 31t54 11q32 0 54 -11q25 -12 42 -31q19 -20 26 -45q7 -24 4 -56q-3 -29 -18 -54q-16 -27 -36 -43q-23 -19 -50 -29q-28 -11 -56 -11q-27 0 -52 11q-22 10 -40 29q-20 21 -26 43q-8 27 -5 54zM444 1323q3 29 19 56q16 28 35 45 q19 18 49 31q25 11 55 11q32 0 54 -11q27 -14 42 -31q18 -21 25 -45t4 -56q-3 -29 -18 -54q-14 -24 -36 -43q-21 -18 -49 -29t-56 -11t-53 11q-24 11 -41 29q-18 20 -25 43q-8 27 -5 54z" />
<glyph unicode="&#xa9;" horiz-adv-x="1612" d="M52 740q14 106 52 202q39 97 98 180q62 86 137 153q79 70 168 119q87 48 190 76q99 27 204 27q104 0 197 -27q96 -28 172 -76q77 -49 138 -119q62 -71 100 -153q39 -85 54 -180q15 -99 2 -202q-12 -102 -51 -200q-38 -94 -99 -180q-62 -86 -137 -153q-78 -69 -167 -118 t-190 -76q-100 -27 -205 -27q-104 0 -197 27q-94 27 -171 76q-81 52 -139 118q-60 69 -99 153q-41 87 -55 180q-15 97 -2 200zM190 740q-16 -132 17 -248t107 -202q73 -85 179 -134q105 -49 237 -49q131 0 250 49q121 50 214 134q92 84 157 202q61 112 78 248q11 90 -1 171 q-12 84 -43 153q-31 70 -81 129q-48 57 -113 100q-60 40 -141 64q-75 22 -164 22q-88 0 -169 -22q-84 -23 -156 -64q-76 -44 -137 -100q-63 -59 -111 -129q-49 -72 -80 -153q-33 -86 -43 -171zM361 743q14 107 59 192q46 85 118 150q71 64 161 98q91 35 190 35 q113 0 191 -38q75 -37 125 -99l-78 -91q-11 -11 -18 -16q-11 -8 -29 -8t-31 10q-3 2 -35 22q-21 13 -51 23t-84 10q-60 0 -112 -20q-50 -19 -88 -57t-62 -91t-32 -120q-9 -69 3 -122q13 -57 38 -90q26 -34 69 -55q39 -19 92 -19q49 0 84 8t57 19q25 12 42 23t43 17 q11 0 19 -4q9 -4 14 -13l73 -89q-66 -72 -158 -111q-91 -39 -209 -39q-101 0 -181 37t-130 100q-51 65 -72 151q-20 84 -8 187z" />
<glyph unicode="&#xaa;" horiz-adv-x="689" d="M54 1026q4 31 26 69q20 35 68 64q46 28 122 48q73 19 186 22l3 25q7 55 -15 79q-21 23 -67 23q-36 0 -58 -7q-21 -7 -42 -17q-2 -1 -35 -16q-15 -7 -38 -7q-20 0 -31 10q-13 11 -18 23l-24 59q65 53 135 76q72 24 151 24q59 0 102 -18q42 -17 72 -52q28 -32 40 -78 q11 -43 5 -99l-48 -393h-85q-22 0 -38 7q-13 6 -19 30l-8 37q-27 -21 -51 -36q-25 -16 -50 -26q-27 -11 -52 -15q-32 -5 -62 -5q-46 0 -76 11q-35 13 -56 34q-22 22 -32 54q-10 30 -5 74zM229 1035q-4 -31 14 -45q17 -13 53 -13q37 0 70 14t66 43l10 83q-59 -1 -100 -9 t-65 -18t-35 -25q-12 -15 -13 -30z" />
<glyph unicode="&#xab;" horiz-adv-x="862" d="M49 535l4 32l312 406l78 -39q19 -9 27 -24q6 -13 5 -31q-3 -24 -18 -44l-171 -241q-18 -28 -38 -43q13 -13 27 -43l112 -242q11 -23 8 -45q-5 -35 -46 -53l-87 -39zM386 535l4 32l312 406l78 -39q20 -9 27 -24q7 -13 5 -31q-3 -24 -18 -44l-171 -241q-18 -28 -38 -43 q13 -13 27 -43l112 -242q11 -23 8 -45q-5 -35 -46 -53l-88 -39z" />
<glyph unicode="&#xac;" horiz-adv-x="1045" d="M58 594l23 187h908l-59 -477h-214l36 290h-694z" />
<glyph unicode="&#xad;" horiz-adv-x="677" d="M60 513l26 211h531l-26 -211h-531z" />
<glyph unicode="&#xae;" horiz-adv-x="1612" d="M52 740q14 106 52 202q39 97 98 180q62 86 137 153q79 70 168 119q87 48 190 76q99 27 204 27q104 0 197 -27q96 -28 172 -76q77 -49 138 -119q62 -71 100 -153q39 -85 54 -180q15 -99 2 -202q-12 -102 -51 -200q-38 -94 -99 -180q-62 -86 -137 -153q-78 -69 -167 -118 t-190 -76q-100 -27 -205 -27q-104 0 -197 27q-94 27 -171 76q-81 52 -139 118q-60 69 -99 153q-41 87 -55 180q-15 97 -2 200zM190 740q-16 -132 17 -248t107 -202q73 -85 179 -134q108 -50 237 -50t250 50t214 134q92 84 157 202q61 112 78 248q11 90 -1 171 q-12 84 -43 153q-31 70 -81 129q-48 57 -113 100q-60 40 -141 64q-75 22 -164 22q-88 0 -169 -22q-84 -23 -156 -64q-76 -44 -137 -100q-63 -59 -111 -129q-49 -72 -80 -153q-33 -86 -43 -171zM418 284l113 918h328q192 0 272 -68t65 -197q-10 -91 -66 -159 q-57 -69 -159 -100q21 -12 35 -33q11 -17 25 -47l147 -314h-211q-47 0 -61 33l-114 270q-9 15 -20 22t-38 7h-56l-41 -332h-219zM697 773h91q52 0 87 9q37 10 56 26q22 19 32 43q9 22 14 58q4 30 1 56q-3 22 -19 40q-15 17 -44 24q-28 7 -76 7h-110z" />
<glyph unicode="&#xaf;" horiz-adv-x="752" d="M63 1243l20 162h613l-20 -162h-613z" />
<glyph unicode="&#xb0;" horiz-adv-x="813" d="M52 1150q9 71 44 137q35 65 88 111q56 48 121 74q67 27 143 27q74 0 136 -27t104 -74q44 -49 63 -111q19 -63 10 -137q-9 -73 -44 -134q-37 -65 -89 -111q-57 -50 -122 -76q-69 -27 -144 -27q-74 0 -136 27q-58 25 -102 76q-41 47 -61 111t-11 134zM228 1148 q-5 -39 4 -71q9 -31 31 -57q20 -23 51 -37t69 -14q36 0 72 14t62 37q25 22 44 57q17 32 22 71q5 40 -4 72q-9 33 -31 58q-21 24 -52 39q-29 14 -69 14t-72 -14q-34 -15 -61 -39q-24 -21 -44 -58q-17 -32 -22 -72z" />
<glyph unicode="&#xb1;" horiz-adv-x="1186" d="M43 82l23 187h999l-23 -187h-999zM121 720l23 188h397l44 363h205l-44 -363h398l-23 -188h-399l-42 -349h-205l43 349h-397z" />
<glyph unicode="&#xb2;" horiz-adv-x="699" d="M49 922l7 58q1 13 12 37q9 19 27 36l240 211q28 25 49 47q23 24 41 50q15 21 29 51q12 26 15 48q4 36 -13 60q-17 23 -53 23q-33 0 -56 -17q-24 -18 -40 -48q-14 -19 -28 -28q-13 -9 -37 -9h-11q-2 0 -12 2l-100 15q31 116 115 174q83 57 197 57q59 0 104 -18 q46 -18 73 -47q28 -29 40 -70t6 -88q-4 -36 -23 -76q-18 -37 -42 -67q-27 -33 -56 -61q-44 -42 -65 -61l-147 -133q42 10 58 13q25 4 52 4h91q2 8 4.5 17.5t2.5 11.5q8 23 31 23h50h14l6 -1l-14 -107l-11 -95l-2 -12h-554z" />
<glyph unicode="&#xb3;" horiz-adv-x="673" d="M45 1119l83 32q26 8 42 8q37 0 48 -29q2 -5 6.5 -13t5.5 -10q6 -11 18 -22t26 -16q15 -6 38 -6q45 0 73 26t32 61q3 29 -1 46q-5 19 -20 30q-14 11 -45 16q-25 4 -71 4l14 119q39 0 72 7q29 6 47 18q17 12 26 29q8 15 11 39q5 39 -12 60q-18 22 -58 22q-36 0 -59 -17 q-22 -16 -37 -43q-13 -23 -25 -31q-13 -9 -34 -9q-12 0 -27 3l-91 15q15 58 45 102t69 72q41 30 87 43q50 14 100 14q56 0 101 -17q41 -15 72 -45q28 -26 40 -63q12 -35 7 -73q-7 -62 -40 -109q-32 -45 -93 -69q60 -21 86 -58q27 -38 20 -98q-7 -62 -37 -109 q-29 -46 -71 -76q-39 -28 -92 -44q-49 -15 -99 -15q-54 0 -98 11q-42 10 -74 35q-31 23 -52 63q-21 38 -33 97z" />
<glyph unicode="&#xb4;" horiz-adv-x="633" d="M55 1194l176 249q17 26 41 40q23 14 63 14h246l-286 -267q-22 -21 -41 -28q-21 -8 -47 -8h-152z" />
<glyph unicode="&#xb5;" horiz-adv-x="1170" d="M47 -238l158 1289h253l-82 -668q-12 -95 27 -149q38 -53 127 -53q63 0 126 29q59 27 119 81l93 760h253l-129 -1051h-155q-50 0 -59 46l-7 85q-36 -31 -69 -54t-66 -36q-30 -12 -69 -19q-40 -7 -74 -7q-58 0 -107 19q-50 19 -81 52q7 -50 4 -93q-2 -37 -8 -90l-30 -246 h-125q-54 0 -79 27q-26 27 -20 78z" />
<glyph unicode="&#xb6;" horiz-adv-x="1509" d="M47 1062q12 94 54 170q41 74 111 132q69 57 157 86q93 31 197 31h902l-26 -212h-219l-183 -1483h-221l182 1483h-240l-182 -1483h-222l106 859q-105 0 -188 33q-80 32 -136 91q-55 58 -78 132q-24 77 -14 161z" />
<glyph unicode="&#xb7;" horiz-adv-x="507" d="M60 609q4 40 24 76q19 36 49 61q32 27 65 41q36 15 77 15q42 0 75 -15t56 -41q24 -27 34 -61q10 -36 6 -76q-4 -37 -25 -74t-48 -60q-32 -27 -67 -41q-38 -15 -78 -15t-73 15t-56 41q-23 25 -33 60q-10 34 -6 74z" />
<glyph unicode="&#xb8;" horiz-adv-x="542" d="M61 -334l34 78q9 24 31 24q5 0 15 -2q3 -1 8.5 -3t7.5 -3q11 -4 21 -5q16 -2 28 -2q36 0 53 13t20 31q3 30 -31 43q-32 12 -111 23l64 151h158l-29 -70q90 -23 121 -61t25 -91q-5 -35 -25 -61q-21 -26 -57 -47q-38 -21 -82 -31q-46 -10 -103 -10q-42 0 -78 6 q-41 7 -70 17z" />
<glyph unicode="&#xb9;" horiz-adv-x="550" d="M51 922l15 116h142l45 369l12 52l-87 -62q-19 -13 -36 -13q-13 0 -27 7q-11 5 -16 14l-47 77l263 198h153l-79 -642h118l-14 -116h-442z" />
<glyph unicode="&#xba;" horiz-adv-x="778" d="M54 1177q8 70 42 134q32 60 81 102t113 64q63 22 141 22q75 0 132 -22q60 -23 98 -64q40 -43 56 -102q16 -58 7 -134q-9 -74 -41 -137q-33 -64 -80 -104q-51 -43 -114 -65t-138 -22q-78 0 -135 22q-59 23 -98 65q-40 43 -56 104q-17 62 -8 137zM252 1175q-11 -93 17 -135 q29 -44 100 -44q68 0 107 44q40 44 50 135q11 92 -17 134q-28 43 -96 43q-72 0 -111 -43q-40 -44 -50 -134z" />
<glyph unicode="&#xbb;" horiz-adv-x="863" d="M50 223q3 23 18 43l171 242q18 26 38 43q-17 17 -27 43l-112 241q-11 23 -8 44q4 37 46 55l88 39l212 -406l-4 -32l-312 -406l-78 39q-20 9 -27 23q-7 13 -5 32zM387 223q3 23 18 43l171 242q18 26 38 43q-17 17 -27 43l-112 241q-11 23 -8 44q4 37 46 55l87 39l213 -406 l-4 -32l-312 -406l-78 39q-20 9 -27 23q-7 13 -5 32z" />
<glyph unicode="&#xbc;" horiz-adv-x="1360" d="M43 0l1026 1398q29 39 62 61q34 22 81 22h107l-1033 -1408q-33 -44 -63 -58q-31 -15 -71 -15h-109zM46 723l14 117h142l46 368l11 53l-86 -63q-18 -12 -37 -12q-15 0 -27 6q-9 5 -15 14l-47 77l263 199h153l-79 -642h117l-14 -117h-441zM680 281l401 478h175l-57 -470h96 l-11 -90q-2 -13 -12 -24q-10 -10 -27 -10h-61l-21 -165h-151l20 165h-296q-24 0 -37 11t-14 27zM847 289h200l21 172q1 6 8 52q3 19 13 59z" />
<glyph unicode="&#xbd;" horiz-adv-x="1371" d="M41 0l1026 1398q29 39 62 61q34 22 81 22h107l-1033 -1408q-33 -44 -63 -58q-31 -15 -71 -15h-109zM86 723l14 117h142l46 368l11 53l-86 -63q-18 -12 -37 -12q-15 0 -27 6q-9 5 -15 14l-47 77l263 199h152l-78 -642h117l-14 -117h-441zM719 0l7 58q1 16 11 37 q8 18 28 36l240 211q17 15 48 48q23 24 41 50q19 28 30 50q11 23 14 49q4 37 -12 60q-17 23 -53 23q-34 0 -57 -17q-22 -16 -39 -49q-14 -19 -28 -28q-13 -9 -37 -9q-2 0 -5.5 0.5t-5.5 0.5q-8 0 -13 1l-99 16q31 117 114 174q81 56 198 56q61 0 104 -17q44 -18 73 -48 q28 -29 40 -70q11 -38 5 -87q-4 -40 -22 -77t-42 -67q-27 -33 -56 -61q-21 -20 -65 -60l-147 -134q42 10 58 13q32 5 51 5h92q2 8 4.5 17t2.5 11q8 23 31 23h49h15h5l-13 -107l-12 -95l-1 -13h-554z" />
<glyph unicode="&#xbe;" horiz-adv-x="1425" d="M43 921l83 31q29 9 42 9q37 0 48 -29l12 -24q6 -12 18 -22t26 -16q15 -6 38 -6q45 0 73 26t32 61q3 29 -1 46t-21 30q-14 11 -44 16q-32 5 -71 5l14 118q39 0 72 7q29 6 47 18q16 11 26 30q8 15 11 39q5 38 -12 59q-18 22 -58 22q-37 0 -59 -16q-21 -16 -37 -44 q-14 -22 -26 -30q-15 -10 -33 -10q-12 0 -27 3l-91 16q15 57 45 101q31 46 69 73q39 28 87 42q50 14 100 14q56 0 101 -17q39 -15 71 -45q30 -28 41 -62q12 -35 7 -74q-7 -62 -40 -109q-32 -45 -93 -69q60 -21 86 -58q27 -38 20 -98q-7 -62 -37 -109q-28 -44 -71 -75 q-42 -30 -92 -45q-46 -14 -99 -14q-54 0 -98 11t-74 34t-52 64q-21 38 -33 97zM108 0l1026 1398q28 38 63 61q34 22 80 22h108l-1033 -1408q-32 -43 -64 -58t-71 -15h-109zM742 281l401 478h176l-58 -470h96l-11 -90q-2 -13 -12 -24q-10 -10 -27 -10h-61l-21 -165h-151 l20 165h-296q-24 0 -37 11t-14 27zM910 289h199l21 172q1 6 8 52q3 19 13 59z" />
<glyph unicode="&#xbf;" horiz-adv-x="861" d="M49 -17q9 74 39 132q27 51 68 92q36 36 83 65q9 6 38 24t44 27q45 28 68 47q29 25 38 57l42 148h173l-3 -166v-10l-1 -10q-6 -49 -32 -79q-29 -33 -64 -56q-50 -32 -78 -47q-43 -23 -79 -49t-64 -63t-34 -90q-5 -37 6 -66q11 -31 32 -50q21 -20 55 -32q33 -12 72 -12 q57 0 101 14q45 14 72 28q27 13 51 29q20 13 37 13q37 0 49 -31l54 -106q-45 -35 -84 -58q-45 -27 -96 -48q-52 -22 -108 -33q-54 -11 -123 -11q-92 0 -160 23q-70 24 -117 68t-68 107q-21 64 -11 143zM446 913q5 34 19 61q15 28 39 49t54 33t63 12q32 0 59 -12t45 -33 t27 -49t4 -61q-5 -34 -19 -61q-12 -23 -39 -48q-20 -19 -53 -32q-30 -12 -62 -12q-33 0 -60 12q-30 13 -46 32q-19 22 -27 48q-9 27 -4 61z" />
<glyph unicode="&#xc0;" d="M39 0l13 105q4 35 47 52q14 5 118 47l658 1277h282l344 -1277q99 -44 107 -47q38 -16 34 -52l-13 -105h-73h-160h-34h-19h-214l13 105q4 35 47 52q20 8 43 17l-5 22l-49 201h-590l-103 -210l-6 -13l18 -8t14 -6t7 -3q38 -16 34 -52l-13 -105h-213h-20h-34h-160h-73z M632 1834h280q17 0 35 -2q15 -2 25 -6q14 -6 21 -12q6 -5 20 -21l176 -207h-200q-5 0 -13.5 0.5t-11.5 0.5q-10 0 -19 3q-12 4 -18 7q-3 2 -10 7.5t-9 6.5zM683 592h448l-112 460q-9 31 -18 77q-11 55 -17 97q-30 -74 -40 -98q-18 -42 -37 -78z" />
<glyph unicode="&#xc1;" d="M39 0l13 105q4 35 47 52q14 5 118 47l658 1277h282l344 -1277q99 -44 107 -47q38 -16 34 -52l-13 -105h-73h-160h-34h-19h-214l13 105q4 35 47 52q20 8 43 17l-5 22l-49 201h-590l-103 -210l-6 -13l18 -8t14 -6t7 -3q38 -16 34 -52l-13 -105h-213h-20h-34h-160h-73z M683 592h448l-112 460q-9 31 -18 77q-11 55 -17 97q-30 -74 -40 -98q-18 -42 -37 -78zM834 1586l226 207q20 18 25 21q12 8 24 12q12 5 26 6q20 2 35 2h282l-330 -221q-21 -13 -23 -14q-16 -7 -20 -8q-7 -2 -21 -4q-7 -1 -26 -1h-198z" />
<glyph unicode="&#xc2;" d="M39 0l13 105q4 35 47 52q14 5 118 47l658 1277h282l344 -1277q99 -44 107 -47q38 -16 34 -52l-13 -105h-73h-160h-34h-19h-214l13 105q4 35 47 52q20 8 43 17l-5 22l-49 201h-590l-103 -210l-6 -13l18 -8t14 -6t7 -3q38 -16 34 -52l-13 -105h-213h-20h-34h-160h-73z M654 1586l276 224h252l220 -224h-191q-18 0 -34 4q-15 4 -28 13l-95 68q-3 1 -7 5q-1 1 -3.5 3t-3.5 3q-1 -1 -3.5 -2.5t-3.5 -2.5q-6 -4 -10 -6l-112 -68q-15 -9 -31 -13q-17 -4 -34 -4h-192zM683 592h448l-112 460q-9 31 -18 77q-11 55 -17 97q-30 -74 -40 -98 q-18 -42 -37 -78z" />
<glyph unicode="&#xc3;" d="M39 0l13 105q4 35 47 52q14 5 118 47l658 1277h282l344 -1277q99 -44 107 -47q38 -16 34 -52l-13 -105h-73h-160h-34h-19h-214l13 105q4 35 47 52q20 8 43 17l-5 22l-49 201h-590l-103 -210l-6 -13l18 -8t14 -6t7 -3q38 -16 34 -52l-13 -105h-213h-20h-34h-160h-73z M683 592h448l-112 460q-9 31 -18 77q-11 55 -17 97q-30 -74 -40 -98q-18 -42 -37 -78zM715 1581q6 48 25 93q19 44 48 73q33 33 67 48q36 16 83 16q40 0 70 -11q50 -18 63 -24q43 -19 55 -25q23 -11 47 -11q28 0 47 16t23 48h138q-6 -48 -25 -93q-18 -41 -47 -72 q-28 -29 -66 -46q-39 -17 -84 -17q-35 0 -70 11q-34 12 -62 25q-9 4 -28 12t-28 12q-25 12 -47 12q-27 0 -46 -17q-18 -17 -23 -50h-140z" />
<glyph unicode="&#xc4;" d="M39 0l13 105q4 35 47 52q14 5 118 47l658 1277h282l344 -1277q99 -44 107 -47q38 -16 34 -52l-13 -105h-73h-160h-34h-19h-214l13 105q4 35 47 52q20 8 43 17l-5 22l-49 201h-590l-103 -210l-6 -13l18 -8t14 -6t7 -3q38 -16 34 -52l-13 -105h-213h-20h-34h-160h-73z M683 592h448l-112 460q-9 31 -18 77q-11 55 -17 97q-30 -74 -40 -98q-18 -42 -37 -78zM685 1707q3 26 17 53q13 24 34 44q17 16 47 30q23 11 52 11q31 0 53 -11q27 -14 41 -30q18 -22 25 -44q8 -27 5 -53q-3 -28 -18 -52q-16 -26 -36 -43q-22 -19 -48 -29t-56 -10 q-28 0 -49 10q-22 10 -39 29q-16 17 -24 43q-7 23 -4 52zM1127 1707q3 26 17 53q12 23 35 44q18 17 48 30q25 11 54 11q31 0 53 -11q24 -12 39 -30q17 -20 24 -44t4 -53q-3 -27 -17 -52q-15 -27 -34 -43q-23 -20 -47 -29q-26 -10 -55 -10t-52 10q-22 10 -40 29t-25 43 q-7 23 -4 52z" />
<glyph unicode="&#xc5;" d="M39 0l13 105q4 35 47 52q14 5 118 47l658 1277h282l344 -1277q99 -44 107 -47q38 -16 34 -52l-13 -105h-73h-160h-34h-19h-214l13 105q4 35 47 52q20 8 43 17l-5 22l-49 201h-590l-103 -210l-6 -13l18 -8t14 -6t7 -3q38 -16 34 -52l-13 -105h-213h-20h-34h-160h-73z M683 592h448l-112 460q-9 31 -18 77q-11 55 -17 97q-30 -74 -40 -98q-18 -42 -37 -78zM834 1723q7 47 27 80q23 37 54 62q30 24 71 40q36 14 82 14t81 -14q38 -15 64 -40q26 -24 40 -62q13 -35 7 -80q-6 -42 -27 -78q-20 -35 -54 -61q-33 -25 -74 -39q-42 -14 -85 -14 q-41 0 -78 14q-35 13 -61 39t-39 61q-14 37 -8 78zM955 1723q-4 -40 16 -65q21 -26 66 -26q41 0 69 26t32 65q6 43 -16 68t-63 25q-44 0 -72 -25q-26 -23 -32 -68z" />
<glyph unicode="&#xc6;" horiz-adv-x="2150" d="M39 0l13 105q4 35 47 52q3 1 17 6.5t38.5 15t50.5 20.5l689 1093q-2 1 -6 1q-3 1 -5 1t-6 0.5t-6 1.5q-49 10 -43 64l14 121h171h5h1094l-17 -143h2l-31 -246h-8h-25h-85q-40 0 -43 38q-1 18 2 132h-533l1 -411h506l-26 -212h-480v-419h404q25 114 31 132q14 38 52 38h85 h24h9l-30 -246h-2l-18 -144h-812h-4h-151l15 120q6 53 59 64q1 0 3.5 0.5l7.5 1.5t11 2t24 4.5t31 5.5v167h-533l-112 -186q11 -5 23 -10.5t18 -8t8 -3.5q38 -16 34 -52l-13 -105h-233h-18h-16h-193h-40zM699 559h415v717q-22 -52 -46 -98q-37 -70 -46 -85z" />
<glyph unicode="&#xc7;" horiz-adv-x="1390" d="M49 740q21 166 93 306q71 137 185 239q113 101 259 156q148 56 315 56q184 0 452 -107l-16 -131l-2 -15l-29 -231h-8h-25h-85q-40 0 -43 38q-1 21 2 163q-160 49 -276 49q-103 0 -197 -37q-90 -35 -163 -104q-74 -69 -119 -164q-47 -99 -62 -218q-15 -127 8 -222 q24 -99 76 -164q53 -66 130 -102q76 -35 172 -35q56 0 102 6q44 6 87 20q40 13 77 34q36 20 74 52q14 11 23 15q10 5 26 5q22 0 36 -17l94 -118q-104 -112 -242 -171q-114 -48 -260 -57l-16 -42q89 -23 120 -61q32 -39 26 -91q-5 -35 -25 -61q-21 -26 -57 -47 q-38 -21 -82 -31q-46 -10 -103 -10q-42 0 -78 6q-41 7 -70 17l33 78q9 24 32 24q5 0 15 -2q3 -1 8.5 -3t7.5 -3q11 -4 21 -5q16 -2 28 -2q35 0 52 13q18 14 21 31q3 30 -31 43q-32 12 -111 23l53 126q-110 12 -197 51q-126 58 -206 157t-113 239q-33 139 -12 304z" />
<glyph unicode="&#xc8;" horiz-adv-x="1347" d="M39 0l15 120q6 53 59 64q5 2 13 3q2 0 7 1t11 2t13 2t27.5 4.5t34.5 6.5l132 1075q-13 3 -33 6t-26 4t-12 2.5t-11.5 2.5t-6.5 1q-2 0 -6.5 0.5t-6.5 1.5q-49 10 -43 64l15 121h155h934l-18 -143l-9 -76l-21 -170h-9h-25h-84q-40 0 -43 38q-2 30 1 132h-476l-50 -411h501 l-26 -212h-501l-51 -419h475q23 102 32 132q14 38 52 38h84h25h9l-21 -170l-9 -76l-18 -144h-934h-155zM475 1834h280q17 0 35 -2q15 -2 25 -6q14 -6 21 -12q6 -5 20 -21l176 -207h-200q-5 0 -13.5 0.5t-11.5 0.5q-10 0 -19 3q-12 4 -18 7q-3 1 -6 3.5t-6.5 5.5t-6.5 5z" />
<glyph unicode="&#xc9;" horiz-adv-x="1347" d="M39 0l15 120q6 53 59 64q5 2 13 3q2 0 7 1t11 2t13 2t27.5 4.5t34.5 6.5l132 1075q-13 3 -33 6t-26 4t-12 2.5t-11.5 2.5t-6.5 1q-2 0 -6.5 0.5t-6.5 1.5q-49 10 -43 64l15 121h155h934l-18 -143l-9 -76l-21 -170h-9h-25h-84q-40 0 -43 38q-2 30 1 132h-476l-50 -411h501 l-26 -212h-501l-51 -419h475q23 102 32 132q14 38 52 38h84h25h9l-21 -170l-9 -76l-18 -144h-934h-155zM677 1586l226 207q20 18 25 21q12 8 24 12q12 5 26 6q20 2 35 2h282l-331 -221q-1 -1 -9.5 -6.5t-12.5 -7.5q-14 -6 -21 -8t-21 -4q-7 -1 -25 -1h-198z" />
<glyph unicode="&#xca;" horiz-adv-x="1347" d="M39 0l15 120q6 53 59 64q5 2 13 3q2 0 7 1t11 2t13 2t27.5 4.5t34.5 6.5l132 1075q-13 3 -33 6t-26 4t-12 2.5t-11.5 2.5t-6.5 1q-2 0 -6.5 0.5t-6.5 1.5q-49 10 -43 64l15 121h155h934l-18 -143l-9 -76l-21 -170h-9h-25h-84q-40 0 -43 38q-2 30 1 132h-476l-50 -411h501 l-26 -212h-501l-51 -419h475q23 102 32 132q14 38 52 38h84h25h9l-21 -170l-9 -76l-18 -144h-934h-155zM497 1586l276 224h252l220 -224h-192q-17 0 -33 4q-15 4 -28 13l-95 68q-3 1 -7 5q-1 1 -3.5 3t-3.5 3q-1 -1 -3.5 -2.5t-3.5 -2.5q-6 -4 -10 -6l-112 -68 q-15 -9 -31 -13q-17 -4 -34 -4h-192z" />
<glyph unicode="&#xcb;" horiz-adv-x="1347" d="M39 0l15 120q6 53 59 64q5 2 13 3q2 0 7 1t11 2t13 2t27.5 4.5t34.5 6.5l132 1075q-13 3 -33 6t-26 4t-12 2.5t-11.5 2.5t-6.5 1q-2 0 -6.5 0.5t-6.5 1.5q-49 10 -43 64l15 121h155h934l-18 -143l-9 -76l-21 -170h-9h-25h-84q-40 0 -43 38q-2 30 1 132h-476l-50 -411h501 l-26 -212h-501l-51 -419h475q23 102 32 132q14 38 52 38h84h25h9l-21 -170l-9 -76l-18 -144h-934h-155zM528 1707q3 26 17 53q13 24 34 44q17 16 47 30q23 11 52 11q31 0 53 -11q27 -14 41 -30q18 -22 25 -44q8 -27 5 -53q-3 -28 -18 -52q-16 -26 -36 -43q-22 -19 -48 -29 t-56 -10q-28 0 -49 10q-22 10 -39 29q-16 17 -24 43q-7 23 -4 52zM970 1707q3 26 17 53q12 23 35 44q18 17 48 30q25 11 54 11q30 0 52 -11q25 -13 40 -30q17 -20 24 -44t4 -53q-3 -27 -17 -52q-15 -27 -34 -43q-23 -20 -47 -29q-26 -10 -55 -10t-52 10q-22 10 -40 29 t-25 43q-7 23 -4 52z" />
<glyph unicode="&#xcc;" horiz-adv-x="845" d="M39 0l15 120q6 53 59 64q5 2 13 3q2 0 7 1t11 2t13 2t27.5 4.5t34.5 6.5l132 1075q-13 3 -33 6t-26 4t-12 2.5t-11.5 2.5t-6.5 1q-10 2 -13 2q-49 10 -43 64l15 121h155h276h155l-14 -121q-6 -53 -59 -64q-1 0 -2.5 -0.5t-3 -0.5t-4 -0.5t-4.5 -0.5q-6 -1 -31 -6 q-7 -1 -27.5 -4t-34.5 -6l-132 -1075q13 -3 33 -6.5t27 -4.5q8 -2 18 -3.5t11 -1.5q10 -2 13 -3q49 -10 43 -64l-14 -120h-155h-277h-155zM136 1834h280q17 0 35 -2q15 -2 25 -6q14 -6 21 -12q6 -5 20 -21l176 -207h-200q-5 0 -13.5 0.5t-11.5 0.5q-10 0 -19 3q-12 4 -18 7 q-3 1 -6 3.5t-6.5 5.5t-6.5 5z" />
<glyph unicode="&#xcd;" horiz-adv-x="991" d="M39 0l15 120q6 53 59 64q5 2 13 3q2 0 7 1t11 2t13 2t27.5 4.5t34.5 6.5l132 1075q-13 3 -33 6t-26 4t-12 2.5t-11.5 2.5t-6.5 1q-10 2 -13 2q-49 10 -43 64l15 121h155h276h155l-14 -121q-6 -53 -59 -64q-1 0 -2.5 -0.5t-3 -0.5t-4 -0.5t-4.5 -0.5q-6 -1 -31 -6 q-7 -1 -27.5 -4t-34.5 -6l-132 -1075q13 -3 33 -6.5t27 -4.5q8 -2 18 -3.5t11 -1.5q10 -2 13 -3q49 -10 43 -64l-14 -120h-155h-277h-155zM338 1586l226 207q20 18 25 21q12 8 24 12q12 5 26 6q20 2 35 2h282l-330 -221q-21 -13 -23 -14q-14 -6 -21 -8t-21 -4q-7 -1 -25 -1 h-198z" />
<glyph unicode="&#xce;" horiz-adv-x="941" d="M39 0l15 120q6 53 59 64q5 2 13 3q2 0 7 1t11 2t13 2t27.5 4.5t34.5 6.5l132 1075q-13 3 -33 6t-26 4t-12 2.5t-11.5 2.5t-6.5 1q-10 2 -13 2q-49 10 -43 64l15 121h155h276h155l-14 -121q-6 -53 -59 -64q-1 0 -2.5 -0.5t-3 -0.5t-4 -0.5t-4.5 -0.5q-6 -1 -31 -6 q-7 -1 -27.5 -4t-34.5 -6l-132 -1075q13 -3 33 -6.5t27 -4.5q8 -2 18 -3.5t11 -1.5q10 -2 13 -3q49 -10 43 -64l-14 -120h-155h-277h-155zM157 1586l276 224h252l220 -224h-192q-17 0 -33 4q-15 4 -28 13l-95 68q-3 1 -7 5q-1 1 -3.5 3t-3.5 3q-1 -1 -3.5 -2.5t-3.5 -2.5 q-6 -4 -10 -6l-112 -68q-15 -9 -31 -13q-17 -4 -34 -4h-192z" />
<glyph unicode="&#xcf;" horiz-adv-x="941" d="M39 0l15 120q6 53 59 64q5 2 13 3q2 0 7 1t11 2t13 2t27.5 4.5t34.5 6.5l132 1075q-13 3 -33 6t-26 4t-12 2.5t-11.5 2.5t-6.5 1q-10 2 -13 2q-49 10 -43 64l15 121h155h276h155l-14 -121q-6 -53 -59 -64q-1 0 -2.5 -0.5t-3 -0.5t-4 -0.5t-4.5 -0.5q-6 -1 -31 -6 q-7 -1 -27.5 -4t-34.5 -6l-132 -1075q13 -3 33 -6.5t27 -4.5q8 -2 18 -3.5t11 -1.5q10 -2 13 -3q49 -10 43 -64l-14 -120h-155h-277h-155zM188 1707q3 26 17 53q13 24 34 44q17 16 47 30q23 11 52 11q31 0 53 -11q27 -14 41 -30q18 -22 25 -44q8 -27 5 -53q-3 -28 -18 -52 q-16 -26 -36 -43q-22 -19 -48 -29t-56 -10q-28 0 -49 10q-22 10 -39 29q-16 17 -24 43q-7 23 -4 52zM630 1707q3 26 17 53q12 23 35 44q18 17 48 30q25 11 54 11q30 0 52 -11q25 -13 40 -30q17 -20 24 -44t4 -53q-3 -27 -17 -52q-15 -27 -34 -43q-23 -20 -47 -29 q-26 -10 -55 -10t-52 10q-22 10 -40 29t-25 43q-7 23 -4 52z" />
<glyph unicode="&#xd0;" horiz-adv-x="1626" d="M39 0l15 120q6 53 59 64q60 11 106 19l57 464h-184l19 156h184l56 455q-27 5 -49 8.5t-29 5t-13 2.5t-11 2q-49 10 -43 64l15 121h155h543q168 0 299 -55q130 -55 218 -153q86 -97 124 -234q37 -136 18 -299q-19 -160 -91 -299q-69 -133 -182 -234q-112 -100 -255 -153 q-146 -54 -313 -54h-543h-155zM498 219h266q108 0 200 36q90 35 159 103q68 67 113 164q45 98 60 218q15 122 -6 219t-73 164t-134 103q-83 36 -191 36h-266l-53 -439h369l-19 -156h-370z" />
<glyph unicode="&#xd1;" horiz-adv-x="1818" d="M39 0l15 120q6 53 59 64q5 2 13 3q2 0 7 1t11 2t13 2t27.5 4.5t34.5 6.5l132 1075q-13 3 -33 6t-26 4t-12 2.5t-11.5 2.5t-6.5 1q-2 0 -6.5 0.5t-6.5 1.5q-49 10 -43 64l15 121h155h144q15 0 31 -2q12 -1 21 -6q11 -5 17 -13q15 -18 18 -23l656 -991q0 36 3 71q3 31 6 64 l86 697q-36 5 -69 9.5t-47 6.5t-16 2q-49 10 -43 64l15 121h184h243h155l-15 -121q-6 -53 -59 -64q-1 0 -3 -0.5t-5 -1t-5 -0.5q-6 -1 -31 -6q-7 -1 -27.5 -4t-34.5 -6l-157 -1278h-142q-34 0 -53 10q-22 11 -38 37l-653 986q-3 -64 -3 -65q-2 -27 -6 -59l-86 -706 q130 -19 131 -19q49 -10 43 -64l-15 -120h-184h-243h-155zM717 1581q6 48 25 93q20 46 47 73q32 32 68 48t83 16q40 0 70 -11q50 -18 63 -24q43 -19 55 -25q23 -11 47 -11q27 0 46 16q20 17 24 48h137q-6 -48 -25 -93q-18 -43 -46 -72t-66 -46q-39 -17 -84 -17q-35 0 -70 11 q-39 14 -63 25q-9 4 -27.5 12t-27.5 12q-25 12 -47 12q-27 0 -46 -17q-20 -18 -24 -50h-139z" />
<glyph unicode="&#xd2;" horiz-adv-x="1598" d="M48 740q19 163 91 302q71 137 183 240q109 100 257 158q146 57 313 57q170 0 300 -57q131 -57 217 -158q85 -100 123 -240q37 -137 17 -302q-19 -162 -91 -301q-71 -138 -182 -240t-256 -159q-143 -56 -313 -56t-300 56t-218 159q-87 102 -124 240q-37 136 -17 301z M330 740q-15 -124 5 -218q21 -95 74 -164q52 -67 135 -103q82 -36 192 -36q108 0 199 36q92 36 160 103q69 67 112 164q46 103 60 218q15 122 -6 219q-21 99 -72 164q-53 68 -135 104t-190 36t-200 -36q-91 -36 -161 -104t-114 -164q-44 -95 -59 -219zM509 1834h280 q17 0 35 -2q15 -2 25 -6q14 -6 21 -12q6 -5 20 -21l176 -207h-199q-5 0 -13.5 0.5t-11.5 0.5q-11 0 -20 3q-12 4 -18 7q-3 2 -9 7t-9 7z" />
<glyph unicode="&#xd3;" horiz-adv-x="1598" d="M48 740q19 163 91 302q71 137 183 240q109 100 257 158q146 57 313 57q170 0 300 -57q131 -57 217 -158q85 -100 123 -240q37 -137 17 -302q-19 -162 -91 -301q-71 -138 -182 -240t-256 -159q-143 -56 -313 -56t-300 56t-218 159q-87 102 -124 240q-37 136 -17 301z M330 740q-15 -124 5 -218q21 -95 74 -164q52 -67 135 -103q82 -36 192 -36q108 0 199 36q92 36 160 103q69 67 112 164q46 103 60 218q15 122 -6 219q-21 99 -72 164q-53 68 -135 104t-190 36t-200 -36q-91 -36 -161 -104t-114 -164q-44 -95 -59 -219zM711 1586l226 207 q18 16 26 21q13 8 23 12q12 5 26 6q20 2 36 2h281l-330 -221q-21 -13 -23 -14q-16 -7 -20 -8q-7 -2 -21 -4q-7 -1 -25 -1h-199z" />
<glyph unicode="&#xd4;" horiz-adv-x="1598" d="M48 740q19 163 91 302q71 137 183 240q109 100 257 158q146 57 313 57q170 0 300 -57q131 -57 217 -158q85 -100 123 -240q37 -137 17 -302q-19 -162 -91 -301q-71 -138 -182 -240t-256 -159q-143 -56 -313 -56t-300 56t-218 159q-87 102 -124 240q-37 136 -17 301z M330 740q-15 -124 5 -218q21 -95 74 -164q52 -67 135 -103q82 -36 192 -36q108 0 199 36q92 36 160 103q69 67 112 164q46 103 60 218q15 122 -6 219q-21 99 -72 164q-53 68 -135 104t-190 36t-200 -36q-91 -36 -161 -104t-114 -164q-44 -95 -59 -219zM532 1586l275 224h252 l220 -224h-191q-18 0 -34 4q-15 4 -28 13l-95 68q-3 1 -7 5q-1 1 -3.5 3t-3.5 3q-1 0 -2.5 -2t-3.5 -3q-6 -4 -10 -6l-112 -68q-14 -9 -32 -13q-17 -4 -34 -4h-191z" />
<glyph unicode="&#xd5;" horiz-adv-x="1598" d="M48 740q19 163 91 302q71 137 183 240q109 100 257 158q146 57 313 57q170 0 300 -57q131 -57 217 -158q85 -100 123 -240q37 -137 17 -302q-19 -162 -91 -301q-71 -138 -182 -240t-256 -159q-143 -56 -313 -56t-300 56t-218 159q-87 102 -124 240q-37 136 -17 301z M330 740q-15 -124 5 -218q21 -95 74 -164q52 -67 135 -103q82 -36 192 -36q108 0 199 36q92 36 160 103q69 67 112 164q46 103 60 218q15 122 -6 219q-21 99 -72 164q-53 68 -135 104t-190 36t-200 -36q-91 -36 -161 -104t-114 -164q-44 -95 -59 -219zM593 1581q6 52 24 93 q19 44 48 73q33 33 67 48q36 16 83 16q41 0 71 -11q50 -18 63 -24q43 -19 55 -25q23 -11 46 -11q28 0 47 16q20 17 24 48h137q-6 -48 -25 -93q-18 -41 -47 -72q-28 -29 -66 -46q-39 -17 -84 -17q-34 0 -69 11q-39 14 -63 25q-9 4 -27.5 12t-27.5 12q-25 12 -48 12 q-27 0 -46 -17q-18 -17 -23 -50h-139z" />
<glyph unicode="&#xd6;" horiz-adv-x="1598" d="M48 740q19 163 91 302q71 137 183 240q109 100 257 158q146 57 313 57q170 0 300 -57q131 -57 217 -158q85 -100 123 -240q37 -137 17 -302q-19 -162 -91 -301q-71 -138 -182 -240t-256 -159q-143 -56 -313 -56t-300 56t-218 159q-87 102 -124 240q-37 136 -17 301z M330 740q-15 -124 5 -218q21 -95 74 -164q52 -67 135 -103q82 -36 192 -36q108 0 199 36q92 36 160 103q69 67 112 164q46 103 60 218q15 122 -6 219q-21 99 -72 164q-53 68 -135 104t-190 36t-200 -36q-91 -36 -161 -104t-114 -164q-44 -95 -59 -219zM562 1707q3 26 17 53 q12 23 35 44q18 17 46 30q23 11 52 11q31 0 53 -11q27 -14 41 -30q20 -24 26 -44q7 -24 4 -53q-3 -30 -17 -52q-16 -26 -36 -43q-21 -18 -49 -29q-26 -10 -55 -10t-50 10q-22 10 -39 29q-16 17 -24 43q-7 23 -4 52zM1004 1707q3 26 17 53q11 21 36 44q19 17 47 30 q25 11 54 11q31 0 53 -11q25 -13 40 -30q15 -18 23 -44q8 -27 5 -53q-3 -27 -17 -52t-35 -43q-23 -20 -47 -29q-26 -10 -55 -10q-28 0 -51 10q-24 11 -41 29q-16 17 -24 43q-8 25 -5 52z" />
<glyph unicode="&#xd7;" horiz-adv-x="1104" d="M36 337l393 350l-294 335l150 133l294 -335l372 333l118 -133l-374 -333l307 -348l-151 -132l-305 347l-392 -349z" />
<glyph unicode="&#xd8;" horiz-adv-x="1688" d="M35 -114l233 275q-105 102 -152 251q-46 148 -24 328q19 163 91 302q71 138 182 240q109 100 257 158q145 57 314 57q110 0 208 -26q99 -26 174 -74l71 84q15 18 28 31q13 14 27 21q18 10 29 12q17 3 39 3h141l-214 -252q93 -101 134 -244q41 -144 20 -312 q-19 -160 -92 -301q-71 -138 -182 -240t-256 -159q-143 -56 -313 -56q-104 0 -192 21q-83 20 -163 63l-91 -108q-34 -40 -78 -57q-45 -17 -83 -17h-108zM373 740q-15 -115 4 -211q18 -93 67 -160l705 829q-100 65 -242 65q-109 0 -200 -36q-90 -35 -160 -104 q-70 -68 -114 -164q-45 -97 -60 -219zM564 266q92 -47 215 -47q108 0 200 36q90 35 159 103q71 69 113 164q44 99 59 218q14 106 0 192q-13 82 -52 151z" />
<glyph unicode="&#xd9;" horiz-adv-x="1631" d="M41 1360l14 121h156h275h164l-15 -121q-6 -53 -59 -64q-1 0 -3.5 -0.5t-5.5 -1t-6 -0.5q-11 -2 -36 -6q-7 -1 -64 -10l-84 -683q-11 -87 4 -154q15 -70 52 -117q38 -48 97 -75q60 -27 139 -27q81 0 147 27q65 27 115 75q50 49 81 116q32 69 42 154l84 684q-14 3 -34.5 6 t-26.5 4q-22 4 -35 6q-3 0 -6 0.5t-5.5 1t-3.5 0.5q-49 10 -43 64l15 121h164h275h155l-14 -121q-6 -53 -59 -64q-1 0 -2.5 -0.5t-3 -0.5t-4 -0.5t-4.5 -0.5q-6 -1 -31 -6q-7 -1 -27.5 -4t-34.5 -6l-84 -684q-17 -135 -72 -244q-58 -115 -146 -194q-93 -83 -209 -127 q-120 -45 -262 -45t-250 45t-178 127t-98 194t-12 244l84 684q-13 3 -33.5 6t-26.5 4q-14 3 -29 6q-2 0 -6.5 0.5t-6.5 1.5q-49 10 -43 64zM441 1834h281q17 0 35 -2q15 -2 25 -6q12 -5 20 -12q6 -5 20 -21l177 -207h-200q-5 0 -13.5 0.5t-11.5 0.5q-11 0 -20 3t-17 7 q-3 2 -10 7.5t-9 6.5z" />
<glyph unicode="&#xda;" horiz-adv-x="1631" d="M41 1360l14 121h156h275h164l-15 -121q-6 -53 -59 -64q-1 0 -3.5 -0.5t-5.5 -1t-6 -0.5q-11 -2 -36 -6q-7 -1 -64 -10l-84 -683q-11 -87 4 -154q15 -70 52 -117q38 -48 97 -75q60 -27 139 -27q81 0 147 27q65 27 115 75q50 49 81 116q32 69 42 154l84 684q-14 3 -34.5 6 t-26.5 4q-22 4 -35 6q-3 0 -6 0.5t-5.5 1t-3.5 0.5q-49 10 -43 64l15 121h164h275h155l-14 -121q-6 -53 -59 -64q-1 0 -2.5 -0.5t-3 -0.5t-4 -0.5t-4.5 -0.5q-6 -1 -31 -6q-7 -1 -27.5 -4t-34.5 -6l-84 -684q-17 -135 -72 -244q-58 -115 -146 -194q-93 -83 -209 -127 q-120 -45 -262 -45t-250 45t-178 127t-98 194t-12 244l84 684q-13 3 -33.5 6t-26.5 4q-14 3 -29 6q-2 0 -6.5 0.5t-6.5 1.5q-49 10 -43 64zM643 1586l226 207q18 16 26 21q12 8 24 12q12 5 26 6q20 2 35 2h282l-331 -221q-1 -1 -9.5 -6.5t-12.5 -7.5q-14 -6 -21 -8t-21 -4 q-7 -1 -25 -1h-199z" />
<glyph unicode="&#xdb;" horiz-adv-x="1631" d="M41 1360l14 121h156h275h164l-15 -121q-6 -53 -59 -64q-1 0 -3.5 -0.5t-5.5 -1t-6 -0.5q-11 -2 -36 -6q-7 -1 -64 -10l-84 -683q-11 -87 4 -154q15 -70 52 -117q38 -48 97 -75q60 -27 139 -27q81 0 147 27q65 27 115 75q50 49 81 116q32 69 42 154l84 684q-14 3 -34.5 6 t-26.5 4q-22 4 -35 6q-3 0 -6 0.5t-5.5 1t-3.5 0.5q-49 10 -43 64l15 121h164h275h155l-14 -121q-6 -53 -59 -64q-1 0 -2.5 -0.5t-3 -0.5t-4 -0.5t-4.5 -0.5q-6 -1 -31 -6q-7 -1 -27.5 -4t-34.5 -6l-84 -684q-17 -135 -72 -244q-58 -115 -146 -194q-93 -83 -209 -127 q-120 -45 -262 -45t-250 45t-178 127t-98 194t-12 244l84 684q-13 3 -33.5 6t-26.5 4q-14 3 -29 6q-2 0 -6.5 0.5t-6.5 1.5q-49 10 -43 64zM463 1586l275 224h252l221 -224h-192q-17 0 -33 4q-15 4 -28 13l-95 68q-3 1 -7 5q-1 1 -3.5 3t-3.5 3q-1 -1 -3.5 -2.5t-3.5 -2.5 q-6 -4 -10 -6l-112 -68q-15 -9 -31 -13q-17 -4 -34 -4h-192z" />
<glyph unicode="&#xdc;" horiz-adv-x="1631" d="M41 1360l14 121h156h275h164l-15 -121q-6 -53 -59 -64q-1 0 -3.5 -0.5t-5.5 -1t-6 -0.5q-11 -2 -36 -6q-7 -1 -64 -10l-84 -683q-11 -87 4 -154q15 -70 52 -117q38 -48 97 -75q60 -27 139 -27q81 0 147 27q65 27 115 75q50 49 81 116q32 69 42 154l84 684q-14 3 -34.5 6 t-26.5 4q-22 4 -35 6q-3 0 -6 0.5t-5.5 1t-3.5 0.5q-49 10 -43 64l15 121h164h275h155l-14 -121q-6 -53 -59 -64q-1 0 -2.5 -0.5t-3 -0.5t-4 -0.5t-4.5 -0.5q-6 -1 -31 -6q-7 -1 -27.5 -4t-34.5 -6l-84 -684q-17 -135 -72 -244q-58 -115 -146 -194q-93 -83 -209 -127 q-120 -45 -262 -45t-250 45t-178 127t-98 194t-12 244l84 684q-13 3 -33.5 6t-26.5 4q-14 3 -29 6q-2 0 -6.5 0.5t-6.5 1.5q-49 10 -43 64zM493 1707q3 24 18 53q13 24 34 44q18 17 46 30q23 11 52 11q31 0 53 -11q29 -14 42 -30q18 -22 25 -44q8 -27 5 -53q-3 -28 -18 -52 q-16 -26 -36 -43q-22 -19 -48 -29t-56 -10q-28 0 -49 10q-22 10 -39 29q-16 17 -24 43q-8 25 -5 52zM936 1707q3 26 17 53q12 23 35 44q18 17 48 30q25 11 54 11q30 0 52 -11q25 -13 40 -30q17 -20 24 -44t4 -53q-3 -27 -17 -52q-15 -27 -34 -43q-22 -19 -48 -29t-55 -10 q-28 0 -51 10q-24 11 -41 29q-16 17 -24 43q-7 23 -4 52z" />
<glyph unicode="&#xdd;" horiz-adv-x="1517" d="M43 1360l15 121h33h37h85h121h277l-15 -121q-6 -53 -59 -64q-2 0 -10 -2q-1 0 -4.5 -1t-7.5 -2l-8 -2q-2 -1 -13 -3.5t-17 -3.5l152 -357q20 -49 31 -84q16 -52 22 -77q12 26 40 78q24 43 51 83l238 357q-7 2 -29 7q-5 1 -12 3l-7 2q-8 2 -9 2q-49 10 -43 64l15 121h275 h123h85h36h34l-15 -121q-6 -53 -59 -64q-1 0 -3 -0.5t-5 -1t-5 -0.5q-6 -1 -31 -6q-10 -2 -62 -10l-504 -703l-45 -372q13 -3 32.5 -6.5t26.5 -4.5q8 -2 18 -3.5t11 -1.5q10 -2 13 -3q49 -10 43 -64l-14 -120h-155h-276h-155l15 120q6 53 59 64q5 2 13 3q2 0 7 1t11 2t13 2 t27.5 4.5t34.5 6.5l46 372l-333 703q-13 3 -33 6t-26 4q-14 3 -29 6q-10 2 -13 2q-49 10 -43 64zM590 1586l226 207q20 18 25 21q12 8 24 12q12 5 26 6q20 2 35 2h282l-330 -221q-21 -13 -23 -14q-16 -7 -20 -8q-7 -2 -21 -4q-7 -1 -26 -1h-198z" />
<glyph unicode="&#xde;" horiz-adv-x="1232" d="M38 0l182 1481h275l-31 -254h207q146 0 253 -35q104 -34 167 -97q64 -64 86 -150t10 -190q-13 -107 -60 -197q-47 -91 -126 -155q-78 -64 -192 -100q-113 -36 -256 -36h-207l-33 -267h-275zM373 482h206q78 0 135 19q61 20 100 55q44 39 66 86q25 53 32 113q7 58 -5 107 q-11 46 -46 82q-33 34 -86 52q-54 18 -130 18h-207z" />
<glyph unicode="&#xdf;" horiz-adv-x="1201" d="M38 0l124 1008q13 106 62 199q49 94 125 158q79 67 182 104q102 37 228 37q119 0 201 -35q80 -34 127 -87q48 -54 64 -112q17 -61 11 -113q-8 -61 -32 -101q-27 -45 -59 -74q-33 -30 -72 -55q-14 -9 -38.5 -24.5t-32.5 -20.5q-27 -18 -55 -45q-24 -24 -27 -53 q-4 -33 19 -58q23 -24 57 -48q9 -7 77 -50q44 -28 75 -65q32 -38 52 -93q18 -51 9 -133q-11 -87 -51 -153q-41 -67 -101 -111q-63 -46 -137 -68q-78 -23 -158 -23q-47 0 -92 9q-44 9 -85 27q-44 20 -75 41q-36 25 -63 52l71 96q12 18 29 27t40 9q24 0 44 -14q17 -12 43 -28 q28 -17 55 -29q30 -13 77 -13q66 0 110 38q45 39 52 100q6 48 -18 80q-25 33 -62 57q-35 23 -84 49q-47 25 -82 56q-38 33 -60 79q-22 45 -13 116q8 60 34 101q25 40 63 74q37 34 77 59q31 20 77 54q34 25 61 59q24 29 30 75q4 32 -4 64q-7 28 -31 52q-23 23 -61 36t-95 13 q-135 0 -214 -82q-78 -81 -98 -242l-123 -999h-253z" />
<glyph unicode="&#xe0;" horiz-adv-x="1061" d="M37 361q0 99 23 184q25 91 67 167q43 78 105 144q63 67 138 113q80 48 165 73q90 26 187 26q75 0 142 -10q73 -11 140 -37l-103 -822l1 1q22 -4 52 -9q5 -1 10.5 -2t8 -1.5t3.5 -0.5q49 -10 43 -65l-15 -120h-127h-134q-45 0 -64 22t-19 54l9 143q-68 -107 -157 -171 q-87 -63 -191 -63q-63 0 -112 23q-52 24 -90 70q-37 44 -60 117q-22 69 -22 164zM290 406q0 -109 35 -161q35 -51 95 -51q42 0 82 28q41 29 77 80q37 53 66 119q33 75 53 147l40 318q-27 3 -51 3q-86 0 -158 -39q-75 -40 -126 -105q-52 -63 -83 -154q-30 -87 -30 -185z M334 1497h236q41 0 60 -14q20 -15 31 -40l116 -249h-145q-27 0 -45 8q-17 8 -33 28z" />
<glyph unicode="&#xe1;" horiz-adv-x="1060" d="M37 361q0 99 23 184q25 91 67 167q43 78 105 144q63 67 138 113q80 48 165 73q90 26 187 26q75 0 142 -10q73 -11 140 -37l-103 -822l1 1q22 -4 52 -9q5 -1 10.5 -2t8 -1.5t3.5 -0.5q49 -10 43 -65l-15 -120h-127h-134q-45 0 -64 22t-19 54l9 143q-68 -107 -157 -171 q-87 -63 -191 -63q-63 0 -112 23q-52 24 -90 70q-37 44 -60 117q-22 69 -22 164zM290 406q0 -109 35 -161q35 -51 95 -51q42 0 82 28q41 29 77 80q37 53 66 119q33 75 53 147l40 318q-27 3 -51 3q-86 0 -158 -39q-75 -40 -126 -105q-52 -63 -83 -154q-30 -87 -30 -185z M490 1194l176 249q17 26 41 40q23 14 63 14h246l-286 -267q-22 -21 -41 -28q-21 -8 -48 -8h-151z" />
<glyph unicode="&#xe2;" horiz-adv-x="1060" d="M37 361q0 99 23 184q25 91 67 167q43 78 105 144q63 67 138 113q80 48 165 73q90 26 187 26q75 0 142 -10q73 -11 140 -37l-103 -822l1 1q22 -4 52 -9q5 -1 10.5 -2t8 -1.5t3.5 -0.5q49 -10 43 -65l-15 -120h-127h-134q-45 0 -64 22t-19 54l9 143q-68 -107 -157 -171 q-87 -63 -191 -63q-63 0 -112 23q-52 24 -90 70q-37 44 -60 117q-22 69 -22 164zM271 1196l269 285h238l200 -285h-169q-33 0 -49 18l-96 98q-1 1 -4 4.5t-5 5.5q-7 7 -10 12q-6 -8 -12 -12q-2 -2 -6 -5.5t-6 -4.5l-121 -98q-6 -5 -24 -12q-15 -6 -30 -6h-175zM290 406 q0 -109 35 -161q35 -51 95 -51q42 0 82 28q41 29 77 80q37 53 66 119q33 75 53 147l40 318q-27 3 -51 3q-86 0 -158 -39q-75 -40 -126 -105q-52 -63 -83 -154q-30 -87 -30 -185z" />
<glyph unicode="&#xe3;" horiz-adv-x="1060" d="M37 361q0 99 23 184q25 91 67 167q43 78 105 144q63 67 138 113q80 48 165 73q90 26 187 26q75 0 142 -10q73 -11 140 -37l-103 -822l1 1q22 -4 52 -9q5 -1 10.5 -2t8 -1.5t3.5 -0.5q49 -10 43 -65l-15 -120h-127h-134q-45 0 -64 22t-19 54l9 143q-68 -107 -157 -171 q-87 -63 -191 -63q-63 0 -112 23q-52 24 -90 70q-37 44 -60 117q-22 69 -22 164zM290 406q0 -109 35 -161q35 -51 95 -51q42 0 82 28q41 29 77 80q37 53 66 119q33 75 53 147l40 318q-27 3 -51 3q-86 0 -158 -39q-75 -40 -126 -105q-52 -63 -83 -154q-30 -87 -30 -185z M302 1222q8 59 28 104q20 44 55 79t73 52q43 19 86 19q36 0 67 -14q40 -18 57 -28q9 -5 25 -15t22 -14q22 -13 43 -13q30 0 50 17q19 16 25 60h154q-7 -55 -29 -103q-21 -46 -53 -80t-73 -52q-38 -17 -86 -17q-38 0 -67 13q-36 16 -56 28q-34 20 -49 29q-22 13 -42 13 q-31 0 -49 -17q-19 -18 -25 -61h-156z" />
<glyph unicode="&#xe4;" horiz-adv-x="1060" d="M37 361q0 99 23 184q25 91 67 167q43 78 105 144q63 67 138 113q80 48 165 73q90 26 187 26q75 0 142 -10q73 -11 140 -37l-103 -822l1 1q22 -4 52 -9q5 -1 10.5 -2t8 -1.5t3.5 -0.5q49 -10 43 -65l-15 -120h-127h-134q-45 0 -64 22t-19 54l9 143q-68 -107 -157 -171 q-87 -63 -191 -63q-63 0 -112 23q-52 24 -90 70q-37 44 -60 117q-22 69 -22 164zM290 406q0 -109 35 -161q35 -51 95 -51q42 0 82 28q41 29 77 80q37 53 66 119q33 75 53 147l40 318q-27 3 -51 3q-86 0 -158 -39q-75 -40 -126 -105q-52 -63 -83 -154q-30 -87 -30 -185z M307 1323q3 31 18 56q17 28 36 45q22 19 49 31q25 11 54 11q31 0 53 -11q27 -13 43 -31q17 -19 25 -45q8 -27 5 -56t-18 -54t-37 -43q-24 -19 -49 -29q-28 -11 -57 -11q-26 0 -51 11q-24 11 -41 29q-18 20 -25 43q-8 27 -5 54zM690 1323q3 31 18 56t36 45q20 19 48 31 q25 11 56 11t53 -11q27 -14 42 -31q18 -21 25 -45q8 -27 5 -56t-18 -54q-14 -24 -36 -43q-21 -18 -49 -29t-57 -11q-28 0 -53 11q-22 10 -40 29q-18 20 -25 43q-8 27 -5 54z" />
<glyph unicode="&#xe5;" horiz-adv-x="1060" d="M37 361q0 99 23 184q25 91 67 167q43 78 105 144q63 67 138 113q80 48 165 73q90 26 187 26q75 0 142 -10q73 -11 140 -37l-103 -822l1 1q22 -4 52 -9q5 -1 10.5 -2t8 -1.5t3.5 -0.5q49 -10 43 -65l-15 -120h-127h-134q-45 0 -64 22t-19 54l9 143q-68 -107 -157 -171 q-87 -63 -191 -63q-63 0 -112 23q-52 24 -90 70q-37 44 -60 117q-22 69 -22 164zM290 406q0 -109 35 -161q35 -51 95 -51q42 0 82 28q41 29 77 80q37 53 66 119q33 75 53 147l40 318q-27 3 -51 3q-86 0 -158 -39q-75 -40 -126 -105q-52 -63 -83 -154q-30 -87 -30 -185z M417 1357q6 46 29 86q22 39 57 66q37 29 78 43q46 16 88 16q43 0 86 -16q37 -14 68 -43q30 -28 43 -66q14 -40 8 -86q-6 -48 -29 -84q-24 -38 -59 -65q-34 -27 -78 -42t-90 -15t-85 15q-38 15 -67 42q-27 25 -41 65q-14 39 -8 84zM554 1357q-5 -40 16 -65q21 -26 66 -26 q40 0 69 26q27 24 32 65q6 42 -16 68q-21 25 -63 25q-46 0 -72 -25t-32 -68z" />
<glyph unicode="&#xe6;" horiz-adv-x="1526" d="M37 238q0 68 30 136q29 66 101 120q73 54 191 90q120 36 299 36q2 16 4.5 37.5t2.5 27.5q2 26 2 32q0 81 -34 119t-100 38q-57 0 -93 -14q-39 -15 -69 -33q-11 -7 -30 -18t-25 -14q-26 -15 -55 -15q-23 0 -41 13q-17 12 -24 31l-34 79q95 84 190 125t209 41 q107 0 172 -42q63 -41 92 -118q62 72 149 115q86 42 193 42q65 0 122 -21q56 -21 98 -58q41 -37 65 -86t24 -105q0 -35 -11 -76q-9 -35 -37 -74q-24 -33 -70 -67q-42 -31 -111 -55q-72 -26 -161 -40q-93 -15 -216 -15q0 -150 56 -220q55 -69 154 -69q70 0 113 18 q42 17 76 40q31 21 57 39t54 18q13 0 25 -6q15 -7 20 -16l65 -78q-53 -53 -106 -95q-47 -38 -107 -65q-58 -27 -115 -38q-60 -12 -132 -12q-98 0 -181 50t-129 154q-34 -53 -80 -93q-44 -38 -94 -64q-48 -25 -102 -37q-48 -11 -103 -11q-153 0 -228 65q-76 66 -76 189z M272 268q0 -57 31 -88q29 -29 85 -29q49 0 86 15q39 16 73 50q31 31 55 85q23 52 32 122l5 47q-105 0 -178 -17q-68 -16 -113 -45q-43 -27 -59 -63q-17 -37 -17 -77zM882 612q112 9 187 26q72 16 114 39q42 22 57 50q15 27 15 58q0 44 -29 75q-28 30 -90 30q-53 0 -96 -20 q-40 -19 -73 -56q-32 -36 -53 -88q-19 -46 -32 -114z" />
<glyph unicode="&#xe7;" horiz-adv-x="982" d="M44 527q13 112 60 215q45 100 118 171q74 73 174 113q102 41 224 41q130 0 322 -76l-40 -323h-9h-25h-84q-40 0 -43 38q-1 19 2 148q-80 20 -131 20q-68 0 -120 -24q-53 -24 -92 -69t-63 -109q-23 -63 -34 -145q-10 -83 0 -149q11 -67 38 -110q29 -46 73 -68 q46 -23 106 -23q61 0 100 15q38 15 67 33q16 10 48 33q20 14 45 14q32 0 43 -23l61 -92q-48 -50 -101 -83q-54 -34 -108 -53q-60 -21 -113 -28q-24 -4 -39 -5l-18 -44q89 -23 120 -61q32 -39 26 -91q-5 -35 -25 -61q-21 -26 -57 -47q-40 -22 -82 -31q-46 -10 -103 -10 q-42 0 -78 6q-41 7 -70 17l33 78q9 24 32 24q5 0 15 -2q3 -1 8.5 -3t7.5 -3q11 -4 21 -5q16 -2 28 -2q35 0 52 13q18 14 21 31q3 30 -31 43q-32 12 -111 23l11 25l8 21l35 83q-47 8 -95 29q-81 36 -137 106q-55 69 -81 170t-9 230z" />
<glyph unicode="&#xe8;" horiz-adv-x="965" d="M38 421q0 83 18 163q18 81 52 151q37 78 82 132q51 62 112 105q63 45 136 68q77 25 159 25q83 0 145 -24t103 -61t62 -83q21 -47 21 -90q0 -72 -28 -129q-28 -58 -101 -105q-70 -45 -197 -79t-317 -53v-13q0 -248 210 -248q45 0 79 9q37 10 61 21q23 11 47 28 q21 15 39 27t36 21t38 9q12 0 24 -6q14 -7 21 -17l64 -77q-58 -58 -106 -95t-107 -65q-55 -26 -115 -38t-132 -12q-93 0 -167 31q-77 32 -128 88q-54 57 -82 137q-29 82 -29 180zM296 1497h237q41 0 60 -14q18 -14 30 -40l116 -249h-144q-28 0 -46 8q-17 8 -33 28zM305 603 q132 19 204 38q78 21 120 45q43 25 57 52q13 26 13 60q0 14 -6 31q-5 14 -21 30q-11 11 -36 21q-22 9 -53 9q-53 0 -96 -21q-42 -20 -79 -59q-34 -35 -61 -91q-29 -59 -42 -115z" />
<glyph unicode="&#xe9;" horiz-adv-x="1013" d="M38 421q0 83 18 163q18 81 52 151q37 78 82 132q51 62 112 105q63 45 136 68q77 25 159 25q83 0 145 -24t103 -61t62 -83q21 -47 21 -90q0 -72 -28 -129q-28 -58 -101 -105q-70 -45 -197 -79t-317 -53v-13q0 -248 210 -248q45 0 79 9q37 10 61 21q23 11 47 28 q21 15 39 27t36 21t38 9q12 0 24 -6q14 -7 21 -17l64 -77q-58 -58 -106 -95t-107 -65q-55 -26 -115 -38t-132 -12q-93 0 -167 31q-77 32 -128 88q-54 57 -82 137q-29 82 -29 180zM305 603q132 19 204 38q78 21 120 45q43 25 57 52q13 26 13 60q0 14 -6 31q-5 14 -21 30 q-11 11 -36 21q-22 9 -53 9q-53 0 -96 -21q-42 -20 -79 -59q-34 -35 -61 -91q-29 -59 -42 -115zM453 1194l176 249q18 27 40 40q23 14 64 14h245l-285 -267q-22 -21 -41 -28q-21 -8 -48 -8h-151z" />
<glyph unicode="&#xea;" horiz-adv-x="975" d="M38 421q0 83 18 163q18 81 52 151q37 78 82 132q51 62 112 105q63 45 136 68q77 25 159 25q83 0 145 -24t103 -61t62 -83q21 -47 21 -90q0 -72 -28 -129q-28 -58 -101 -105q-70 -45 -197 -79t-317 -53v-13q0 -248 210 -248q45 0 79 9q37 10 61 21q23 11 47 28 q21 15 39 27t36 21t38 9q12 0 24 -6q14 -7 21 -17l64 -77q-58 -58 -106 -95t-107 -65q-55 -26 -115 -38t-132 -12q-93 0 -167 31q-77 32 -128 88q-54 57 -82 137q-29 82 -29 180zM234 1196l269 285h238l199 -285h-169q-33 0 -49 18l-95 98l-10 10q-5 4 -9 12q-6 -8 -12 -12 q-2 -2 -6 -5.5t-6 -4.5l-122 -98q-6 -5 -23 -12q-15 -6 -30 -6h-175zM305 603q132 19 204 38q78 21 120 45q43 25 57 52q13 26 13 60q0 14 -6 31q-5 14 -21 30q-11 11 -36 21q-22 9 -53 9q-53 0 -96 -21q-42 -20 -79 -59q-34 -35 -61 -91q-29 -59 -42 -115z" />
<glyph unicode="&#xeb;" horiz-adv-x="974" d="M37 421q0 83 18 163q19 84 51 151q36 75 83 132q51 62 112 105q63 45 136 68q77 25 159 25q84 0 145 -24q62 -24 103 -61t62 -83q21 -47 21 -90q0 -72 -28 -129q-28 -58 -101 -105q-70 -45 -197 -79t-317 -53v-13q0 -248 210 -248q44 0 79 9q37 10 61 21q23 11 47 28 q21 15 39 27t36 21t38 9q12 0 24 -6q14 -7 21 -17l64 -77q-58 -58 -106 -95t-107 -65q-55 -26 -115 -38t-132 -12q-93 0 -167 31q-77 32 -128 88q-54 57 -82 137q-29 82 -29 180zM269 1323q3 31 18 56q17 28 36 45q22 19 49 31q25 11 54 11q31 0 53 -11q25 -12 42 -31 q19 -20 26 -45q7 -24 4 -56q-3 -31 -17 -54q-15 -25 -37 -43q-23 -19 -50 -29q-28 -11 -56 -11q-26 0 -51 11q-24 11 -41 29q-20 21 -26 43q-7 24 -4 54zM304 603q132 19 204 38q78 21 120 45q43 25 57 52q13 26 13 60q0 14 -6 31q-5 14 -21 30q-11 11 -36 21q-23 9 -53 9 q-52 0 -96 -21q-42 -20 -79 -59q-34 -35 -61 -91q-29 -59 -42 -115zM652 1323q3 31 18 56t36 45q20 19 48 31q25 11 56 11t53 -11q27 -14 42 -31q18 -21 25 -45t4 -56q-3 -31 -17 -54q-13 -23 -37 -43q-21 -18 -49 -29t-56 -11t-53 11q-24 11 -41 29q-18 20 -25 43 q-7 24 -4 54z" />
<glyph unicode="&#xec;" horiz-adv-x="550" d="M40 930l14 121h156h252l-104 -848q13 -3 33 -6.5t27 -4.5q8 -2 18 -3.5t11 -1.5q10 -2 13 -3q49 -10 43 -64l-14 -120h-155h-253l25 203l79 645q-13 3 -33.5 6t-26.5 4q-14 3 -29 6q-2 0 -6.5 0.5t-6.5 1.5q-49 10 -43 64zM71 1497h236q42 0 61 -14q18 -14 30 -40 l116 -249h-144q-28 0 -46 8q-17 8 -33 28z" />
<glyph unicode="&#xed;" horiz-adv-x="788" d="M40 930l14 121h156h252l-104 -848q13 -3 33 -6.5t27 -4.5q8 -2 18 -3.5t11 -1.5q10 -2 13 -3q49 -10 43 -64l-14 -120h-155h-253l25 203l79 645q-13 3 -33.5 6t-26.5 4q-14 3 -29 6q-2 0 -6.5 0.5t-6.5 1.5q-49 10 -43 64zM227 1194l176 249q17 26 41 40q23 14 63 14h246 l-286 -267q-22 -21 -41 -28q-21 -8 -47 -8h-152z" />
<glyph unicode="&#xee;" horiz-adv-x="777" d="M35 1196l269 285h238l199 -285h-169q-32 0 -49 18l-95 98l-10 10q-4 4 -9 12q-6 -8 -12 -12q-2 -2 -6 -5.5t-6 -4.5l-122 -98q-6 -5 -23 -12q-15 -6 -30 -6h-175zM66 930l15 121h155h253l-104 -848q13 -3 32.5 -6.5t26.5 -4.5q8 -2 18.5 -3.5t11.5 -1.5q10 -2 13 -3 q49 -10 43 -64l-15 -120h-155h-253l25 203l79 645q-13 3 -33 6t-26 4t-12 2.5t-11.5 2.5t-6.5 1q-2 0 -6 0.5t-6 1.5q-50 11 -44 64z" />
<glyph unicode="&#xef;" horiz-adv-x="750" d="M41 930l14 121h156h253l-105 -848q13 -3 33 -6.5t27 -4.5q8 -2 18 -3.5t11 -1.5q10 -2 13 -3q49 -10 43 -64l-14 -120h-155h-253l25 203l79 645q-13 3 -33.5 6t-26.5 4q-14 3 -29 6q-2 0 -6.5 0.5t-6.5 1.5q-49 10 -43 64zM45 1323q3 31 18 56q16 26 37 45q23 20 48 31 t54 11q32 0 54 -11q25 -12 42 -31q19 -20 26 -45q7 -24 4 -56q-3 -29 -18 -54q-16 -27 -36 -43q-23 -19 -50 -29q-28 -11 -56 -11q-27 0 -52 11q-24 11 -41 29q-18 20 -25 43q-8 27 -5 54zM428 1323q3 31 18 56t36 45q19 18 49 31q25 11 55 11q32 0 54 -11q26 -13 41 -31 q20 -23 26 -45q7 -24 4 -56q-3 -29 -18 -54q-14 -24 -36 -43q-21 -18 -49 -29t-56 -11t-53 11q-24 11 -41 29q-18 20 -25 43q-8 27 -5 54z" />
<glyph unicode="&#xf0;" horiz-adv-x="1132" d="M42 485q12 96 55 180q42 83 113 149q67 63 159 101q91 38 197 38q100 0 174 -35q78 -37 131 -103q-8 108 -50 187q-43 79 -121 137l-219 -131l-37 79q-8 18 -7 34q5 31 39 49l82 44q-25 11 -66 25q-13 5 -73 23q-26 8 -40 25q-15 18 -10 49q2 17 13 43l40 87 q106 -19 194 -49q86 -29 170 -82l195 117l40 -82q7 -18 6 -32q-1 -13 -11 -26q-11 -14 -24 -21l-89 -47q53 -53 91 -116q41 -68 64 -141q25 -81 31 -168q6 -99 -6 -196q-18 -149 -68 -269t-125 -201t-180 -125q-102 -43 -231 -43q-107 0 -193 34q-88 35 -146 99 q-59 66 -86 157q-27 93 -12 210zM293 483q-9 -79 3 -131q14 -58 43 -96q31 -40 73 -59q45 -20 97 -20q57 0 112 22t96 69q44 50 74 123t47 184q-10 37 -30 72q-18 32 -50 59q-29 25 -70 40q-40 15 -94 15q-63 0 -118 -22q-51 -20 -91 -59q-36 -35 -62 -88q-22 -45 -30 -109z " />
<glyph unicode="&#xf1;" horiz-adv-x="1208" d="M40 930l14 121h156h154q50 0 59 -46l7 -83q32 29 75 59q39 27 80 46q42 20 88 30q44 10 100 10q85 0 149 -29q63 -28 101 -82q39 -54 52 -126q13 -73 3 -161l-57 -466q13 -3 32.5 -6.5t26.5 -4.5q8 -2 18.5 -3.5t11.5 -1.5q10 -2 13 -3q49 -10 43 -64l-15 -120h-155h-253 l82 669q12 96 -26 149q-37 52 -127 52q-68 0 -127 -29q-60 -29 -118 -81l-41 -334l-6 -49l-22 -174l-24 -203h-253l37 306l67 542q-13 3 -33.5 6t-26.5 4q-14 3 -29 6q-2 0 -6.5 0.5t-6.5 1.5q-49 10 -43 64zM362 1222q8 59 28 104q20 44 55 79t73 52q43 19 86 19 q36 0 67 -14q40 -18 57 -28q9 -5 25 -15t22 -14q22 -13 43 -13q30 0 50 17q19 16 25 60h153q-8 -58 -28 -103q-20 -44 -54 -80q-33 -35 -72 -52q-38 -17 -87 -17q-38 0 -67 13q-31 14 -55 28q-34 20 -49 29q-22 13 -42 13q-31 0 -49 -17q-19 -18 -25 -61h-156z" />
<glyph unicode="&#xf2;" horiz-adv-x="1132" d="M44 527q15 123 65 225q50 101 126 170q77 69 178 107q102 38 218 38t209 -38q91 -37 150 -107q60 -71 84 -170q24 -100 9 -225q-15 -126 -64 -225q-49 -100 -126 -171t-177 -108q-102 -38 -218 -38t-209 38q-91 37 -151 108q-59 70 -85 171q-24 96 -9 225zM305 525 q-21 -169 31 -257q53 -89 186 -89q132 0 205 88q74 89 95 258q21 171 -31 259q-53 89 -184 89q-133 0 -207 -89t-95 -259zM357 1497h237q41 0 60 -14q20 -15 31 -40l115 -249h-144q-28 0 -46 8q-17 8 -33 28z" />
<glyph unicode="&#xf3;" horiz-adv-x="1132" d="M44 527q15 123 65 225q50 101 126 170q77 69 178 107q102 38 218 38t209 -38q91 -37 150 -107q60 -71 84 -170q24 -100 9 -225q-15 -126 -64 -225q-49 -100 -126 -171t-177 -108q-102 -38 -218 -38t-209 38q-91 37 -151 108q-59 70 -85 171q-24 96 -9 225zM305 525 q-21 -169 31 -257q53 -89 186 -89q132 0 205 88q74 89 95 258q21 171 -31 259q-53 89 -184 89q-133 0 -207 -89t-95 -259zM514 1194l176 249q18 27 40 40q23 14 64 14h245l-285 -267q-22 -21 -41 -28q-21 -8 -48 -8h-151z" />
<glyph unicode="&#xf4;" horiz-adv-x="1132" d="M44 527q15 123 65 225q50 101 126 170q77 69 178 107q102 38 218 38t209 -38q91 -37 150 -107q60 -71 84 -170q24 -100 9 -225q-15 -126 -64 -225q-49 -100 -126 -171t-177 -108q-102 -38 -218 -38t-209 38q-91 37 -151 108q-59 70 -85 171q-24 96 -9 225zM295 1196 l269 285h238l199 -285h-169q-32 0 -49 18l-95 98l-10 10q-4 4 -9 12q-6 -8 -12 -12q-2 -2 -6 -5.5t-6 -4.5l-122 -98q-6 -5 -23 -12q-15 -6 -30 -6h-175zM305 525q-21 -169 31 -257q53 -89 186 -89q132 0 205 88q74 89 95 258q21 171 -31 259q-53 89 -184 89 q-133 0 -207 -89t-95 -259z" />
<glyph unicode="&#xf5;" horiz-adv-x="1132" d="M44 527q15 123 65 225q50 101 126 170q77 69 178 107q102 38 218 38t209 -38q91 -37 150 -107q60 -71 84 -170q24 -100 9 -225q-15 -126 -64 -225q-49 -100 -126 -171t-177 -108q-102 -38 -218 -38t-209 38q-91 37 -151 108q-59 70 -85 171q-24 96 -9 225zM305 525 q-21 -169 31 -257q53 -89 186 -89q132 0 205 88q74 89 95 258q21 171 -31 259q-53 89 -184 89q-133 0 -207 -89t-95 -259zM326 1222q8 59 28 104q20 44 55 79t73 52q43 19 86 19q36 0 67 -14q40 -18 57 -28q9 -5 25 -15t22 -14q22 -13 43 -13q30 0 50 17q19 16 25 60h153 q-8 -58 -28 -103q-20 -44 -54 -80q-33 -35 -72 -52q-38 -17 -87 -17q-38 0 -67 13q-31 14 -55 28q-34 20 -49 29q-22 13 -43 13q-30 0 -48 -17q-19 -18 -25 -61h-156z" />
<glyph unicode="&#xf6;" horiz-adv-x="1132" d="M44 527q15 123 65 225q50 101 126 170q77 69 178 107q102 38 218 38t209 -38q91 -37 150 -107q60 -71 84 -170q24 -100 9 -225q-15 -126 -64 -225q-49 -100 -126 -171t-177 -108q-102 -38 -218 -38t-209 38q-91 37 -151 108q-59 70 -85 171q-24 96 -9 225zM305 525 q-21 -169 31 -257q53 -89 186 -89q132 0 205 88q74 89 95 258q21 171 -31 259q-53 89 -184 89q-133 0 -207 -89t-95 -259zM331 1323q3 31 18 56q17 28 36 45q22 19 49 31q25 11 54 11q31 0 53 -11q25 -12 42 -31q19 -20 26 -45q7 -24 4 -56q-3 -31 -17 -54q-15 -25 -37 -43 q-23 -19 -50 -29q-28 -11 -56 -11q-26 0 -51 11q-24 11 -41 29q-18 20 -25 43q-8 27 -5 54zM714 1323q3 31 18 56t36 45q20 19 48 31q25 11 56 11t53 -11q27 -14 42 -31q18 -21 25 -45t4 -56q-3 -31 -17 -54q-14 -24 -36 -43q-20 -17 -50 -29q-28 -11 -56 -11t-53 11 q-24 11 -41 29q-18 20 -25 43q-7 24 -4 54z" />
<glyph unicode="&#xf7;" horiz-adv-x="1102" d="M41 594l23 187h999l-23 -187h-999zM352 323q5 33 19 60t38 49q22 21 53 33q30 12 63 12q32 0 59 -12q29 -13 46 -33q18 -21 27 -49q9 -30 5 -60q-4 -31 -20 -61q-15 -28 -39 -49q-22 -19 -54 -32q-30 -12 -62 -12q-33 0 -60 12q-28 13 -45 32t-26 49q-9 27 -4 61z M441 1052q5 33 19 60q13 25 39 49q22 21 53 33q30 12 63 12q32 0 59 -12t45 -33q20 -23 28 -49q9 -27 4 -60q-5 -34 -19 -61q-14 -26 -40 -49q-23 -20 -53 -32t-62 -12q-33 0 -60 12q-28 13 -45 32t-26 49q-9 29 -5 61z" />
<glyph unicode="&#xf8;" horiz-adv-x="1318" d="M35 -79l184 214q-59 71 -83 170q-23 96 -8 222q15 123 65 225q50 101 126 170q77 70 177 107q102 38 219 38q75 0 138 -15q60 -14 115 -44l67 76q20 24 28 32q13 14 27 21q15 9 29 11q22 4 39 4h125l-205 -238q57 -70 81 -168q23 -95 8 -219q-15 -126 -64 -225 q-49 -100 -126 -171t-177 -108q-102 -38 -218 -38q-78 0 -137 14q-62 15 -116 44l-40 -48q-34 -40 -79 -57t-82 -17h-93zM372 525q-15 -120 8 -201l449 522q-53 35 -137 35q-134 0 -216 -93q-83 -94 -104 -263zM468 204q52 -33 137 -33q131 0 214 92q82 91 103 262 q7 54 5 110q-1 49 -12 88z" />
<glyph unicode="&#xf9;" horiz-adv-x="1208" d="M40 930l14 121h156h253l-82 -668q-12 -96 26 -149t127 -53q63 0 126 29q59 27 119 81l68 557q-94 17 -101 18q-50 11 -44 64l15 121h155h253l-104 -848q60 -10 102 -19q49 -10 43 -64l-15 -120h-155h-155q-49 0 -58 46l-8 84q-42 -37 -74 -60q-35 -25 -80 -46 q-42 -19 -89 -30q-44 -10 -99 -10q-85 0 -149 29q-62 28 -101 82q-38 51 -52 127q-13 73 -3 161l57 465l-102 18q-49 10 -43 64zM403 1497h236q41 0 60 -14q20 -15 31 -40l116 -249h-145q-27 0 -45 8q-17 8 -33 28z" />
<glyph unicode="&#xfa;" horiz-adv-x="1208" d="M40 930l14 121h156h253l-82 -668q-12 -96 26 -149t127 -53q63 0 126 29q59 27 119 81l68 557q-94 17 -101 18q-50 11 -44 64l15 121h155h253l-104 -848q60 -10 102 -19q49 -10 43 -64l-15 -120h-155h-155q-49 0 -58 46l-8 84q-42 -37 -74 -60q-35 -25 -80 -46 q-42 -19 -89 -30q-44 -10 -99 -10q-85 0 -149 29q-62 28 -101 82q-38 51 -52 127q-13 73 -3 161l57 465l-102 18q-49 10 -43 64zM559 1194l176 249q17 26 41 40q23 14 63 14h246l-286 -267q-22 -21 -41 -28q-21 -8 -48 -8h-151z" />
<glyph unicode="&#xfb;" horiz-adv-x="1208" d="M40 930l14 121h156h253l-82 -668q-12 -96 26 -149t127 -53q63 0 126 29q59 27 119 81l68 557q-94 17 -101 18q-50 11 -44 64l15 121h155h253l-104 -848q60 -10 102 -19q49 -10 43 -64l-15 -120h-155h-155q-49 0 -58 46l-8 84q-42 -37 -74 -60q-35 -25 -80 -46 q-42 -19 -89 -30q-44 -10 -99 -10q-85 0 -149 29q-62 28 -101 82q-38 51 -52 127q-13 73 -3 161l57 465l-102 18q-49 10 -43 64zM340 1196l269 285h238l200 -285h-169q-32 0 -49 18l-96 98q-1 1 -4 4.5t-5 5.5q-7 7 -10 12q-6 -8 -12 -12q-2 -2 -6 -5.5t-6 -4.5l-121 -98 q-6 -5 -24 -12q-15 -6 -30 -6h-175z" />
<glyph unicode="&#xfc;" horiz-adv-x="1208" d="M40 930l14 121h156h253l-82 -668q-12 -96 26 -149t127 -53q63 0 126 29q59 27 119 81l68 557q-94 17 -101 18q-50 11 -44 64l15 121h155h253l-104 -848q60 -10 102 -19q49 -10 43 -64l-15 -120h-155h-155q-49 0 -58 46l-8 84q-42 -37 -74 -60q-35 -25 -80 -46 q-42 -19 -89 -30q-44 -10 -99 -10q-85 0 -149 29q-62 28 -101 82q-38 51 -52 127q-13 73 -3 161l57 465l-102 18q-49 10 -43 64zM376 1323q3 31 18 56q16 26 37 45q23 20 48 31t54 11q31 0 53 -11q27 -13 43 -31q17 -19 25 -45q8 -27 5 -56t-18 -54t-37 -43q-24 -19 -49 -29 q-28 -11 -56 -11q-27 0 -52 11q-24 11 -41 29q-18 20 -25 43q-8 27 -5 54zM759 1323q3 31 18 56t36 45q20 19 48 31q25 11 56 11t53 -11q27 -14 42 -31q18 -21 25 -45q8 -27 5 -56t-18 -54q-14 -24 -36 -43q-21 -18 -49 -29t-56 -11t-53 11q-24 11 -41 29q-18 20 -25 43 q-8 27 -5 54z" />
<glyph unicode="&#xfd;" horiz-adv-x="1290" d="M41 930l14 121h60h221h1h230l-15 -121q-6 -53 -59 -64q-3 0 -16.5 -2t-32.5 -6l116 -399q7 -26 12 -56q6 -38 8 -57q14 35 25 57q4 7 12.5 27t14.5 30l202 394q-17 3 -30 5.5t-18 3.5t-10 1.5t-9 1.5q-50 11 -44 64l15 121h247h1h202h62l-15 -121q-6 -53 -59 -64 q-17 -3 -99 -17l-626 -1138q-15 -27 -34 -40q-20 -14 -56 -14h-189l249 421l-242 771q-85 15 -95 17q-49 10 -43 64zM558 1194l176 249q17 26 41 40q23 14 63 14h245l-285 -267q-22 -21 -41 -28q-21 -8 -48 -8h-151z" />
<glyph unicode="&#xfe;" horiz-adv-x="1161" d="M35 -343l229 1865h253l-74 -600q73 68 154 106q84 39 190 39q86 0 152 -35q68 -36 111 -103q42 -65 59 -167q17 -99 0 -228q-15 -120 -58 -219q-43 -98 -112 -174q-66 -72 -157 -115q-86 -41 -192 -41q-42 0 -82 8q-35 7 -66 24q-33 18 -54 38q-25 24 -45 49l-55 -447 h-253zM363 272q36 -53 85 -74q48 -21 106 -21q55 0 107 22q49 21 87 65t63 111q27 71 37 159q12 89 4 156q-8 66 -29 104q-22 40 -60 58q-37 18 -88 18q-78 0 -138 -33q-59 -33 -116 -94z" />
<glyph unicode="&#xff;" horiz-adv-x="1290" d="M41 930l14 121h60h221h1h230l-15 -121q-6 -53 -59 -64q-3 0 -16.5 -2t-32.5 -6l116 -399q7 -26 12 -56q6 -38 8 -57q14 35 25 57q4 7 12.5 27t14.5 30l202 394q-17 3 -30 5.5t-18 3.5t-10 1.5t-9 1.5q-50 11 -44 64l15 121h247h1h202h62l-15 -121q-6 -53 -59 -64 q-17 -3 -99 -17l-626 -1138q-15 -27 -34 -40q-20 -14 -56 -14h-189l249 421l-242 771q-85 15 -95 17q-49 10 -43 64zM375 1323q3 31 18 56q17 28 36 45q22 19 49 31q25 11 54 11q31 0 53 -11q25 -12 42 -31q19 -20 26 -45q8 -27 5 -56t-18 -54t-37 -43q-23 -19 -50 -29 q-28 -11 -56 -11q-26 0 -51 11q-24 11 -41 29q-18 20 -25 43q-8 27 -5 54zM758 1323q3 31 18 56t36 45q20 19 48 31q25 11 56 11t53 -11q27 -14 42 -31q18 -21 25 -45q8 -27 5 -56t-18 -54q-14 -24 -36 -43q-20 -17 -50 -29q-28 -11 -56 -11t-53 11q-24 11 -41 29t-24 43 q-8 27 -5 54z" />
<glyph unicode="&#x152;" horiz-adv-x="2233" d="M49 740q20 164 85 302q66 138 168 240q101 101 233 158t282 57q149 0 263 -54t191 -152l24 190h901l-18 -142l-9 -77l-21 -170h-9h-25h-84q-40 0 -43 38q-2 16 1 132h-476l-50 -411h500l-26 -212h-500l-51 -419h475q21 96 32 133q14 38 52 38h84h25h9l-21 -171l-9 -76 l-18 -144h-901l23 189q-100 -96 -228 -150t-276 -54q-152 0 -269 57q-118 58 -194 157q-78 102 -109 240q-31 135 -11 301zM330 740q-14 -116 3 -219q17 -98 63 -167q46 -68 120 -105t172 -37q99 0 180 37q84 38 145 105q62 68 103 167t56 219t-2 220t-62 167 q-47 69 -119 106q-73 37 -171 37t-181 -37q-85 -38 -147 -106q-64 -70 -104 -167q-41 -99 -56 -220z" />
<glyph unicode="&#x153;" horiz-adv-x="1602" d="M38 368q0 172 46 301q46 130 125 219q77 87 181 133q102 45 213 45q103 0 174 -43q72 -43 114 -120q66 76 158 120q90 43 207 43q71 0 127 -19t97 -54q38 -33 62 -83q22 -47 22 -107q0 -66 -29 -126q-28 -58 -98 -104q-69 -46 -192 -79q-127 -34 -308 -52q3 -136 58 -198 q56 -64 152 -64q69 0 112 18q42 17 76 40q13 9 56 39q25 18 55 18q28 0 46 -23l64 -77q-53 -53 -106 -95q-47 -38 -107 -65q-58 -27 -115 -38q-60 -12 -131 -12q-99 0 -179 49q-81 49 -127 149q-77 -97 -178 -147q-104 -51 -227 -51q-87 0 -150 31q-68 33 -109 83 q-45 54 -67 122q-22 67 -22 147zM284 381q0 -39 8 -79q8 -38 27 -66q20 -29 51 -47q30 -17 76 -17q57 0 103 23q44 22 78 62q33 40 54 88q21 50 35 105q13 50 19 108q5 45 5 102q0 104 -39 161t-120 57q-69 0 -125 -36q-53 -34 -93 -101q-37 -61 -59 -157q-20 -87 -20 -203z M947 596q123 16 203 39q79 22 124 48q46 26 62 54q17 29 17 57q0 40 -33 68q-34 29 -104 29q-100 0 -172 -76q-74 -78 -97 -219z" />
<glyph unicode="&#x178;" horiz-adv-x="1516" d="M43 1360l15 121h33h37h85h121h277l-15 -121q-6 -53 -59 -64q-2 0 -10 -2q-1 0 -4.5 -1t-7.5 -2l-8 -2q-2 -1 -13 -3.5t-17 -3.5l152 -357q20 -49 31 -84q16 -52 22 -77q12 26 40 78q24 43 51 83l238 357q-7 2 -29 7q-5 1 -12 3l-7 2q-8 2 -9 2q-49 10 -43 64l15 121h275 h123h85h36h34l-15 -121q-6 -53 -59 -64q-1 0 -3 -0.5t-5 -1t-5 -0.5q-6 -1 -31 -6q-10 -2 -62 -10l-504 -703l-45 -372q13 -3 32.5 -6.5t26.5 -4.5q8 -2 18 -3.5t11 -1.5q10 -2 13 -3q49 -10 43 -64l-14 -120h-155h-276h-155l15 120q6 53 59 64q5 2 13 3q2 0 7 1t11 2t13 2 t27.5 4.5t34.5 6.5l46 372l-333 703q-13 3 -33 6t-26 4q-14 3 -29 6q-10 2 -13 2q-49 10 -43 64zM441 1707q3 26 17 53q12 23 35 44q18 17 46 30q23 11 52 11q31 0 53 -11q27 -14 41 -30q18 -22 25 -44q8 -27 5 -53q-3 -28 -18 -52q-16 -26 -36 -43q-22 -19 -48 -29t-56 -10 q-28 0 -49 10q-22 10 -39 29q-16 17 -24 43q-7 23 -4 52zM883 1707q3 26 17 53q12 23 35 44q18 17 48 30q25 11 54 11q31 0 53 -11q24 -12 39 -30q17 -20 24 -44q8 -27 5 -53q-3 -25 -18 -52t-34 -43q-23 -20 -47 -29q-26 -10 -55 -10t-52 10q-22 10 -40 29t-25 43 q-7 23 -4 52z" />
<glyph unicode="&#x2c6;" horiz-adv-x="816" d="M55 1196l270 285h237l200 -285h-169q-33 0 -49 18l-96 98q-1 1 -4 4.5t-5 5.5q-5 4 -9 12q-4 -6 -13 -12q-2 -2 -6 -5.5t-6 -4.5l-121 -98q-6 -5 -24 -12q-15 -6 -30 -6h-175z" />
<glyph unicode="&#x2dc;" horiz-adv-x="799" d="M59 1222q7 56 29 104q21 46 54 79q34 34 74 52q43 19 86 19q36 0 67 -14q36 -16 56 -28q10 -6 26.5 -16t21.5 -13q22 -13 42 -13q31 0 51 17q19 16 25 60h153q-8 -58 -28 -103q-20 -44 -54 -80q-33 -35 -72 -52q-38 -17 -87 -17q-38 0 -67 13q-36 16 -56 28 q-10 6 -26.5 16t-21.5 13q-22 13 -43 13q-31 0 -49 -17q-18 -16 -24 -61h-157z" />
<glyph unicode="&#x2000;" horiz-adv-x="959" />
<glyph unicode="&#x2001;" horiz-adv-x="1919" />
<glyph unicode="&#x2002;" horiz-adv-x="959" />
<glyph unicode="&#x2003;" horiz-adv-x="1919" />
<glyph unicode="&#x2004;" horiz-adv-x="639" />
<glyph unicode="&#x2005;" horiz-adv-x="479" />
<glyph unicode="&#x2006;" horiz-adv-x="319" />
<glyph unicode="&#x2007;" horiz-adv-x="319" />
<glyph unicode="&#x2008;" horiz-adv-x="239" />
<glyph unicode="&#x2009;" horiz-adv-x="383" />
<glyph unicode="&#x200a;" horiz-adv-x="106" />
<glyph unicode="&#x2010;" horiz-adv-x="677" d="M60 513l26 211h531l-26 -211h-531z" />
<glyph unicode="&#x2011;" horiz-adv-x="677" d="M60 513l26 211h531l-26 -211h-531z" />
<glyph unicode="&#x2012;" horiz-adv-x="677" d="M60 513l26 211h531l-26 -211h-531z" />
<glyph unicode="&#x2013;" horiz-adv-x="976" d="M61 524l22 179h831l-22 -179h-831z" />
<glyph unicode="&#x2014;" horiz-adv-x="1536" d="M61 524l22 179h1390l-22 -179h-1390z" />
<glyph unicode="&#x2018;" horiz-adv-x="436" d="M55 1230q12 101 76 196q63 93 171 171l73 -48q9 -6 12 -15q3 -10 2 -16q-2 -11 -6 -18q-5 -8 -11 -14q-8 -8 -32 -36q-18 -21 -33 -45q-16 -25 -27 -52t-16 -62q-4 -29 3 -74q6 -38 27 -82q7 -15 6 -29q-4 -33 -43 -46l-160 -60q-56 114 -42 230z" />
<glyph unicode="&#x2019;" horiz-adv-x="434" d="M48 1052q3 18 18 32q6 6 16.5 18.5t15.5 17.5q17 18 33 44q16 25 26 53q11 29 15 61q4 33 -2 74t-27 84q-7 13 -6 27q4 33 43 46l160 60q28 -56 39 -115q11 -57 3 -115q-12 -100 -76 -195q-62 -91 -170 -172l-73 48q-10 7 -13 15q-3 10 -2 17z" />
<glyph unicode="&#x201a;" horiz-adv-x="453" d="M56 -219q3 21 17 33q6 6 17.5 18.5t14.5 16.5q17 18 33 44q16 25 26 53q12 33 16 61q4 29 -3 74q-6 41 -27 84q-7 13 -6 28q4 32 44 46l159 59q28 -56 39 -115q10 -57 3 -114q-12 -101 -76 -196q-62 -91 -170 -172l-73 48q-9 6 -12 15q-3 10 -2 17z" />
<glyph unicode="&#x201c;" horiz-adv-x="776" d="M55 1230q12 101 76 196q63 93 171 171l73 -48q9 -6 12 -15q3 -10 2 -16q-2 -11 -6 -18q-5 -8 -11 -14q-8 -8 -32 -36q-18 -21 -33 -45q-16 -25 -27 -52t-16 -62q-4 -29 3 -74q6 -38 27 -82q7 -15 6 -29q-4 -33 -43 -46l-160 -60q-56 114 -42 230zM395 1230q12 101 76 196 q63 93 171 171l73 -48q9 -6 12 -15q3 -10 2 -16q-2 -11 -6 -18q-5 -8 -11 -14q-8 -8 -32 -36q-18 -21 -33 -45q-16 -25 -27 -52t-16 -62q-4 -29 3 -74q6 -38 27 -82q7 -15 6 -29q-4 -33 -43 -46l-160 -60q-56 114 -42 230z" />
<glyph unicode="&#x201d;" horiz-adv-x="774" d="M48 1052q3 18 18 32q16 16 32 35q21 25 33 44q15 24 26 54q11 29 15 61q4 33 -2 74t-27 84q-7 13 -6 27q4 33 43 46l160 60q28 -56 39 -115q11 -57 3 -115q-12 -100 -76 -195q-62 -91 -170 -172l-73 48q-10 7 -13 15q-3 10 -2 17zM388 1052q3 18 18 32q15 16 32 35 q21 25 33 44q15 24 26 54q11 29 15 61q4 33 -2 74t-27 84q-7 13 -6 27q4 33 43 46l160 60q28 -56 39 -115q11 -57 3 -115q-12 -100 -76 -195q-62 -91 -170 -172l-73 48q-10 7 -13 15q-3 10 -2 17z" />
<glyph unicode="&#x201e;" horiz-adv-x="793" d="M56 -219q3 21 17 33q21 21 32 34q21 25 33 44q15 24 26 54q12 33 16 61q4 29 -3 74q-6 41 -27 84q-7 13 -6 28q4 32 44 46l159 59q28 -56 39 -115q10 -57 3 -114q-12 -101 -76 -196q-62 -91 -170 -172l-73 48q-9 6 -12 15q-3 10 -2 17zM396 -219q3 21 17 33q21 21 32 34 q21 25 33 44q15 24 26 54q12 33 16 61q4 29 -3 74q-6 41 -27 84q-7 13 -6 28q4 33 43 46l160 59q28 -56 39 -115q10 -57 3 -114q-12 -101 -76 -196q-62 -91 -170 -172l-73 48q-9 6 -12 15q-3 10 -2 17z" />
<glyph unicode="&#x2022;" horiz-adv-x="1001" d="M54 607q12 95 56 173q44 79 113 142q67 62 153 96q87 35 178 35t170 -35q77 -34 130 -96t78 -142q27 -85 15 -173q-10 -86 -57 -171q-45 -80 -113 -141q-68 -60 -154 -95q-87 -35 -178 -35t-169 35q-77 35 -130 95q-52 60 -78 141q-25 78 -14 171z" />
<glyph unicode="&#x2026;" horiz-adv-x="1524" d="M59 139q5 34 19 61q15 28 39 49q25 22 53 33q30 12 63 12q32 0 59 -12t45 -33t27 -49q9 -30 5 -61t-20 -61q-12 -23 -39 -48q-22 -21 -53 -33q-27 -11 -62 -11t-60 11q-27 12 -45 33q-19 22 -27 48q-9 27 -4 61zM605 139q5 32 20 61t38 49q24 21 54 33t63 12q32 0 59 -12 t45 -33t27 -49q9 -30 5 -61t-20 -61q-12 -23 -39 -48q-22 -21 -53 -33q-28 -11 -62 -11q-35 0 -60 11q-27 12 -45 33q-19 22 -27 48q-9 29 -5 61zM1152 139q5 34 19 61q15 28 39 49t54 33t63 12q32 0 59 -12t45 -33t27 -49q9 -30 5 -61t-20 -61q-12 -23 -39 -48 q-22 -21 -53 -33q-28 -11 -62 -11q-35 0 -60 11q-29 13 -46 33t-26 48q-9 29 -5 61z" />
<glyph unicode="&#x202f;" horiz-adv-x="383" />
<glyph unicode="&#x2039;" horiz-adv-x="525" d="M49 535l4 32l312 406l78 -39q19 -9 27 -24q6 -13 5 -31q-3 -24 -18 -44l-171 -241q-18 -28 -38 -43q13 -13 27 -43l112 -242q11 -23 8 -44q-4 -36 -46 -54l-87 -39z" />
<glyph unicode="&#x203a;" horiz-adv-x="526" d="M50 223q3 23 18 43l171 242q18 26 38 43q-17 17 -27 43l-112 241q-11 23 -8 44q4 37 46 55l88 39l212 -406l-4 -32l-312 -406l-78 39q-20 9 -27 23q-7 13 -5 32z" />
<glyph unicode="&#x205f;" horiz-adv-x="479" />
<glyph unicode="&#x20ac;" horiz-adv-x="1295" d="M43 552l17 140h119q0 8 2 24l3 24l4 35q1 9 5 34h-118l17 141h136q39 123 103 226q64 102 146 172q81 70 180 109q95 38 207 38q143 0 237 -55q96 -56 152 -148l-101 -96q-8 -8 -24 -20q-12 -9 -33 -9q-12 0 -25 9q-3 2 -23 20q-18 16 -29 27q-12 12 -38 26 q-28 15 -54 21q-34 8 -77 8q-120 0 -214 -83q-93 -83 -146 -245h514l-9 -78q-3 -22 -25 -43q-22 -20 -54 -20h-461q-4 -25 -5 -34l-4 -35l-3 -24q-2 -16 -2 -24h434l-9 -77q-3 -23 -24 -43q-22 -20 -54 -20h-352q8 -176 78 -263q70 -86 192 -86q72 0 120 20q47 20 79 44 q20 15 52 45q22 20 44 20q8 0 20 -4q7 -2 15 -14l97 -100q-85 -111 -203 -169q-120 -59 -264 -59q-121 0 -211 40t-152 114q-63 76 -94 178q-32 107 -35 234h-130z" />
<glyph unicode="&#x2122;" horiz-adv-x="1441" d="M51 1337l18 144h510l-18 -144h-168l-58 -474h-175l58 474h-167zM577 863l75 618h151q22 0 34 -3q11 -3 19 -24l102 -261q8 -24 11 -36q3 -10 7 -37q3 6 9 18.5t9 18.5q12 24 20 36l169 261q12 20 25 23q16 4 34 4h151l-76 -618h-154l38 309l24 102l-195 -309 q-24 -38 -64 -38h-24q-42 0 -56 38l-117 304l-1 -97l-38 -309h-153z" />
<glyph unicode="&#xe000;" horiz-adv-x="1049" d="M0 0v1050h1050v-1050h-1050z" />
</font>
</defs>
</svg>
